<?xml version="1.0" standalone="no"?>
<!DOCTYPE svg PUBLIC "-//W3C//DTD SVG 1.1//EN" "http://www.w3.org/Graphics/SVG/1.1/DTD/svg11.dtd" >
<svg xmlns="http://www.w3.org/2000/svg">
<metadata></metadata>
<defs>
<font id="proxima_nova_condensedLtIt" horiz-adv-x="962" >
<font-face units-per-em="2048" ascent="1618" descent="-430" />
<missing-glyph horiz-adv-x="444" />
<glyph unicode="&#xfb01;" horiz-adv-x="882" d="M66 0l198 897h-131l21 92h131l30 139q27 129 93.5 193.5t166.5 64.5q73 0 123 -32l-45 -84q-31 24 -75 24q-120 0 -160 -166l-29 -139h170l-20 -92h-170l-199 -897h-104zM524 0l219 989h103l-219 -989h-103zM764 1217q0 38 28.5 63t61.5 25q31 0 52.5 -20.5t21.5 -49.5 q0 -39 -28.5 -64.5t-61.5 -25.5q-32 0 -53 21t-21 51z" />
<glyph unicode="&#xfb02;" horiz-adv-x="882" d="M66 0l198 897h-131l21 92h131l30 139q27 129 93.5 193.5t166.5 64.5q73 0 123 -32l-45 -84q-31 24 -75 24q-120 0 -160 -166l-29 -139h170l-20 -92h-170l-199 -897h-104zM524 0l301 1366h103l-301 -1366h-103z" />
<glyph unicode="&#xfb03;" horiz-adv-x="1370" d="M66 0l198 897h-131l21 92h131l30 141q26 121 90.5 188.5t169.5 67.5q103 0 164 -67l-61 -76q-39 51 -100 51q-123 0 -160 -166l-29 -139h170l-20 -92h-170l-199 -897h-104zM555 0l199 897h-131l20 92h131l31 139q27 129 93.5 193.5t166.5 64.5q73 0 123 -32l-45 -84 q-31 24 -76 24q-120 0 -160 -166l-28 -139h170l-21 -92h-170l-199 -897h-104zM1012 0l219 989h102l-219 -989h-102zM1251 1217q0 38 28.5 63t61.5 25q31 0 52.5 -20.5t21.5 -49.5q0 -39 -28.5 -64.5t-61.5 -25.5q-32 0 -53 21t-21 51z" />
<glyph unicode="&#xfb04;" horiz-adv-x="1370" d="M66 0l198 897h-131l21 92h131l30 141q26 121 90.5 188.5t169.5 67.5q103 0 164 -67l-61 -76q-39 51 -100 51q-123 0 -160 -166l-29 -139h170l-20 -92h-170l-199 -897h-104zM555 0l199 897h-131l20 92h131l31 139q27 129 93.5 193.5t166.5 64.5q73 0 123 -32l-45 -84 q-31 24 -76 24q-120 0 -160 -166l-28 -139h170l-21 -92h-170l-199 -897h-104zM1012 0l301 1366h102l-301 -1366h-102z" />
<glyph horiz-adv-x="2048" />
<glyph horiz-adv-x="2048" />
<glyph unicode="&#xd;" horiz-adv-x="2048" />
<glyph unicode=" "  horiz-adv-x="444" />
<glyph unicode="&#x09;" horiz-adv-x="444" />
<glyph unicode="&#xa0;" horiz-adv-x="444" />
<glyph unicode="!" horiz-adv-x="446" d="M39 61q0 40 28 67.5t68 27.5q34 0 57 -23t23 -57q0 -40 -28 -68t-68 -28q-34 0 -57 23.5t-23 57.5zM150 354l196 1012h135l-250 -1012h-81z" />
<glyph unicode="&#x22;" horiz-adv-x="645" d="M242 879q49 401 51 419q5 39 27.5 63.5t58.5 24.5q27 0 45 -18t18 -47q0 -1 -10 -41l-133 -401h-57zM508 879q49 401 51 419q5 39 27.5 63.5t58.5 24.5q27 0 45.5 -18t18.5 -47q0 -6 -2 -14.5t-5 -16.5t-4 -10l-133 -401h-57z" />
<glyph unicode="#" horiz-adv-x="1011" d="M10 0l193 381h-187l39 84h189l223 436h-191l37 82h195l190 383h95l-191 -383h195l190 383h94l-192 -383h186l-35 -82h-192l-223 -436h194l-39 -84h-194l-193 -381h-94l195 381h-197l-193 -381h-94zM338 465h192l226 436h-197z" />
<glyph unicode="$" horiz-adv-x="929" d="M12 162l82 84q39 -64 104 -106t144 -56l129 582q-47 32 -74.5 52t-65.5 55.5t-58.5 67t-36 76t-15.5 93.5q0 157 118 268t279 111h15l41 184h92l-45 -195q171 -37 248 -149l-78 -82q-67 101 -193 127l-116 -531q43 -31 72 -54t64 -57.5t55.5 -67.5t35 -77.5t14.5 -93.5 q0 -172 -113.5 -293.5t-299.5 -124.5l-39 -180h-92l40 189q-100 15 -182.5 63t-124.5 115zM344 1022q0 -65 41 -116.5t117 -106.5l106 485q-112 -3 -188 -81t-76 -181zM434 80q123 9 195.5 94t72.5 207q0 69 -39 121.5t-112 107.5z" />
<glyph unicode="%" horiz-adv-x="1312" d="M152 0l1013 1366h86l-1018 -1366h-81zM180 975q0 173 99.5 292t228.5 119q113 0 181.5 -74.5t68.5 -185.5q0 -173 -99 -291t-229 -118q-113 0 -181.5 73.5t-68.5 184.5zM272 983q0 -88 44.5 -138t117.5 -50q91 0 161.5 94.5t70.5 230.5q0 88 -44 138.5t-116 50.5 q-92 0 -163 -95.5t-71 -230.5zM635 236q0 87 27.5 164t73 130t104.5 84t121 31q114 0 181.5 -73t67.5 -185q0 -174 -98.5 -293t-226.5 -119q-114 0 -182 74.5t-68 186.5zM725 242q0 -88 44.5 -138.5t117.5 -50.5q90 0 161.5 95.5t71.5 230.5q0 88 -44.5 138t-117.5 50 q-91 0 -162 -94.5t-71 -230.5z" />
<glyph unicode="&#x26;" horiz-adv-x="1044" d="M37 262q0 76 20 143t50.5 116t78.5 95t92.5 77t104.5 67q-33 112 -33 225q0 160 95 280.5t217 120.5q96 0 155.5 -53.5t59.5 -158.5q0 -64 -22 -121.5t-48.5 -95t-84.5 -83t-91 -66.5t-107 -65q-5 -3 -7 -4.5t-6 -3.5t-7 -4q25 -73 84 -207q59 -148 96 -219 q103 140 188 318l84 -45q-118 -235 -225 -367q14 -26 125 -211h-129q-25 42 -72 127q-152 -152 -317 -152q-132 0 -216.5 76t-84.5 211zM154 272q0 -96 56 -150t140 -54q123 0 260 147q-67 129 -112 238q-45 105 -88 219q-57 -37 -99.5 -73.5t-80 -85t-57 -109.5t-19.5 -132 zM459 975q0 -70 20 -158q55 31 92 55t79 58.5t66.5 68t41 78t16.5 94.5q0 66 -32.5 96.5t-84.5 30.5q-73 0 -135.5 -97.5t-62.5 -225.5z" />
<glyph unicode="'" horiz-adv-x="382" d="M242 879q49 401 51 419q5 39 27.5 63.5t58.5 24.5q27 0 45 -18t18 -47q0 -1 -10 -41l-133 -401h-57z" />
<glyph unicode="(" horiz-adv-x="425" d="M45 84q0 695 477 1319l60 -43q-199 -304 -314.5 -648t-115.5 -689q0 -80 12.5 -194t32.5 -206l-72 -31q-80 233 -80 492z" />
<glyph unicode=")" horiz-adv-x="425" d="M-158 -365q199 304 314.5 648.5t115.5 689.5q0 174 -45 399l72 31q80 -233 80 -492q0 -697 -479 -1319z" />
<glyph unicode="*" horiz-adv-x="645" d="M166 1024l237 84l-186 129l51 61l170 -149l41 237h78l-65 -243l229 106l22 -67l-235 -84l186 -129l-53 -62l-170 150l-41 -238h-78l68 242l-232 -105z" />
<glyph unicode="+" horiz-adv-x="892" d="M92 649l19 82h342l82 373h90l-82 -373h342l-19 -82h-342l-86 -385h-90l86 385h-342z" />
<glyph unicode="," horiz-adv-x="446" d="M-37 -184q57 29 102 77t58 95h-14q-29 0 -49.5 21t-20.5 52q0 38 28.5 66.5t65.5 28.5q38 0 62 -25.5t24 -71.5q0 -83 -62 -168.5t-145 -128.5z" />
<glyph unicode="-" horiz-adv-x="544" d="M49 449l21 94h422l-19 -94h-424z" />
<glyph unicode="." horiz-adv-x="446" d="M39 61q0 40 28 67.5t68 27.5q34 0 58 -23t24 -57q0 -40 -29 -68t-69 -28q-34 0 -57 23.5t-23 57.5z" />
<glyph unicode="/" horiz-adv-x="481" d="M-121 -41l713 1448h94l-715 -1448h-92z" />
<glyph unicode="0" horiz-adv-x="1028" d="M111 414q0 122 24 255.5t72.5 261t114 229.5t155.5 164t189 62q158 0 243.5 -113t85.5 -323q0 -102 -17 -213t-49 -220t-81 -207t-108.5 -172.5t-136.5 -118.5t-161 -44q-159 0 -245 113.5t-86 325.5zM225 399q0 -150 54.5 -234.5t171.5 -84.5q76 0 145.5 61t120 158 t88.5 215t57 235.5t19 215.5q0 317 -224 317q-76 0 -146 -61t-120.5 -158t-89 -215t-57.5 -235t-19 -214z" />
<glyph unicode="1" horiz-adv-x="589" d="M160 1057l362 309h103l-301 -1366h-113l266 1212l-262 -231z" />
<glyph unicode="2" horiz-adv-x="976" d="M4 0l27 119q68 64 163.5 154t149.5 140.5t127 121t112.5 112.5t89 97t74.5 93.5t49.5 82.5t34 82t9.5 77q0 94 -63.5 149.5t-164.5 55.5q-170 0 -286 -147l-70 73q69 82 163 129t197 47q148 0 247.5 -77t99.5 -219q0 -158 -150 -351q-104 -135 -370 -389 q-42 -40 -133 -126q-84 -80 -128 -122h568l-23 -102h-723z" />
<glyph unicode="3" horiz-adv-x="935" d="M2 254l96 53q32 -108 110 -167.5t183 -59.5q134 0 216.5 107t82.5 253q0 100 -67.5 155.5t-173.5 55.5q-69 0 -89 -2l27 109q16 -2 135 -2q126 0 210.5 92t84.5 227q0 95 -65 151t-174 56q-157 0 -281 -149l-66 69q64 83 158.5 133.5t198.5 50.5q155 0 251.5 -79 t96.5 -220q0 -148 -95.5 -260t-228.5 -133q88 -26 140.5 -99t52.5 -169q0 -115 -50.5 -217.5t-147 -168t-216.5 -65.5q-141 0 -247.5 74.5t-141.5 204.5z" />
<glyph unicode="4" horiz-adv-x="901" d="M20 375l25 110l690 881h152l-197 -889h156l-23 -102h-155l-82 -375h-113l82 375h-535zM154 477h421l168 752z" />
<glyph unicode="5" horiz-adv-x="976" d="M53 250l99 53q60 -223 278 -223q84 0 159 61.5t119 162t44 210.5q0 111 -63 173.5t-169 62.5q-122 0 -246 -111l-77 45l151 682h645l-22 -102h-531l-114 -514q95 98 241 98q131 0 217 -87t86 -239q0 -104 -34 -203t-92 -175t-142 -122.5t-178 -46.5q-147 0 -236.5 70.5 t-134.5 204.5z" />
<glyph unicode="6" horiz-adv-x="978" d="M104 387q0 66 10 148.5t32 179t53.5 190.5t79.5 181.5t105.5 153.5t134.5 106t163 40q112 0 194.5 -57.5t116.5 -159.5l-88 -65q-24 85 -82.5 131.5t-146.5 46.5q-69 0 -130 -37t-105 -94.5t-82 -139t-62 -159t-43 -164.5q-5 -15 -8 -39q53 78 141.5 135.5t185.5 57.5 q136 0 221 -81.5t85 -228.5q0 -77 -20 -156t-59 -150.5t-91.5 -128t-123.5 -89.5t-149 -33q-166 0 -249 110.5t-83 301.5zM213 367q0 -133 58.5 -210t172.5 -77q70 0 132 43t101.5 110t62 143t22.5 146q0 99 -60 160t-165 61q-164 0 -312 -217q-12 -78 -12 -159z" />
<glyph unicode="7" horiz-adv-x="827" d="M92 0l713 1264h-580l23 102h713l-19 -78l-721 -1288h-129z" />
<glyph unicode="8" horiz-adv-x="964" d="M55 276q0 151 99 268t272 173q-79 41 -136 118t-57 169q0 107 56.5 196t147 137.5t192.5 48.5q144 0 244 -76.5t100 -217.5q0 -80 -28 -148t-77 -116.5t-109 -82t-130 -51.5q84 -51 143 -133t59 -182q0 -173 -119 -288.5t-288 -115.5q-168 0 -268.5 76t-100.5 225z M176 297q0 -105 70.5 -161t175.5 -56q114 0 203.5 89t89.5 222q0 98 -63.5 170.5t-133.5 95.5q-143 -24 -242.5 -122.5t-99.5 -237.5zM350 989q0 -78 58.5 -144.5t128.5 -94.5q62 11 117 36.5t100 65.5t71.5 99t26.5 130q0 89 -64.5 145t-166.5 56q-110 0 -190.5 -83.5 t-80.5 -209.5z" />
<glyph unicode="9" horiz-adv-x="978" d="M66 195l88 65q24 -85 82.5 -131.5t146.5 -46.5q69 0 130 37t105 94.5t82 139t62 159t43 164.5q5 15 8 39q-57 -79 -144.5 -136t-183.5 -57q-136 0 -220.5 81t-84.5 228q0 77 20 156t59 151t91.5 128t123.5 89.5t149 33.5q166 0 248.5 -110.5t82.5 -301.5q0 -66 -10 -149 t-32 -179.5t-53.5 -190t-79 -181t-105 -154t-134.5 -106.5t-163 -40q-112 0 -194.5 58t-116.5 160zM297 842q0 -99 60 -160t165 -61q164 0 312 217q12 78 12 159q0 133 -59 210t-173 77q-93 0 -168 -73.5t-112 -173.5t-37 -195z" />
<glyph unicode=":" horiz-adv-x="444" d="M39 61q0 40 28 67.5t68 27.5q34 0 58 -23t24 -57q0 -40 -29 -68t-69 -28q-34 0 -57 23.5t-23 57.5zM225 909q0 39 29.5 67t69.5 28q34 0 56.5 -23.5t22.5 -58.5q0 -38 -28.5 -66.5t-67.5 -28.5q-34 0 -58 24t-24 58z" />
<glyph unicode=";" horiz-adv-x="446" d="M-37 -184q57 29 102 77t58 95h-14q-29 0 -49.5 21t-20.5 52q0 38 28.5 66.5t65.5 28.5q38 0 62 -25.5t24 -71.5q0 -83 -62 -168.5t-145 -128.5zM225 909q0 39 29.5 67t69.5 28q34 0 56.5 -23.5t22.5 -58.5q0 -38 -28.5 -66.5t-67.5 -28.5q-34 0 -58 24t-24 58z" />
<glyph unicode="&#x3c;" horiz-adv-x="892" d="M90 647l19 76l860 389l-25 -104l-739 -328l594 -326l-21 -94z" />
<glyph unicode="=" horiz-adv-x="892" d="M45 442l18 82h777l-21 -82h-774zM135 844l19 82h774l-19 -82h-774z" />
<glyph unicode="&#x3e;" horiz-adv-x="892" d="M4 260l25 102l743 326l-598 330l21 94l688 -389l-17 -76z" />
<glyph unicode="?" horiz-adv-x="790" d="M205 61q0 40 28 67.5t68 27.5q35 0 58.5 -23t23.5 -57q0 -40 -29 -68t-69 -28q-34 0 -57 23.5t-23 57.5zM227 1266q131 120 308 120q145 0 234 -77t89 -191q0 -69 -25.5 -128.5t-66 -102.5t-89.5 -81.5t-98.5 -72t-90 -67t-66 -75t-25.5 -87.5q0 -54 29 -96l-94 -48 q-39 62 -39 138q0 59 24.5 110t63.5 88t86.5 71.5t95 68.5t86.5 70.5t63.5 86t24.5 107.5q0 79 -59 132.5t-160 53.5q-138 0 -244 -100z" />
<glyph unicode="@" horiz-adv-x="1400" d="M113 471q0 130 38.5 256t108.5 229.5t161 183t202.5 123.5t226.5 44q231 0 375.5 -162t144.5 -420q0 -241 -94 -396t-215 -155q-72 0 -116 46.5t-46 113.5l-2 12q-49 -74 -120.5 -123t-155.5 -49q-108 0 -178 74.5t-70 214.5q0 141 57.5 270.5t157.5 210t215 80.5 q77 0 130 -46t75 -116l26 125h96l-122 -584q-4 -20 -4 -49q0 -48 21.5 -73t59.5 -25q29 0 65 28t71.5 81.5t59.5 149t24 212.5q0 233 -127.5 373.5t-331.5 140.5q-131 0 -254.5 -65.5t-213 -172t-144 -247t-54.5 -283.5q0 -245 139 -399t357 -154q171 0 328 117l32 -51 q-175 -129 -368 -129q-160 0 -286.5 77.5t-197.5 217.5t-71 319zM477 469q0 -98 43 -155.5t123 -57.5q147 0 275 195l69 327q-16 64 -60 113t-114 49q-95 0 -174 -74.5t-120.5 -181.5t-41.5 -215z" />
<glyph unicode="A" horiz-adv-x="1009" d="M-86 0l713 1366h137l110 -1366h-118l-25 338h-516l-172 -338h-129zM264 440h463l-55 793z" />
<glyph unicode="B" horiz-adv-x="1019" d="M43 0l301 1366h363q131 0 214 -79.5t83 -207.5q0 -143 -80 -255.5t-203 -133.5q74 -21 119 -96.5t45 -161.5q0 -81 -26.5 -157.5t-75.5 -138t-128.5 -99t-177.5 -37.5h-434zM178 102h299q87 0 154.5 49.5t101 124.5t33.5 160q0 100 -55.5 156.5t-155.5 56.5h-256z M324 752h292q56 0 101.5 20t75.5 52.5t50 74.5t29 84t9 84q0 90 -56 143.5t-145 53.5h-244z" />
<glyph unicode="C" horiz-adv-x="1071" d="M113 457q0 157 47 321.5t128 300.5t201 223t254 87q144 0 243.5 -77t146.5 -212l-109 -35q-39 111 -113.5 165t-175.5 54t-196 -79t-161 -200.5t-105.5 -268t-39.5 -281.5q0 -179 84 -277t234 -98q154 0 295 166l86 -58q-171 -213 -389 -213q-194 0 -312 128t-118 354z " />
<glyph unicode="D" horiz-adv-x="1126" d="M43 0l301 1366h324q82 0 155.5 -33t130 -93.5t90 -154t33.5 -206.5q0 -69 -12 -146.5t-38.5 -163t-65.5 -166.5t-97 -154.5t-127.5 -128.5t-163 -87.5t-198.5 -32.5h-332zM178 102h215q108 0 202.5 53t159 137t112 187.5t69.5 205t22 189.5q0 180 -88 285t-223 105h-211z " />
<glyph unicode="E" horiz-adv-x="927" d="M43 0l301 1366h668l-21 -102h-555l-112 -512h538l-22 -103h-541l-121 -547h555l-22 -102h-668z" />
<glyph unicode="F" horiz-adv-x="903" d="M43 0l301 1366h668l-21 -102h-555l-112 -512h538l-22 -103h-541l-141 -649h-115z" />
<glyph unicode="G" horiz-adv-x="1132" d="M113 457q0 126 29 257.5t85.5 251.5t132 215t177 151.5t211.5 56.5q145 0 240 -77.5t140 -201.5l-102 -39q-36 101 -110.5 157t-180.5 56q-102 0 -197 -78t-160.5 -199.5t-105 -268t-39.5 -283.5q0 -183 84.5 -279t233.5 -96q155 0 287 143l77 352h-358l23 103h467 l-111 -502q-175 -201 -393 -201q-197 0 -313.5 128.5t-116.5 353.5z" />
<glyph unicode="H" horiz-adv-x="1146" d="M43 0l301 1366h115l-135 -612h612l133 612h115l-301 -1366h-115l143 651h-610l-143 -651h-115z" />
<glyph unicode="I" horiz-adv-x="421" d="M43 0l301 1366h115l-301 -1366h-115z" />
<glyph unicode="J" horiz-adv-x="798" d="M-55 121l69 80q33 -59 88.5 -90t124.5 -31q212 0 267 254l227 1032h115l-228 -1034q-80 -357 -375 -357q-95 0 -170.5 37.5t-117.5 108.5z" />
<glyph unicode="K" horiz-adv-x="1005" d="M43 0l301 1366h115l-162 -729l672 729h147l-610 -651l350 -715h-131l-301 639l-166 -180l-100 -459h-115z" />
<glyph unicode="L" horiz-adv-x="823" d="M29 0l301 1366h114l-280 -1264h512l-23 -102h-624z" />
<glyph unicode="M" horiz-adv-x="1355" d="M43 0l301 1366h162l117 -1094l600 1094h170l-301 -1366h-115l262 1188l-649 -1188h-45l-125 1188l-262 -1188h-115z" />
<glyph unicode="N" horiz-adv-x="1142" d="M43 0l301 1366h115l358 -1120l248 1120h115l-301 -1366h-111l-358 1137l-252 -1137h-115z" />
<glyph unicode="O" horiz-adv-x="1208" d="M113 457q0 119 28 247.5t83 250.5t129.5 219t176 156t213.5 59q195 0 314 -132.5t119 -349.5q0 -119 -28 -247.5t-84 -250.5t-130.5 -219t-176.5 -156t-214 -59q-195 0 -312.5 131.5t-117.5 350.5zM233 455q0 -176 87.5 -275.5t230.5 -99.5q103 0 198 77.5t160.5 198 t104.5 267.5t39 284q0 178 -88 277.5t-232 99.5q-83 0 -161 -50.5t-138.5 -136t-106.5 -192t-70 -223.5t-24 -227z" />
<glyph unicode="P" horiz-adv-x="958" d="M43 0l301 1366h354q130 0 214.5 -91t84.5 -228q0 -87 -27.5 -169.5t-80.5 -152.5t-143 -113t-203 -43h-260l-125 -569h-115zM305 672h254h-4q78 0 140 31.5t100.5 84.5t58.5 117.5t20 134.5q0 100 -56.5 162t-143.5 62h-238z" />
<glyph unicode="Q" horiz-adv-x="1208" d="M113 457q0 119 28 247.5t83 250.5t129.5 219t176 156t213.5 59q195 0 314 -132.5t119 -349.5q0 -222 -93 -455t-247 -362l51 -117l-94 -36l-43 94q-101 -56 -207 -56q-195 0 -312.5 131.5t-117.5 350.5zM233 455q0 -176 87.5 -275.5t230.5 -99.5q81 0 158 49l-121 279 l92 36l108 -249q118 118 191.5 318.5t73.5 393.5q0 178 -88 277.5t-232 99.5q-83 0 -161 -50.5t-138.5 -136t-106.5 -192t-70 -223.5t-24 -227z" />
<glyph unicode="R" horiz-adv-x="1005" d="M43 0l301 1366h342q130 0 221.5 -88t91.5 -229q0 -186 -106 -317.5t-272 -151.5l174 -580h-125l-160 569h-227l-125 -569h-115zM305 672h252q101 0 175.5 54.5t109.5 137t35 178.5q0 101 -59 161.5t-144 60.5h-238z" />
<glyph unicode="S" horiz-adv-x="940" d="M10 162l82 84q50 -77 133.5 -121.5t182.5 -44.5q133 0 212.5 87t79.5 214q0 54 -26.5 101.5t-69 83.5t-93.5 71t-102.5 72.5t-94 78.5t-69 98.5t-26.5 123.5q0 157 118 268t279 111q110 0 205 -43t146 -117l-78 -82q-44 67 -118 102t-159 35q-114 0 -192 -78.5 t-78 -183.5q0 -49 26.5 -93t68.5 -79.5t93 -71t102.5 -74.5t93.5 -82t68.5 -102t26.5 -127q0 -172 -115.5 -295t-302.5 -123q-126 0 -233.5 52.5t-159.5 134.5z" />
<glyph unicode="T" horiz-adv-x="890" d="M223 1264l23 102h782l-22 -102h-336l-279 -1264h-115l281 1264h-334z" />
<glyph unicode="U" horiz-adv-x="1130" d="M129 330q0 58 10 100l205 936h115l-207 -938q-10 -35 -10 -86q0 -122 73 -193t199 -71q137 0 215 85.5t117 264.5l207 938h114l-206 -936q-51 -230 -156.5 -342.5t-294.5 -112.5q-174 0 -277.5 95t-103.5 260z" />
<glyph unicode="V" horiz-adv-x="1009" d="M215 1366h119l86 -1225l627 1225h129l-713 -1366h-137z" />
<glyph unicode="W" horiz-adv-x="1421" d="M231 0v1366h121l-16 -1182l512 1182h102l-10 -1182l506 1182h125l-602 -1366h-127l12 1149l-498 -1149h-125z" />
<glyph unicode="X" horiz-adv-x="1009" d="M-86 0l565 705l-241 661h127l200 -567l441 567h145l-537 -674l258 -692h-124l-218 598l-473 -598h-143z" />
<glyph unicode="Y" horiz-adv-x="989" d="M207 1366h123l200 -666l498 666h135l-592 -780l-129 -586h-114l129 586z" />
<glyph unicode="Z" horiz-adv-x="927" d="M-25 0l23 100l856 1164h-598l20 102h742l-21 -98l-860 -1166h617l-23 -102h-756z" />
<glyph unicode="[" horiz-adv-x="409" d="M-125 -389l395 1778h301l-20 -86h-213l-356 -1606h213l-19 -86h-301z" />
<glyph unicode="\" horiz-adv-x="481" d="M190 1407h91l81 -1448h-90z" />
<glyph unicode="]" horiz-adv-x="409" d="M-162 -389l21 86h211l354 1606h-211l18 86h301l-395 -1778h-299z" />
<glyph unicode="^" horiz-adv-x="772" d="M78 682l459 684h81l154 -684h-88l-121 596l-387 -596h-98z" />
<glyph unicode="_" horiz-adv-x="864" d="M-154 -168l21 86h874l-20 -86h-875z" />
<glyph unicode="`" horiz-adv-x="356" d="M207 1434h119l172 -295h-80z" />
<glyph unicode="a" d="M74 319q0 110 31 230t85.5 224.5t142 172.5t189.5 68q90 0 159.5 -48t106.5 -135l33 158h105l-219 -989h-105l33 141q-113 -166 -275 -166q-131 0 -208.5 92t-77.5 252zM184 332q0 -128 56 -196t155 -68q74 0 147 55t117 133l107 481q-23 78 -87 131.5t-147 53.5 q-77 0 -145 -60t-111 -151t-67.5 -191.5t-24.5 -187.5z" />
<glyph unicode="b" d="M35 0l301 1366h102l-112 -518q110 166 272 166q132 0 210.5 -91.5t78.5 -252.5q0 -110 -31 -230t-86.5 -224.5t-143 -172.5t-188.5 -68q-90 0 -159.5 48t-106.5 135l-35 -158h-102zM193 252q23 -78 86.5 -131t148.5 -53q77 0 145 60t111 150.5t67.5 191t24.5 187.5 q0 127 -56.5 196t-154.5 69q-75 0 -147.5 -55t-118.5 -134z" />
<glyph unicode="c" horiz-adv-x="819" d="M76 358q0 88 21.5 180.5t64 177t99.5 151.5t135 107t163 40q184 0 270 -142l-71 -65q-31 57 -83.5 86t-113.5 29q-70 0 -131.5 -36.5t-105 -96t-75.5 -134.5t-47.5 -152.5t-15.5 -148.5q0 -141 67 -213.5t179 -72.5q113 0 201 98l47 -74q-58 -60 -119 -88.5t-141 -28.5 q-156 0 -250 99t-94 284z" />
<glyph unicode="d" d="M74 319q0 110 31 230t85.5 224.5t142 172.5t189.5 68q90 0 159.5 -48t106.5 -135l117 535h105l-303 -1366h-105l33 141q-113 -166 -275 -166q-131 0 -208.5 92t-77.5 252zM184 332q0 -128 56 -196t155 -68q74 0 147 55t117 133l107 481q-23 78 -87 131.5t-147 53.5 q-77 0 -145 -60t-111 -151t-67.5 -191.5t-24.5 -187.5z" />
<glyph unicode="e" horiz-adv-x="950" d="M76 356q0 99 32.5 211.5t90.5 213t151 167t201 66.5q151 0 238.5 -96t87.5 -265q0 -94 -27 -192h-657q-11 -64 -11 -109q0 -127 69.5 -208t199.5 -81q60 0 124 31t115 84l47 -69q-61 -63 -138 -98.5t-157 -35.5q-172 0 -269 101t-97 280zM207 543h549h8q12 53 12 110 q0 120 -60.5 196.5t-172.5 76.5q-83 0 -156.5 -59t-118.5 -145t-61 -179z" />
<glyph unicode="f" horiz-adv-x="489" d="M66 0l198 897h-131l21 92h131l30 141q26 121 90.5 188.5t169.5 67.5q103 0 164 -67l-61 -76q-39 51 -100 51q-123 0 -160 -166l-29 -139h170l-20 -92h-170l-199 -897h-104z" />
<glyph unicode="g" d="M-27 -262l70 80q40 -61 109 -94t159 -33q219 0 285 282l41 177q-112 -166 -281 -166q-126 0 -204 87.5t-78 258.5q0 70 13 146.5t37.5 153.5t63.5 146t87 122t111.5 84.5t133.5 31.5q80 0 156 -51t112 -132l35 158h103l-228 -1016q-83 -374 -389 -374q-230 0 -336 139z M184 340q0 -131 55 -197.5t154 -66.5q71 0 144 52.5t122 129.5l107 477q-25 79 -92.5 133t-147.5 54q-77 0 -143.5 -59t-108.5 -148t-66 -188.5t-24 -186.5z" />
<glyph unicode="h" horiz-adv-x="921" d="M35 0l301 1366h102l-112 -520q142 168 297 168q101 0 160 -51t59 -142q0 -21 -11 -76l-163 -745h-105l160 727q10 40 10 64q0 67 -40 99t-111 32q-72 0 -147 -52.5t-134 -128.5l-164 -741h-102z" />
<glyph unicode="i" horiz-adv-x="393" d="M35 0l219 989h102l-219 -989h-102zM274 1217q0 38 29 63t62 25q31 0 52 -20.5t21 -49.5q0 -39 -28.5 -64.5t-61.5 -25.5q-32 0 -53 21t-21 51z" />
<glyph unicode="j" horiz-adv-x="393" d="M-307 -322l65 72q14 -27 41 -43t60 -16q52 0 86.5 38t54.5 124l254 1136h102l-252 -1136q-31 -135 -87 -194.5t-152 -59.5q-122 0 -172 79zM274 1217q0 38 29 63t62 25q31 0 52 -20.5t21 -49.5q0 -39 -28.5 -64.5t-61.5 -25.5q-32 0 -53 21t-21 51z" />
<glyph unicode="k" horiz-adv-x="870" d="M35 0l301 1366h102l-207 -942l580 565h129l-457 -446l236 -543h-117l-201 477l-202 -198l-62 -279h-102z" />
<glyph unicode="l" horiz-adv-x="393" d="M35 0l301 1366h102l-301 -1366h-102z" />
<glyph unicode="m" horiz-adv-x="1372" d="M35 0l219 989h102l-30 -143q50 69 122.5 118.5t151.5 49.5q93 0 147 -51t54 -115v-17q138 183 291 183q88 0 144 -51t56 -140q0 -28 -12 -78l-164 -745h-104l164 735q8 40 8 56q0 63 -36.5 97t-96.5 34q-64 0 -134.5 -52t-125.5 -127l-164 -743h-105l164 735q8 50 8 64 q0 58 -34.5 90.5t-98.5 32.5t-133 -51.5t-127 -127.5l-164 -743h-102z" />
<glyph unicode="n" horiz-adv-x="921" d="M35 0l219 989h102l-30 -143q142 168 297 168q101 0 160 -50t59 -143q0 -27 -11 -76l-163 -745h-105l160 727q10 45 10 64q0 67 -40 99t-111 32q-72 0 -146.5 -52t-134.5 -127l-164 -743h-102z" />
<glyph unicode="o" d="M76 346q0 113 34 230t93 215t151 160.5t197 62.5q153 0 242.5 -97t89.5 -274q0 -113 -33.5 -230t-93 -215t-150.5 -160.5t-196 -62.5q-155 0 -244.5 97t-89.5 274zM184 346q0 -136 61 -207t169 -71q77 0 146.5 57t115 144t72 186.5t26.5 187.5q0 136 -60.5 207.5 t-168.5 71.5q-77 0 -146.5 -57.5t-115 -144.5t-72.5 -186.5t-27 -187.5z" />
<glyph unicode="p" horiz-adv-x="958" d="M-49 -377l303 1366h102l-30 -141q110 166 272 166q132 0 210.5 -91.5t78.5 -252.5q0 -110 -31 -230t-86.5 -224.5t-143 -172.5t-188.5 -68q-90 0 -159.5 48t-106.5 135l-119 -535h-102zM193 252q23 -78 86.5 -131t148.5 -53q77 0 145 60t111 150.5t67.5 191t24.5 187.5 q0 127 -56.5 196t-154.5 69q-75 0 -147.5 -55t-118.5 -134z" />
<glyph unicode="q" horiz-adv-x="958" d="M74 319q0 110 31 230t85.5 224.5t142 172.5t189.5 68q90 0 159.5 -48t106.5 -135l33 158h105l-303 -1366h-105l117 518q-113 -166 -275 -166q-131 0 -208.5 92t-77.5 252zM184 332q0 -128 56 -196t155 -68q74 0 147 55t117 133l107 481q-23 78 -87 131.5t-147 53.5 q-77 0 -145 -60t-111 -151t-67.5 -191.5t-24.5 -187.5z" />
<glyph unicode="r" horiz-adv-x="569" d="M35 0l219 989h102l-32 -151q65 89 138 130.5t183 41.5l-24 -113q-18 6 -58 6q-76 0 -147.5 -52t-118.5 -130l-160 -721h-102z" />
<glyph unicode="s" horiz-adv-x="772" d="M-6 129l72 68q34 -59 99 -96.5t148 -37.5q96 0 159 60t63 141q0 41 -21.5 76.5t-56.5 61.5t-77 51.5t-84 52.5t-77 57.5t-56.5 73t-21.5 92.5q0 120 85.5 202.5t228.5 82.5q94 0 171 -39t115 -101l-67 -67q-26 53 -89 86t-136 33q-91 0 -147 -50t-56 -126q0 -43 29.5 -81 t73 -65t95 -60t95 -65t73 -82.5t29.5 -109.5q0 -129 -91 -220.5t-239 -91.5q-225 0 -317 154z" />
<glyph unicode="t" horiz-adv-x="507" d="M90 123q0 28 8 61l160 713h-135l20 92h136l59 271h102l-59 -271h170l-21 -92h-170l-155 -700q-6 -24 -6 -52q0 -77 82 -77q45 0 86 36l24 -79q-57 -50 -131 -50q-81 0 -125.5 37t-44.5 111z" />
<glyph unicode="u" horiz-adv-x="921" d="M78 168q0 31 10 76l164 745h104l-159 -727q-11 -49 -11 -63q0 -67 41 -99t113 -32t145 49.5t131 124.5l166 747h105l-219 -989h-105l31 143q-142 -168 -295 -168q-102 0 -161.5 50t-59.5 143z" />
<glyph unicode="v" horiz-adv-x="802" d="M129 989h111l73 -866l461 866h117l-543 -989h-117z" />
<glyph unicode="w" horiz-adv-x="1263" d="M143 989h107l24 -842l412 842h98l39 -842l400 842h114l-485 -989h-102l-43 846l-414 -846h-103z" />
<glyph unicode="x" horiz-adv-x="804" d="M-76 0l416 504l-180 485h112l144 -405l323 405h123l-397 -485l197 -504h-115l-156 426l-344 -426h-123z" />
<glyph unicode="y" horiz-adv-x="802" d="M-113 -381l39 92q20 -14 72 -14q38 0 66 23t63 83l102 179l-100 1007h111l73 -862l461 862h117l-670 -1214q-52 -93 -107 -134.5t-126 -41.5q-59 0 -101 20z" />
<glyph unicode="z" horiz-adv-x="776" d="M-14 0l16 86l629 811h-447l21 92h577l-18 -84l-631 -813h457l-19 -92h-585z" />
<glyph unicode="{" horiz-adv-x="454" d="M-35 -213q0 31 8 55l105 473q4 20 4 37q0 48 -21 78.5t-59 30.5l18 78q56 0 91.5 40.5t48.5 104.5l104 477q27 114 93.5 171t162.5 57h96l-20 -86h-94q-56 0 -94.5 -36.5t-53.5 -105.5l-110 -491q-29 -143 -131 -181q28 -13 43.5 -42.5t15.5 -65.5q0 -37 -8 -70 l-103 -471q-6 -36 -6 -39q0 -46 28 -75t69 -29h88l-19 -86h-78q-71 0 -124.5 49t-53.5 127z" />
<glyph unicode="|" horiz-adv-x="393" d="M195 -41v1448h86v-1448h-86z" />
<glyph unicode="}" horiz-adv-x="454" d="M-164 -389l21 86h94q55 0 93.5 36.5t53.5 104.5l109 492q29 141 131 180q-28 13 -43.5 42.5t-15.5 65.5q0 37 8 70l104 471q4 24 4 39q0 46 -27.5 75.5t-66.5 29.5h-90l20 86h78q71 0 124.5 -49.5t53.5 -129.5q0 -13 -8 -53l-104 -473q-4 -20 -4 -39q0 -47 20 -76.5 t58 -29.5l-19 -78q-56 0 -90 -40.5t-47 -105.5l-107 -477q-26 -114 -92.5 -170.5t-163.5 -56.5h-94z" />
<glyph unicode="~" horiz-adv-x="907" d="M141 887q16 73 36.5 136.5t50 127.5t63.5 109t80.5 73.5t97.5 28.5q58 0 93 -30t45.5 -75t17.5 -97t11 -97t23.5 -75t57.5 -30q140 0 237 408l86 -8q-113 -479 -331 -479q-50 0 -82.5 22t-46 57.5t-20 78t-10 85.5t-10.5 78.5t-25.5 57.5t-51.5 22q-140 0 -238 -406z" />
<glyph unicode="&#xa1;" horiz-adv-x="446" d="M-39 -377l252 1012h80l-197 -1012h-135zM227 913q0 40 28.5 68.5t68.5 28.5q33 0 56 -24t23 -58q0 -40 -28 -67t-68 -27q-34 0 -57 22.5t-23 56.5z" />
<glyph unicode="&#xa2;" horiz-adv-x="819" d="M76 358q0 108 33 220t90.5 207t146 158t189.5 69l32 145h90l-32 -149q132 -20 204 -136l-71 -65q-52 94 -154 111l-190 -850h18q113 0 201 98l47 -74q-58 -60 -119 -88.5t-141 -28.5q-4 0 -13.5 1t-13.5 1l-39 -182h-90l43 197q-107 30 -169 124t-62 242zM186 354 q0 -104 37.5 -171.5t104.5 -96.5l186 832q-76 -15 -140.5 -74.5t-104 -142t-61.5 -173t-22 -174.5z" />
<glyph unicode="&#xa3;" horiz-adv-x="886" d="M-2 78q134 62 230 182.5t96 241.5q0 7 -5 47h-260l19 84h217q-9 21 -30 62.5t-33 68.5t-22.5 70t-10.5 86q0 121 56.5 228.5t154.5 172.5t211 65q120 0 210.5 -62.5t108.5 -166.5l-102 -41q-14 76 -71.5 124t-143.5 48q-120 0 -210.5 -106.5t-90.5 -268.5q0 -53 15 -99.5 t42 -100t37 -80.5h227l-18 -84h-193q2 -8 2 -23q0 -115 -71 -222t-160 -165q52 19 86 19q59 0 144.5 -40t131.5 -40q96 0 170 78l29 -90q-93 -93 -211 -93q-53 0 -99 14t-74.5 31t-71 31t-87.5 14q-81 0 -196 -77z" />
<glyph unicode="&#xa4;" horiz-adv-x="1069" d="M23 283l157 129q-35 64 -49 109.5t-14 111.5q0 193 164 354l-76 100l65 54l80 -99q122 88 273 88q167 0 292 -116l160 131l51 -62l-159 -131q63 -104 63 -221q0 -187 -164 -354l78 -98l-70 -56l-75 101q-126 -91 -271 -91q-170 0 -297 121l-161 -135zM217 645 q0 -139 89 -226t229 -87q157 0 276 115.5t119 271.5q0 139 -89 226t-229 87q-157 0 -276 -115.5t-119 -271.5z" />
<glyph unicode="&#xa5;" horiz-adv-x="989" d="M-12 258l20 82h402l53 246h-402l19 82h356l-223 698h123l201 -666l497 666h135l-530 -698h344l-18 -82h-387l-54 -246h385l-18 -82h-385l-57 -258h-115l57 258h-403z" />
<glyph unicode="&#xa6;" horiz-adv-x="393" d="M195 -41v647h86v-647h-86zM195 760v647h86v-647h-86z" />
<glyph unicode="&#xa7;" horiz-adv-x="774" d="M-51 -20l74 65q36 -59 103 -93t155 -34q93 0 156 63t63 154q0 41 -21.5 75.5t-55.5 59.5t-75.5 49t-82.5 50t-75 56t-55.5 74t-21.5 97q0 103 72 179t200 93q-162 94 -162 234q0 117 86.5 200.5t218.5 83.5q212 0 308 -135l-70 -57q-74 111 -234 111q-87 0 -145.5 -55.5 t-58.5 -133.5q0 -41 21.5 -75.5t56 -60t76.5 -49.5t83.5 -50.5t76 -56.5t56 -74.5t21.5 -98.5q0 -100 -59.5 -177t-176.5 -112q123 -82 123 -212q0 -128 -89 -222t-232 -94q-229 0 -336 146zM215 612q0 -62 49 -110t146 -96q204 64 204 225q0 67 -39 111t-106 79 q-130 -16 -192 -75t-62 -134z" />
<glyph unicode="&#xa8;" horiz-adv-x="532" d="M180 1223q0 34 25 58t59 24q28 0 47 -19t19 -47q0 -34 -25 -59t-59 -25q-28 0 -47 19.5t-19 48.5zM524 1223q0 34 25 58t59 24q28 0 47 -19t19 -47q0 -34 -25 -59t-57 -25q-29 0 -48.5 19.5t-19.5 48.5z" />
<glyph unicode="&#xa9;" horiz-adv-x="1593" d="M131 684q0 192 94.5 355t257 257.5t353.5 94.5q192 0 355 -94.5t258 -257.5t95 -355q0 -143 -56 -274t-151 -226t-226 -151t-275 -56q-191 0 -353.5 95t-257 258t-94.5 354zM188 684q0 -175 87 -324.5t236.5 -237t324.5 -87.5t325 87.5t238 237t88 324.5t-88 324.5 t-238 237t-325 87.5t-324.5 -87.5t-236.5 -237t-87 -324.5zM403 629q0 103 41.5 196t109 158t155 103t178.5 38q217 0 317 -163l-55 -39q-36 68 -104.5 104.5t-157.5 36.5q-101 0 -196 -55t-157.5 -156.5t-62.5 -222.5q0 -134 91 -228t235 -94q64 0 128.5 27t108.5 69 l35 -51q-125 -106 -272 -106q-181 0 -287.5 109.5t-106.5 273.5z" />
<glyph unicode="&#xaa;" horiz-adv-x="708" d="M174 897q0 99 36.5 196.5t108.5 165.5t160 68q61 0 111.5 -30.5t75.5 -82.5l20 97h86l-143 -643h-86l22 96q-80 -113 -190 -113q-90 0 -145.5 62t-55.5 184zM262 901q0 -86 37.5 -132t103.5 -46q51 0 97.5 33.5t81.5 83.5l67 307q-14 47 -57.5 78.5t-97.5 31.5 q-64 0 -119 -57t-84 -138t-29 -161z" />
<glyph unicode="&#xab;" horiz-adv-x="716" d="M59 498l338 362h111l-344 -371l168 -360h-99zM293 498l338 362h110l-344 -371l168 -360h-98z" />
<glyph unicode="&#xac;" horiz-adv-x="894" d="M135 844l19 82h774l-109 -484h-86l88 402h-686z" />
<glyph unicode="&#xad;" horiz-adv-x="544" d="M49 449l21 94h422l-19 -94h-424z" />
<glyph unicode="&#xae;" horiz-adv-x="1011" d="M172 952q0 181 127 307.5t307 126.5q119 0 219 -57.5t157.5 -157.5t57.5 -219q0 -180 -127.5 -307t-308.5 -127q-180 0 -306 127t-126 307zM227 952q0 -156 110.5 -267.5t266.5 -111.5q157 0 269 112t112 267q0 158 -112 268.5t-269 110.5t-267 -110.5t-110 -268.5z M387 702l109 498h186q59 0 100 -35.5t41 -95.5q0 -71 -51 -119.5t-113 -48.5l91 -199h-74l-86 197h-98l-43 -197h-62zM504 958h141q46 0 79.5 30t33.5 73q0 38 -24.5 60t-61.5 22h-127z" />
<glyph unicode="&#xaf;" horiz-adv-x="622" d="M158 1210l16 76h621l-17 -76h-620z" />
<glyph unicode="&#xb0;" horiz-adv-x="575" d="M195 1149q0 98 68.5 167.5t166.5 69.5t168 -69.5t70 -167.5t-70 -168t-168 -70t-166.5 69.5t-68.5 168.5zM272 1149q0 -66 45.5 -112t110.5 -46t113.5 46.5t48.5 111.5t-48 112.5t-112 47.5t-111 -47.5t-47 -112.5z" />
<glyph unicode="&#xb1;" horiz-adv-x="892" d="M-39 53l16 82h775l-17 -82h-774zM94 655l19 82h342l82 373h88l-80 -373h342l-19 -82h-344l-84 -385h-90l86 385h-342z" />
<glyph unicode="&#xb2;" horiz-adv-x="653" d="M166 862l16 74q267 222 324 274q145 132 178 217q12 34 12 66q0 61 -41.5 93t-103.5 32q-114 0 -193 -98l-49 57q100 117 244 117q96 0 165.5 -50.5t69.5 -146.5q0 -57 -28 -114t-91.5 -123t-128.5 -123t-176 -149q-40 -33 -61 -50h367l-17 -76h-487z" />
<glyph unicode="&#xb3;" horiz-adv-x="653" d="M186 995l68 47q26 -56 75 -87t113 -31q81 0 128.5 60t47.5 138q0 58 -43.5 91.5t-111.5 33.5q-45 0 -57 -2l18 76q20 -2 88 -2q78 0 129 47t51 127q0 56 -42.5 90.5t-108.5 34.5q-98 0 -189 -94l-45 55q45 52 109 83.5t131 31.5q104 0 169.5 -49.5t65.5 -141.5 q0 -86 -55.5 -150.5t-144.5 -76.5q55 -12 91 -58.5t36 -111.5q0 -96 -72.5 -177t-192.5 -81q-92 0 -159.5 39t-98.5 108z" />
<glyph unicode="&#xb4;" horiz-adv-x="356" d="M137 1139l303 295h123l-342 -295h-84z" />
<glyph unicode="&#xb6;" horiz-adv-x="919" d="M162 981q0 97 50.5 185t143 144t203.5 56h383l-348 -1571h-76l332 1495h-193l-331 -1495h-76l192 867q-116 0 -198 91t-82 228z" />
<glyph unicode="&#xb7;" horiz-adv-x="446" d="M135 494q0 40 28 67t68 27q34 0 57 -23t23 -57q0 -40 -28 -67t-68 -27q-34 0 -57 23t-23 57z" />
<glyph unicode="&#xb8;" horiz-adv-x="364" d="M-182 -311l47 59q55 -67 143 -67q56 0 88.5 31t32.5 77q0 28 -18 46t-50 18q-40 0 -67 -35l-49 32l102 173h76l-84 -140q26 23 59 23q48 0 77.5 -31.5t29.5 -83.5q0 -75 -58 -126.5t-145 -51.5q-114 0 -184 76z" />
<glyph unicode="&#xb9;" horiz-adv-x="425" d="M252 1483l235 198h80l-180 -819h-90l152 692l-152 -131z" />
<glyph unicode="&#xba;" horiz-adv-x="702" d="M178 907q0 94 38 188.5t114.5 163t171.5 68.5q113 0 176 -69t63 -187q0 -93 -38 -188t-115 -163.5t-172 -68.5q-113 0 -175.5 69t-62.5 187zM266 905q0 -84 40 -132t112 -48q70 0 126 60t82.5 138t26.5 150q0 83 -41 130.5t-112 47.5q-54 0 -100 -35t-74.5 -88 t-44 -111.5t-15.5 -111.5z" />
<glyph unicode="&#xbb;" horiz-adv-x="716" d="M-23 129l347 373l-170 358h98l174 -368l-338 -363h-111zM211 129l344 373l-168 358h98l174 -368l-337 -363h-111z" />
<glyph unicode="&#xbc;" horiz-adv-x="1318" d="M106 0l1016 1366h84l-1016 -1366h-84zM182 1167l236 199h80l-181 -819h-90l152 692l-152 -131zM666 219l16 74l432 526h115l-117 -524h100l-16 -76h-98l-49 -219h-88l47 219h-342zM768 295h256l94 422z" />
<glyph unicode="&#xbd;" horiz-adv-x="1390" d="M106 0l1016 1366h84l-1016 -1366h-84zM182 1167l236 199h80l-181 -819h-90l152 692l-152 -131zM713 0l16 74q267 222 324 274q145 132 178 217q12 33 12 66q0 61 -41.5 93t-103.5 32q-113 0 -193 -99l-49 58q99 116 244 116q96 0 165.5 -50t69.5 -146q0 -57 -28 -114 t-91.5 -123t-128.5 -123t-176 -149q-14 -11 -21 -17t-18.5 -15.5t-21.5 -17.5h367l-17 -76h-487z" />
<glyph unicode="&#xbe;" horiz-adv-x="1476" d="M117 680l67 47q27 -56 76 -87.5t113 -31.5q81 0 128.5 60.5t47.5 138.5q0 58 -44 91.5t-112 33.5q-45 0 -57 -2l18 76q20 -2 88 -2q79 0 130 47t51 127q0 56 -43 90.5t-109 34.5q-54 0 -98 -23.5t-90 -71.5l-45 56q45 52 108.5 83t130.5 31q104 0 170 -49t66 -141 q0 -86 -56 -150.5t-145 -76.5q55 -12 91 -58.5t36 -111.5q0 -96 -72 -177.5t-192 -81.5q-92 0 -159.5 39t-98.5 109zM264 0l1016 1366h84l-1016 -1366h-84zM823 219l17 74l432 526h114l-116 -524h100l-16 -76h-99l-49 -219h-88l47 219h-342zM926 295h256l94 422z" />
<glyph unicode="&#xbf;" horiz-adv-x="671" d="M-70 -129q0 69 25.5 128.5t66 102.5t89.5 81.5t97.5 72t89 67t66 75t25.5 87.5q0 58 -29 97l95 47q39 -62 39 -137q0 -59 -24.5 -110t-63.5 -88.5t-86.5 -72t-94.5 -68.5t-86 -70.5t-63.5 -86t-24.5 -107.5q0 -80 58 -133t159 -53q137 0 246 100l45 -79 q-134 -123 -305 -123q-145 0 -234.5 78t-89.5 192zM406 913q0 40 28 67.5t68 27.5q34 0 57 -23t23 -57q0 -39 -28.5 -66.5t-68.5 -27.5q-34 0 -56.5 22.5t-22.5 56.5z" />
<glyph unicode="&#xc0;" horiz-adv-x="1009" d="M-86 0l713 1366h137l110 -1366h-118l-25 338h-516l-172 -338h-129zM264 440h463l-55 793zM541 1786h118l172 -295h-79z" />
<glyph unicode="&#xc1;" horiz-adv-x="1009" d="M-86 0l713 1366h137l110 -1366h-118l-25 338h-516l-172 -338h-129zM264 440h463l-55 793zM614 1491l304 295h122l-342 -295h-84z" />
<glyph unicode="&#xc2;" horiz-adv-x="1009" d="M-86 0l713 1366h137l110 -1366h-118l-25 338h-516l-172 -338h-129zM264 440h463l-55 793zM502 1491l233 295h107l108 -295h-69l-105 229l-196 -229h-78z" />
<glyph unicode="&#xc3;" horiz-adv-x="1009" d="M-86 0l713 1366h137l110 -1366h-118l-25 338h-516l-172 -338h-129zM264 440h463l-55 793zM451 1499q60 275 208 275q39 0 63 -21.5t34.5 -53t19 -62.5t25 -52.5t43.5 -21.5q82 0 129 198h69q-27 -124 -79 -199t-132 -75q-39 0 -63 21.5t-34 52.5t-18.5 62.5t-25.5 53 t-45 21.5q-81 0 -125 -199h-69z" />
<glyph unicode="&#xc4;" horiz-adv-x="1009" d="M-86 0l713 1366h137l110 -1366h-118l-25 338h-516l-172 -338h-129zM264 440h463l-55 793zM496 1567q0 34 25 58t59 24q28 0 46.5 -19t18.5 -47q0 -34 -25 -59t-59 -25q-28 0 -46.5 19.5t-18.5 48.5zM840 1567q0 34 25 58t59 24q28 0 46.5 -19t18.5 -47q0 -34 -25 -59 t-57 -25q-29 0 -48 19.5t-19 48.5z" />
<glyph unicode="&#xc5;" horiz-adv-x="1009" d="M-86 0l713 1366h137l110 -1366h-118l-25 338h-516l-172 -338h-129zM264 440h463l-55 793zM567 1581q0 79 59.5 139t139.5 60q70 0 116 -46.5t46 -117.5q0 -80 -60 -139.5t-139 -59.5q-71 0 -116.5 46.5t-45.5 117.5zM631 1587q0 -46 28.5 -76t73.5 -30q53 0 92 38t39 91 q0 46 -28.5 76t-73.5 30q-53 0 -92 -38.5t-39 -90.5z" />
<glyph unicode="&#xc6;" horiz-adv-x="1507" d="M-78 0l952 1366h713l-20 -102h-555l-113 -512h539l-23 -103h-541l-120 -547h555l-23 -102h-668l74 338h-409l-232 -338h-129zM348 440h367l174 781z" />
<glyph unicode="&#xc7;" horiz-adv-x="1071" d="M113 457q0 157 47 321.5t128 300.5t201 223t254 87q144 0 243.5 -77t146.5 -212l-109 -35q-39 111 -113.5 165t-175.5 54t-196 -79t-161 -200.5t-105.5 -268t-39.5 -281.5q0 -179 84 -277t234 -98q154 0 295 166l86 -58q-171 -213 -389 -213h-15l-55 -92q26 23 59 23 q48 0 77.5 -31.5t29.5 -83.5q0 -75 -58 -126.5t-145 -51.5q-114 0 -184 76l47 59q55 -67 143 -67q56 0 88.5 31t32.5 77q0 29 -17.5 46.5t-49.5 17.5q-41 0 -68 -35l-49 32l78 134q-158 25 -251 149t-93 324z" />
<glyph unicode="&#xc8;" horiz-adv-x="927" d="M43 0l301 1366h668l-21 -102h-555l-112 -512h538l-22 -103h-541l-121 -547h555l-22 -102h-668zM526 1786h119l172 -295h-80z" />
<glyph unicode="&#xc9;" horiz-adv-x="927" d="M43 0l301 1366h668l-21 -102h-555l-112 -512h538l-22 -103h-541l-121 -547h555l-22 -102h-668zM598 1491l303 295h123l-342 -295h-84z" />
<glyph unicode="&#xca;" horiz-adv-x="927" d="M43 0l301 1366h668l-21 -102h-555l-112 -512h538l-22 -103h-541l-121 -547h555l-22 -102h-668zM485 1491l234 295h106l109 -295h-70l-104 229l-197 -229h-78z" />
<glyph unicode="&#xcb;" horiz-adv-x="927" d="M43 0l301 1366h668l-21 -102h-555l-112 -512h538l-22 -103h-541l-121 -547h555l-22 -102h-668zM477 1567q0 34 25 58t59 24q28 0 47 -19t19 -47q0 -34 -25 -59t-59 -25q-28 0 -47 19.5t-19 48.5zM821 1567q0 34 25 58t59 24q28 0 47 -19t19 -47q0 -34 -25 -59t-57 -25 q-29 0 -48.5 19.5t-19.5 48.5z" />
<glyph unicode="&#xcc;" horiz-adv-x="421" d="M43 0l301 1366h115l-301 -1366h-115zM248 1786h119l172 -295h-80z" />
<glyph unicode="&#xcd;" horiz-adv-x="421" d="M43 0l301 1366h115l-301 -1366h-115zM322 1491l303 295h123l-342 -295h-84z" />
<glyph unicode="&#xce;" horiz-adv-x="421" d="M43 0l301 1366h115l-301 -1366h-115zM209 1491l233 295h107l108 -295h-69l-105 229l-196 -229h-78z" />
<glyph unicode="&#xcf;" horiz-adv-x="421" d="M43 0l301 1366h115l-301 -1366h-115zM205 1565q0 34 25 58t59 24q28 0 46.5 -19t18.5 -47q0 -34 -25 -59t-59 -25q-28 0 -46.5 19.5t-18.5 48.5zM549 1565q0 34 25 58t59 24q28 0 46.5 -19t18.5 -47q0 -34 -25 -59t-57 -25q-29 0 -48 19.5t-19 48.5z" />
<glyph unicode="&#xd0;" horiz-adv-x="1175" d="M63 635l23 98h168l139 633h324q82 0 155.5 -33t130 -93.5t90 -154t33.5 -206.5q0 -69 -12 -146.5t-38.5 -163t-65.5 -166.5t-97 -154.5t-127.5 -128.5t-163 -87.5t-198.5 -32.5h-332l139 635h-168zM227 102h215q108 0 202.5 53t159.5 137t112.5 187.5t69.5 205t22 189.5 q0 180 -88.5 285t-223.5 105h-211l-118 -531h276l-22 -98h-275z" />
<glyph unicode="&#xd1;" horiz-adv-x="1142" d="M43 0l301 1366h115l358 -1120l248 1120h115l-301 -1366h-111l-358 1137l-252 -1137h-115zM520 1499q60 275 209 275q39 0 63 -21.5t34.5 -53t18.5 -62.5t24.5 -52.5t43.5 -21.5q82 0 129 198h70q-27 -124 -79 -199t-132 -75q-39 0 -63 21.5t-34 52.5t-18.5 62.5t-25.5 53 t-45 21.5q-81 0 -125 -199h-70z" />
<glyph unicode="&#xd2;" horiz-adv-x="1208" d="M113 457q0 119 28 247.5t83 250.5t129.5 219t176 156t213.5 59q195 0 314 -132.5t119 -349.5q0 -119 -28 -247.5t-84 -250.5t-130.5 -219t-176.5 -156t-214 -59q-195 0 -312.5 131.5t-117.5 350.5zM233 455q0 -176 87.5 -275.5t230.5 -99.5q103 0 198 77.5t160.5 198 t104.5 267.5t39 284q0 178 -88 277.5t-232 99.5q-83 0 -161 -50.5t-138.5 -136t-106.5 -192t-70 -223.5t-24 -227zM643 1786h119l172 -295h-80z" />
<glyph unicode="&#xd3;" horiz-adv-x="1208" d="M113 457q0 119 28 247.5t83 250.5t129.5 219t176 156t213.5 59q195 0 314 -132.5t119 -349.5q0 -119 -28 -247.5t-84 -250.5t-130.5 -219t-176.5 -156t-214 -59q-195 0 -312.5 131.5t-117.5 350.5zM233 455q0 -176 87.5 -275.5t230.5 -99.5q103 0 198 77.5t160.5 198 t104.5 267.5t39 284q0 178 -88 277.5t-232 99.5q-83 0 -161 -50.5t-138.5 -136t-106.5 -192t-70 -223.5t-24 -227zM715 1491l303 295h123l-342 -295h-84z" />
<glyph unicode="&#xd4;" horiz-adv-x="1208" d="M113 457q0 119 28 247.5t83 250.5t129.5 219t176 156t213.5 59q195 0 314 -132.5t119 -349.5q0 -119 -28 -247.5t-84 -250.5t-130.5 -219t-176.5 -156t-214 -59q-195 0 -312.5 131.5t-117.5 350.5zM233 455q0 -176 87.5 -275.5t230.5 -99.5q103 0 198 77.5t160.5 198 t104.5 267.5t39 284q0 178 -88 277.5t-232 99.5q-83 0 -161 -50.5t-138.5 -136t-106.5 -192t-70 -223.5t-24 -227zM602 1491l234 295h106l109 -295h-70l-104 229l-197 -229h-78z" />
<glyph unicode="&#xd5;" horiz-adv-x="1208" d="M113 457q0 119 28 247.5t83 250.5t129.5 219t176 156t213.5 59q195 0 314 -132.5t119 -349.5q0 -119 -28 -247.5t-84 -250.5t-130.5 -219t-176.5 -156t-214 -59q-195 0 -312.5 131.5t-117.5 350.5zM233 455q0 -176 87.5 -275.5t230.5 -99.5q103 0 198 77.5t160.5 198 t104.5 267.5t39 284q0 178 -88 277.5t-232 99.5q-83 0 -161 -50.5t-138.5 -136t-106.5 -192t-70 -223.5t-24 -227zM559 1499q60 275 209 275q39 0 63 -21.5t34.5 -53t18.5 -62.5t24.5 -52.5t43.5 -21.5q82 0 129 198h70q-27 -124 -79 -199t-132 -75q-39 0 -63 21.5t-34 52.5 t-18.5 62.5t-25.5 53t-45 21.5q-81 0 -125 -199h-70z" />
<glyph unicode="&#xd6;" horiz-adv-x="1208" d="M113 457q0 119 28 247.5t83 250.5t129.5 219t176 156t213.5 59q195 0 314 -132.5t119 -349.5q0 -119 -28 -247.5t-84 -250.5t-130.5 -219t-176.5 -156t-214 -59q-195 0 -312.5 131.5t-117.5 350.5zM233 455q0 -176 87.5 -275.5t230.5 -99.5q103 0 198 77.5t160.5 198 t104.5 267.5t39 284q0 178 -88 277.5t-232 99.5q-83 0 -161 -50.5t-138.5 -136t-106.5 -192t-70 -223.5t-24 -227zM594 1567q0 34 25 58t59 24q28 0 46.5 -19t18.5 -47q0 -34 -25 -59t-59 -25q-28 0 -46.5 19.5t-18.5 48.5zM938 1567q0 34 25 58t59 24q28 0 46.5 -19 t18.5 -47q0 -34 -24.5 -59t-56.5 -25q-29 0 -48.5 19.5t-19.5 48.5z" />
<glyph unicode="&#xd7;" horiz-adv-x="892" d="M98 420l332 270l-207 264l66 54l205 -265l329 271l51 -66l-329 -270l207 -264l-66 -54l-207 265l-329 -271z" />
<glyph unicode="&#xd8;" horiz-adv-x="1208" d="M96 0l105 143q-88 124 -88 314q0 119 28 247.5t83 250.5t129.5 219t176 156t213.5 59q174 0 289 -109l62 86h96l-107 -145q93 -126 93 -314q0 -119 -28 -247.5t-84 -250.5t-130.5 -219t-176.5 -156t-214 -59q-178 0 -291 107l-59 -82h-97zM233 455q0 -124 43 -209 l687 940q-82 98 -230 98q-83 0 -161 -50.5t-138.5 -136t-106.5 -192t-70 -223.5t-24 -227zM322 178q85 -98 229 -98q103 0 198 77.5t160.5 198t104.5 267.5t39 284q0 123 -45 211z" />
<glyph unicode="&#xd9;" horiz-adv-x="1130" d="M129 330q0 58 10 100l205 936h115l-207 -938q-10 -35 -10 -86q0 -122 73 -193t199 -71q137 0 215 85.5t117 264.5l207 938h114l-206 -936q-51 -230 -156.5 -342.5t-294.5 -112.5q-174 0 -277.5 95t-103.5 260zM602 1786h119l172 -295h-80z" />
<glyph unicode="&#xda;" horiz-adv-x="1130" d="M129 330q0 58 10 100l205 936h115l-207 -938q-10 -35 -10 -86q0 -122 73 -193t199 -71q137 0 215 85.5t117 264.5l207 938h114l-206 -936q-51 -230 -156.5 -342.5t-294.5 -112.5q-174 0 -277.5 95t-103.5 260zM672 1491l303 295h123l-342 -295h-84z" />
<glyph unicode="&#xdb;" horiz-adv-x="1130" d="M129 330q0 58 10 100l205 936h115l-207 -938q-10 -35 -10 -86q0 -122 73 -193t199 -71q137 0 215 85.5t117 264.5l207 938h114l-206 -936q-51 -230 -156.5 -342.5t-294.5 -112.5q-174 0 -277.5 95t-103.5 260zM563 1491l234 295h106l109 -295h-70l-104 229l-197 -229h-78 z" />
<glyph unicode="&#xdc;" horiz-adv-x="1130" d="M129 330q0 58 10 100l205 936h115l-207 -938q-10 -35 -10 -86q0 -122 73 -193t199 -71q137 0 215 85.5t117 264.5l207 938h114l-206 -936q-51 -230 -156.5 -342.5t-294.5 -112.5q-174 0 -277.5 95t-103.5 260zM555 1567q0 34 25 58t59 24q28 0 47 -19t19 -47 q0 -34 -25 -59t-59 -25q-28 0 -47 19.5t-19 48.5zM899 1567q0 34 25 58t59 24q28 0 47 -19t19 -47q0 -34 -25 -59t-57 -25q-29 0 -48.5 19.5t-19.5 48.5z" />
<glyph unicode="&#xdd;" horiz-adv-x="989" d="M207 1366h123l200 -666l498 666h135l-592 -780l-129 -586h-114l129 586zM612 1491l303 295h123l-342 -295h-84z" />
<glyph unicode="&#xde;" horiz-adv-x="958" d="M43 0l301 1366h115l-56 -254h240q127 0 212 -91t85 -228q0 -66 -16 -131t-51.5 -128t-87 -111.5t-129 -78t-171.5 -29.5h-260l-67 -315h-115zM250 418h248q78 0 140.5 32t100.5 85t58 117.5t20 133.5q0 97 -56.5 159.5t-144.5 62.5h-237z" />
<glyph unicode="&#xdf;" horiz-adv-x="1026" d="M45 0l236 1065q33 148 125.5 234.5t226.5 86.5q119 0 202 -62.5t83 -162.5q0 -71 -37 -123.5t-90 -84t-105.5 -60.5t-89.5 -70.5t-37 -97.5q0 -44 28.5 -80.5t71 -61t92 -54.5t92 -60t71 -79t28.5 -109q0 -121 -88 -213.5t-236 -92.5q-110 0 -186.5 37.5t-138.5 120.5 l72 68q95 -138 251 -138q96 0 158 61t62 146q0 38 -21 70.5t-54.5 56.5t-74.5 46.5t-81.5 48t-74 54t-54.5 70.5t-21 93q0 74 37 129t89.5 88t105 62.5t89.5 69t37 89.5q0 67 -54.5 107t-131.5 40q-86 0 -151 -59t-91 -170l-235 -1065h-105z" />
<glyph unicode="&#xe0;" d="M74 319q0 110 31 230t85.5 224.5t142 172.5t189.5 68q90 0 159.5 -48t106.5 -135l33 158h105l-219 -989h-105l33 141q-113 -166 -275 -166q-131 0 -208.5 92t-77.5 252zM184 332q0 -128 56 -196t155 -68q74 0 147 55t117 133l107 481q-23 78 -87 131.5t-147 53.5 q-77 0 -145 -60t-111 -151t-67.5 -191.5t-24.5 -187.5zM406 1434h118l172 -295h-80z" />
<glyph unicode="&#xe1;" d="M74 319q0 110 31 230t85.5 224.5t142 172.5t189.5 68q90 0 159.5 -48t106.5 -135l33 158h105l-219 -989h-105l33 141q-113 -166 -275 -166q-131 0 -208.5 92t-77.5 252zM184 332q0 -128 56 -196t155 -68q74 0 147 55t117 133l107 481q-23 78 -87 131.5t-147 53.5 q-77 0 -145 -60t-111 -151t-67.5 -191.5t-24.5 -187.5zM479 1139l303 295h123l-342 -295h-84z" />
<glyph unicode="&#xe2;" d="M74 319q0 110 31 230t85.5 224.5t142 172.5t189.5 68q90 0 159.5 -48t106.5 -135l33 158h105l-219 -989h-105l33 141q-113 -166 -275 -166q-131 0 -208.5 92t-77.5 252zM184 332q0 -128 56 -196t155 -68q74 0 147 55t117 133l107 481q-23 78 -87 131.5t-147 53.5 q-77 0 -145 -60t-111 -151t-67.5 -191.5t-24.5 -187.5zM367 1139l233 295h107l108 -295h-70l-104 229l-197 -229h-77z" />
<glyph unicode="&#xe3;" d="M74 319q0 110 31 230t85.5 224.5t142 172.5t189.5 68q90 0 159.5 -48t106.5 -135l33 158h105l-219 -989h-105l33 141q-113 -166 -275 -166q-131 0 -208.5 92t-77.5 252zM184 332q0 -128 56 -196t155 -68q74 0 147 55t117 133l107 481q-23 78 -87 131.5t-147 53.5 q-77 0 -145 -60t-111 -151t-67.5 -191.5t-24.5 -187.5zM324 1147q59 274 208 274q39 0 63 -21.5t34.5 -52.5t19 -62.5t25 -53t43.5 -21.5q82 0 129 199h69q-27 -125 -78.5 -199.5t-131.5 -74.5q-39 0 -63 21.5t-34.5 52.5t-19 62.5t-25.5 53t-45 21.5q-81 0 -125 -199h-69z " />
<glyph unicode="&#xe4;" d="M74 319q0 110 31 230t85.5 224.5t142 172.5t189.5 68q90 0 159.5 -48t106.5 -135l33 158h105l-219 -989h-105l33 141q-113 -166 -275 -166q-131 0 -208.5 92t-77.5 252zM184 332q0 -128 56 -196t155 -68q74 0 147 55t117 133l107 481q-23 78 -87 131.5t-147 53.5 q-77 0 -145 -60t-111 -151t-67.5 -191.5t-24.5 -187.5zM365 1223q0 34 25 58t59 24q28 0 46.5 -19t18.5 -47q0 -34 -25 -59t-59 -25q-28 0 -46.5 19.5t-18.5 48.5zM709 1223q0 34 25 58t59 24q28 0 46.5 -19t18.5 -47q0 -34 -25 -59t-57 -25q-29 0 -48 19.5t-19 48.5z" />
<glyph unicode="&#xe5;" d="M74 319q0 110 31 230t85.5 224.5t142 172.5t189.5 68q90 0 159.5 -48t106.5 -135l33 158h105l-219 -989h-105l33 141q-113 -166 -275 -166q-131 0 -208.5 92t-77.5 252zM184 332q0 -128 56 -196t155 -68q74 0 147 55t117 133l107 481q-23 78 -87 131.5t-147 53.5 q-77 0 -145 -60t-111 -151t-67.5 -191.5t-24.5 -187.5zM446 1290q0 80 60 139.5t139 59.5q70 0 116 -46.5t46 -117.5q0 -79 -59.5 -139t-139.5 -60q-71 0 -116.5 46.5t-45.5 117.5zM510 1296q0 -46 28.5 -76t73.5 -30q53 0 92 38t39 91q0 46 -28.5 76t-73.5 30 q-53 0 -92 -38.5t-39 -90.5z" />
<glyph unicode="&#xe6;" horiz-adv-x="1562" d="M74 319q0 110 31 230t85.5 224.5t142 172.5t189.5 68q90 0 159.5 -48t106.5 -135l33 158h105l-43 -190q63 99 141.5 157t167.5 58q141 0 219 -93.5t78 -263.5q0 -94 -27 -196h-649q-10 -58 -10 -109q0 -128 69.5 -207t198.5 -79q125 0 234 112l47 -72 q-125 -131 -279 -131q-131 0 -210 68.5t-103 194.5l-53 -238h-105l33 141q-113 -166 -275 -166q-131 0 -208.5 92t-77.5 252zM184 332q0 -128 56 -196t155 -68q74 0 147.5 55t119.5 133l104 481q-23 79 -86.5 132t-147.5 53q-77 0 -145 -60t-111 -151t-67.5 -191.5 t-24.5 -187.5zM827 543h549q13 57 13 110q0 121 -57 197t-169 76q-82 0 -155.5 -59t-119 -145t-61.5 -179z" />
<glyph unicode="&#xe7;" horiz-adv-x="819" d="M76 358q0 88 21.5 180.5t64 177t99.5 151.5t135 107t163 40q184 0 270 -142l-71 -65q-31 57 -83.5 86t-113.5 29q-70 0 -131.5 -36.5t-105 -96t-75.5 -134.5t-47.5 -152.5t-15.5 -148.5q0 -141 67 -213.5t179 -72.5q113 0 201 98l47 -74q-58 -60 -119 -88.5t-141 -28.5 h-12l-56 -92q26 23 60 23q48 0 77 -31.5t29 -83.5q0 -75 -58 -126.5t-145 -51.5q-114 0 -184 76l47 59q55 -67 144 -67q56 0 88 31t32 77q0 29 -18 46.5t-49 17.5q-41 0 -68 -35l-49 32l78 134q-121 24 -190.5 119.5t-69.5 254.5z" />
<glyph unicode="&#xe8;" horiz-adv-x="950" d="M76 356q0 99 32.5 211.5t90.5 213t151 167t201 66.5q151 0 238.5 -96t87.5 -265q0 -94 -27 -192h-657q-11 -64 -11 -109q0 -127 69.5 -208t199.5 -81q60 0 124 31t115 84l47 -69q-61 -63 -138 -98.5t-157 -35.5q-172 0 -269 101t-97 280zM207 543h549h8q12 53 12 110 q0 120 -60.5 196.5t-172.5 76.5q-83 0 -156.5 -59t-118.5 -145t-61 -179zM442 1434h119l172 -295h-80z" />
<glyph unicode="&#xe9;" horiz-adv-x="950" d="M76 356q0 99 32.5 211.5t90.5 213t151 167t201 66.5q151 0 238.5 -96t87.5 -265q0 -94 -27 -192h-657q-11 -64 -11 -109q0 -127 69.5 -208t199.5 -81q60 0 124 31t115 84l47 -69q-61 -63 -138 -98.5t-157 -35.5q-172 0 -269 101t-97 280zM207 543h549h8q12 53 12 110 q0 120 -60.5 196.5t-172.5 76.5q-83 0 -156.5 -59t-118.5 -145t-61 -179zM514 1139l303 295h123l-342 -295h-84z" />
<glyph unicode="&#xea;" horiz-adv-x="950" d="M76 356q0 99 32.5 211.5t90.5 213t151 167t201 66.5q151 0 238.5 -96t87.5 -265q0 -94 -27 -192h-657q-11 -64 -11 -109q0 -127 69.5 -208t199.5 -81q60 0 124 31t115 84l47 -69q-61 -63 -138 -98.5t-157 -35.5q-172 0 -269 101t-97 280zM207 543h549h8q12 53 12 110 q0 120 -60.5 196.5t-172.5 76.5q-83 0 -156.5 -59t-118.5 -145t-61 -179zM401 1139l234 295h106l109 -295h-70l-104 229l-197 -229h-78z" />
<glyph unicode="&#xeb;" horiz-adv-x="950" d="M76 356q0 99 32.5 211.5t90.5 213t151 167t201 66.5q151 0 238.5 -96t87.5 -265q0 -94 -27 -192h-657q-11 -64 -11 -109q0 -127 69.5 -208t199.5 -81q60 0 124 31t115 84l47 -69q-61 -63 -138 -98.5t-157 -35.5q-172 0 -269 101t-97 280zM207 543h549h8q12 53 12 110 q0 120 -60.5 196.5t-172.5 76.5q-83 0 -156.5 -59t-118.5 -145t-61 -179zM395 1223q0 34 25 58t59 24q28 0 47 -19t19 -47q0 -34 -25 -59t-59 -25q-28 0 -47 19.5t-19 48.5zM739 1223q0 34 25 58t59 24q28 0 47 -19t19 -47q0 -34 -25 -59t-57 -25q-29 0 -48.5 19.5 t-19.5 48.5z" />
<glyph unicode="&#xec;" horiz-adv-x="393" d="M35 0l219 989h102l-219 -989h-102zM154 1434h118l172 -295h-79z" />
<glyph unicode="&#xed;" horiz-adv-x="393" d="M35 0l219 989h102l-219 -989h-102zM227 1139l303 295h123l-342 -295h-84z" />
<glyph unicode="&#xee;" horiz-adv-x="393" d="M35 0l219 989h102l-219 -989h-102zM115 1139l233 295h107l108 -295h-69l-105 229l-196 -229h-78z" />
<glyph unicode="&#xef;" horiz-adv-x="393" d="M35 0l219 989h102l-219 -989h-102zM111 1223q0 34 25 58t59 24q28 0 46.5 -19t18.5 -47q0 -34 -25 -59t-59 -25q-28 0 -46.5 19.5t-18.5 48.5zM455 1223q0 34 25 58t59 24q28 0 46.5 -19t18.5 -47q0 -34 -25 -59t-57 -25q-29 0 -48 19.5t-19 48.5z" />
<glyph unicode="&#xf0;" d="M76 344q0 113 34 229.5t92.5 211t144.5 154.5t181 60q82 0 152 -45t102 -135q-45 178 -131 336l-280 -84l-17 66l262 77q-46 76 -104 140l92 57q69 -88 119 -164l199 60l14 -66l-178 -53q133 -232 133 -459q0 -102 -19.5 -207.5t-60 -203.5t-96 -174.5t-133.5 -122.5 t-166 -46q-160 0 -250 100t-90 269zM186 346q0 -135 62 -206.5t170 -71.5q74 0 141.5 57t112.5 143t71.5 185t26.5 186q0 48 -13.5 93t-40 85t-73 64t-106.5 24q-74 0 -141.5 -55.5t-112 -140t-71 -181.5t-26.5 -182z" />
<glyph unicode="&#xf1;" horiz-adv-x="921" d="M37 0l219 989h102l-30 -143q142 168 297 168q101 0 160 -50t59 -143q0 -31 -10 -76l-164 -745h-105l160 727q10 45 10 64q0 67 -40 99t-111 32q-72 0 -146.5 -52t-134.5 -127l-164 -743h-102zM340 1147q59 274 209 274q39 0 63 -21.5t34.5 -52.5t18.5 -62.5t24.5 -53 t43.5 -21.5q82 0 129 199h70q-27 -124 -79 -199t-132 -75q-39 0 -63 21.5t-34 52.5t-18.5 62.5t-25.5 53t-45 21.5q-81 0 -125 -199h-70z" />
<glyph unicode="&#xf2;" d="M76 346q0 113 34 230t93 215t151 160.5t197 62.5q153 0 242.5 -97t89.5 -274q0 -113 -33.5 -230t-93 -215t-150.5 -160.5t-196 -62.5q-155 0 -244.5 97t-89.5 274zM184 346q0 -136 61 -207t169 -71q77 0 146.5 57t115 144t72 186.5t26.5 187.5q0 136 -60.5 207.5 t-168.5 71.5q-77 0 -146.5 -57.5t-115 -144.5t-72.5 -186.5t-27 -187.5zM440 1434h119l172 -295h-80z" />
<glyph unicode="&#xf3;" d="M76 346q0 113 34 230t93 215t151 160.5t197 62.5q153 0 242.5 -97t89.5 -274q0 -113 -33.5 -230t-93 -215t-150.5 -160.5t-196 -62.5q-155 0 -244.5 97t-89.5 274zM184 346q0 -136 61 -207t169 -71q77 0 146.5 57t115 144t72 186.5t26.5 187.5q0 136 -60.5 207.5 t-168.5 71.5q-77 0 -146.5 -57.5t-115 -144.5t-72.5 -186.5t-27 -187.5zM512 1139l303 295h123l-342 -295h-84z" />
<glyph unicode="&#xf4;" d="M76 346q0 113 34 230t93 215t151 160.5t197 62.5q153 0 242.5 -97t89.5 -274q0 -113 -33.5 -230t-93 -215t-150.5 -160.5t-196 -62.5q-155 0 -244.5 97t-89.5 274zM184 346q0 -136 61 -207t169 -71q77 0 146.5 57t115 144t72 186.5t26.5 187.5q0 136 -60.5 207.5 t-168.5 71.5q-77 0 -146.5 -57.5t-115 -144.5t-72.5 -186.5t-27 -187.5zM399 1139l234 295h106l109 -295h-70l-104 229l-197 -229h-78z" />
<glyph unicode="&#xf5;" d="M76 346q0 113 34 230t93 215t151 160.5t197 62.5q153 0 242.5 -97t89.5 -274q0 -113 -33.5 -230t-93 -215t-150.5 -160.5t-196 -62.5q-155 0 -244.5 97t-89.5 274zM184 346q0 -136 61 -207t169 -71q77 0 146.5 57t115 144t72 186.5t26.5 187.5q0 136 -60.5 207.5 t-168.5 71.5q-77 0 -146.5 -57.5t-115 -144.5t-72.5 -186.5t-27 -187.5zM358 1147q59 274 209 274q39 0 63 -21.5t34.5 -52.5t19 -62.5t25 -53t43.5 -21.5q82 0 129 199h69q-27 -124 -79 -199t-132 -75q-39 0 -63 21.5t-34 52.5t-18.5 62.5t-25.5 53t-45 21.5 q-81 0 -125 -199h-70z" />
<glyph unicode="&#xf6;" d="M76 346q0 113 34 230t93 215t151 160.5t197 62.5q153 0 242.5 -97t89.5 -274q0 -113 -33.5 -230t-93 -215t-150.5 -160.5t-196 -62.5q-155 0 -244.5 97t-89.5 274zM184 346q0 -136 61 -207t169 -71q77 0 146.5 57t115 144t72 186.5t26.5 187.5q0 136 -60.5 207.5 t-168.5 71.5q-77 0 -146.5 -57.5t-115 -144.5t-72.5 -186.5t-27 -187.5zM395 1223q0 34 25 58t59 24q28 0 47 -19t19 -47q0 -34 -25 -59t-59 -25q-28 0 -47 19.5t-19 48.5zM739 1223q0 34 25 58t59 24q28 0 47 -19t19 -47q0 -34 -25 -59t-57 -25q-29 0 -48.5 19.5 t-19.5 48.5z" />
<glyph unicode="&#xf7;" horiz-adv-x="907" d="M92 649l19 82h788l-20 -82h-787zM338 334q0 35 25.5 59.5t62.5 24.5q31 0 51.5 -20.5t20.5 -51.5q0 -36 -25 -61t-61 -25q-31 0 -52.5 21.5t-21.5 52.5zM492 1026q0 35 26.5 60.5t61.5 25.5q30 0 50.5 -21.5t20.5 -52.5q0 -35 -25.5 -60.5t-60.5 -25.5q-31 0 -52 21.5 t-21 52.5z" />
<glyph unicode="&#xf8;" d="M16 0l109 129q-49 85 -49 217q0 113 34 230t93 215t151 160.5t197 62.5q152 0 240 -94l57 69h86l-105 -125q54 -88 54 -221q0 -113 -33.5 -230t-93 -215t-150.5 -160.5t-196 -62.5q-155 0 -246 97l-60 -72h-88zM184 346q0 -66 17 -125l520 619q-60 82 -176 82 q-77 0 -146.5 -57.5t-115 -144.5t-72.5 -186.5t-27 -187.5zM233 154q59 -86 181 -86q77 0 146.5 57t115 144t72 186.5t26.5 187.5q0 78 -20 131z" />
<glyph unicode="&#xf9;" horiz-adv-x="921" d="M78 168q0 31 10 76l164 745h104l-159 -727q-11 -49 -11 -63q0 -67 41 -99t113 -32t145 49.5t131 124.5l166 747h105l-219 -989h-105l31 143q-142 -168 -295 -168q-102 0 -161.5 50t-59.5 143zM422 1434h119l172 -295h-80z" />
<glyph unicode="&#xfa;" horiz-adv-x="921" d="M78 168q0 31 10 76l164 745h104l-159 -727q-11 -49 -11 -63q0 -67 41 -99t113 -32t145 49.5t131 124.5l166 747h105l-219 -989h-105l31 143q-142 -168 -295 -168q-102 0 -161.5 50t-59.5 143zM494 1139l303 295h123l-342 -295h-84z" />
<glyph unicode="&#xfb;" horiz-adv-x="921" d="M78 168q0 31 10 76l164 745h104l-159 -727q-11 -49 -11 -63q0 -67 41 -99t113 -32t145 49.5t131 124.5l166 747h105l-219 -989h-105l31 143q-142 -168 -295 -168q-102 0 -161.5 50t-59.5 143zM379 1139l233 295h107l108 -295h-69l-105 229l-196 -229h-78z" />
<glyph unicode="&#xfc;" horiz-adv-x="921" d="M78 168q0 31 10 76l164 745h104l-159 -727q-11 -49 -11 -63q0 -67 41 -99t113 -32t145 49.5t131 124.5l166 747h105l-219 -989h-105l31 143q-142 -168 -295 -168q-102 0 -161.5 50t-59.5 143zM381 1223q0 34 25 58t59 24q28 0 46.5 -19t18.5 -47q0 -34 -25 -59t-59 -25 q-28 0 -46.5 19.5t-18.5 48.5zM725 1223q0 34 25 58t59 24q28 0 46.5 -19t18.5 -47q0 -34 -24.5 -59t-56.5 -25q-29 0 -48.5 19.5t-19.5 48.5z" />
<glyph unicode="&#xfd;" horiz-adv-x="802" d="M-113 -381l39 92q20 -14 72 -14q38 0 66 23t63 83l102 179l-100 1007h111l73 -862l461 862h117l-670 -1214q-52 -93 -107 -134.5t-126 -41.5q-59 0 -101 20zM432 1139l303 295h123l-342 -295h-84z" />
<glyph unicode="&#xfe;" horiz-adv-x="958" d="M-49 -377l385 1743h102l-112 -518q110 166 272 166q132 0 210.5 -91.5t78.5 -252.5q0 -110 -31 -230t-86.5 -224.5t-143 -172.5t-188.5 -68q-90 0 -159.5 48t-106.5 135l-119 -535h-102zM193 252q23 -78 86.5 -131t148.5 -53q77 0 145 60t111 150.5t67.5 191t24.5 187.5 q0 127 -56.5 196t-154.5 69q-75 0 -147.5 -55t-118.5 -134z" />
<glyph unicode="&#xff;" horiz-adv-x="802" d="M-113 -381l39 92q20 -14 72 -14q38 0 66 23t63 83l102 179l-100 1007h111l73 -862l461 862h117l-670 -1214q-52 -93 -107 -134.5t-126 -41.5q-59 0 -101 20zM315 1223q0 34 25 58t59 24q28 0 47 -19t19 -47q0 -34 -25 -59t-59 -25q-28 0 -47 19.5t-19 48.5zM659 1223 q0 34 25 58t59 24q28 0 47 -19t19 -47q0 -34 -25 -59t-57 -25q-29 0 -48.5 19.5t-19.5 48.5z" />
<glyph unicode="&#x152;" horiz-adv-x="1734" d="M113 457q0 97 21 203t59 209.5t96 197t127 164.5t157.5 113t182.5 42q56 0 105 -12.5t96.5 -41t83.5 -81.5t55 -127l51 242h668l-21 -102h-555l-113 -512h541l-25 -103h-538l-121 -547h553l-23 -102h-667l41 190q-141 -215 -381 -215q-180 0 -286.5 133t-106.5 349z M233 455q0 -170 81.5 -272.5t224.5 -102.5q113 0 217.5 78.5t173.5 216.5l125 567q-15 165 -94.5 252.5t-212.5 87.5q-108 0 -206.5 -80.5t-164.5 -204t-105 -268t-39 -274.5z" />
<glyph unicode="&#x153;" horiz-adv-x="1603" d="M76 346q0 117 33.5 235t93 215t150 157.5t194.5 60.5q69 0 125.5 -24t92 -64.5t56 -87.5t25.5 -97q27 54 60 99t78 86t103.5 64.5t124.5 23.5q148 0 234 -95.5t86 -265.5q0 -101 -27 -192h-649q-10 -40 -10 -109q0 -132 69 -210.5t195 -78.5q127 0 236 115l49 -69 q-131 -134 -291 -134q-75 0 -137.5 24t-103 64t-64.5 88.5t-29 100.5q-31 -58 -60.5 -100t-74 -86t-102.5 -67.5t-127 -23.5q-154 0 -242 96.5t-88 274.5zM184 346q0 -132 58.5 -205t167.5 -73q76 0 145 57t113.5 143.5t71 186t26.5 188.5q0 140 -62 209.5t-163 69.5 q-100 0 -184.5 -95.5t-128.5 -226.5t-44 -254zM870 543h549q15 51 15 110q0 125 -60.5 199t-171.5 74q-66 0 -125 -36.5t-100.5 -94t-68.5 -123t-38 -129.5z" />
<glyph unicode="&#x178;" horiz-adv-x="989" d="M207 1366h123l200 -666l498 666h135l-592 -780l-129 -586h-114l129 586zM494 1567q0 34 25 58t59 24q28 0 46.5 -19t18.5 -47q0 -34 -25 -59t-59 -25q-28 0 -46.5 19.5t-18.5 48.5zM838 1567q0 34 25 58t59 24q28 0 46.5 -19t18.5 -47q0 -34 -25 -59t-57 -25 q-29 0 -48 19.5t-19 48.5z" />
<glyph unicode="&#x2c6;" horiz-adv-x="448" d="M141 1139l234 295h106l109 -295h-70l-104 229l-197 -229h-78z" />
<glyph unicode="&#x2dc;" horiz-adv-x="534" d="M143 1147q59 274 209 274q39 0 63 -21.5t34.5 -52.5t19 -62.5t25 -53t43.5 -21.5q82 0 129 199h69q-27 -124 -79 -199t-132 -75q-39 0 -63 21.5t-34 52.5t-18.5 62.5t-25.5 53t-45 21.5q-81 0 -125 -199h-70z" />
<glyph unicode="&#x2000;" horiz-adv-x="893" />
<glyph unicode="&#x2001;" horiz-adv-x="1786" />
<glyph unicode="&#x2002;" horiz-adv-x="893" />
<glyph unicode="&#x2003;" horiz-adv-x="1786" />
<glyph unicode="&#x2004;" horiz-adv-x="595" />
<glyph unicode="&#x2005;" horiz-adv-x="446" />
<glyph unicode="&#x2006;" horiz-adv-x="297" />
<glyph unicode="&#x2007;" horiz-adv-x="297" />
<glyph unicode="&#x2008;" horiz-adv-x="223" />
<glyph unicode="&#x2009;" horiz-adv-x="357" />
<glyph unicode="&#x200a;" horiz-adv-x="99" />
<glyph unicode="&#x2010;" horiz-adv-x="544" d="M49 449l21 94h422l-19 -94h-424z" />
<glyph unicode="&#x2011;" horiz-adv-x="544" d="M49 449l21 94h422l-19 -94h-424z" />
<glyph unicode="&#x2012;" horiz-adv-x="544" d="M49 449l21 94h422l-19 -94h-424z" />
<glyph unicode="&#x2013;" horiz-adv-x="1079" d="M49 449l21 94h954l-18 -94h-957z" />
<glyph unicode="&#x2014;" horiz-adv-x="1509" d="M49 449l21 94h1384l-18 -94h-1387z" />
<glyph unicode="&#x2018;" horiz-adv-x="446" d="M252 1090q0 84 61.5 168.5t145.5 127.5l49 -53q-57 -29 -102 -77t-58 -95h14q28 0 49 -20.5t21 -50.5q0 -40 -29 -68.5t-67 -28.5q-37 0 -60.5 25.5t-23.5 71.5z" />
<glyph unicode="&#x2019;" horiz-adv-x="446" d="M236 1047q58 30 102 76.5t57 95.5q-2 -2 -14 -2q-28 0 -49 21.5t-21 51.5q0 39 29 67.5t68 28.5q37 0 61.5 -25.5t24.5 -70.5q0 -85 -62 -169.5t-147 -127.5z" />
<glyph unicode="&#x201a;" horiz-adv-x="446" d="M-37 -184q57 29 102 77t58 95h-14q-29 0 -49.5 21t-20.5 52q0 38 28.5 66.5t65.5 28.5q38 0 62 -25.5t24 -71.5q0 -83 -62 -168.5t-145 -128.5z" />
<glyph unicode="&#x201c;" horiz-adv-x="735" d="M262 1090q0 84 61.5 168.5t145.5 127.5l49 -53q-58 -30 -102 -77.5t-56 -94.5h15q28 0 47.5 -20.5t19.5 -50.5q0 -39 -28.5 -68t-65.5 -29q-38 0 -62 25.5t-24 71.5zM547 1090q0 84 61.5 168.5t145.5 127.5l49 -53q-57 -29 -102 -77t-58 -95h14q28 0 49 -20.5t21 -50.5 q0 -39 -28.5 -68t-65.5 -29q-38 0 -62 25.5t-24 71.5z" />
<glyph unicode="&#x201d;" horiz-adv-x="735" d="M236 1047q58 30 102 76.5t57 95.5q-2 -2 -14 -2q-28 0 -49 21.5t-21 51.5q0 39 29 67.5t68 28.5q37 0 61.5 -25.5t24.5 -70.5q0 -85 -62 -169.5t-147 -127.5zM520 1047q58 30 102.5 76.5t57.5 95.5q-2 -2 -14 -2q-28 0 -49 21.5t-21 51.5q0 39 28.5 67.5t67.5 28.5 q37 0 61.5 -25.5t24.5 -70.5q0 -85 -62 -169.5t-147 -127.5z" />
<glyph unicode="&#x201e;" horiz-adv-x="735" d="M-37 -184q57 29 102 77t58 95h-14q-29 0 -49.5 21t-20.5 52q0 38 28.5 66.5t65.5 28.5q38 0 62 -25.5t24 -71.5q0 -83 -62 -168.5t-145 -128.5zM248 -184q57 29 102 77t58 95h-15q-28 0 -48.5 20.5t-20.5 52.5q0 38 28.5 66.5t65.5 28.5q38 0 62 -25.5t24 -71.5 q0 -83 -62 -168.5t-145 -128.5z" />
<glyph unicode="&#x2022;" horiz-adv-x="733" d="M156 477q0 92 70 160t163 68q82 0 135.5 -53.5t53.5 -135.5q0 -92 -70.5 -159.5t-163.5 -67.5q-82 0 -135 53t-53 135z" />
<glyph unicode="&#x2026;" horiz-adv-x="1341" d="M39 61q0 40 28 67.5t68 27.5q34 0 58 -23t24 -57q0 -40 -29 -68t-69 -28q-34 0 -57 23.5t-23 57.5zM485 61q0 39 29 67t68 28q35 0 58.5 -23t23.5 -57q0 -40 -28.5 -68t-68.5 -28q-35 0 -58.5 23.5t-23.5 57.5zM932 61q0 39 29 67t69 28q34 0 57 -23t23 -57 q0 -40 -28 -68t-68 -28q-34 0 -58 23.5t-24 57.5z" />
<glyph unicode="&#x202f;" horiz-adv-x="357" />
<glyph unicode="&#x2039;" horiz-adv-x="483" d="M59 498l338 362h111l-344 -371l168 -360h-99z" />
<glyph unicode="&#x203a;" horiz-adv-x="483" d="M-23 129l347 373l-170 358h98l174 -368l-338 -363h-111z" />
<glyph unicode="&#x205f;" horiz-adv-x="446" />
<glyph unicode="&#x20ac;" horiz-adv-x="1101" d="M51 496l19 84h84q11 96 43 208h-80l18 84h88q40 108 96 200t126 163.5t156 112.5t177 41q143 0 242.5 -77t146.5 -212l-108 -35q-39 111 -113.5 165t-175.5 54q-126 0 -237 -116t-181 -296h473l-20 -84h-483q-37 -130 -46 -208h484l-21 -84h-471v-41q0 -179 84 -277 t234 -98q154 0 295 166l86 -58q-171 -213 -389 -213q-194 0 -312.5 128t-118.5 354v39h-96z" />
<glyph unicode="&#x2122;" horiz-adv-x="847" d="M215 1313l10 53h271l-11 -53h-106l-88 -398h-58l89 398h-107zM471 915l98 451h88l41 -324l181 324h88l-99 -451h-57l82 373l-215 -373h-16l-52 373l-82 -373h-57z" />
<glyph unicode="&#xe000;" horiz-adv-x="993" d="M0 0v993h993v-993h-993z" />
</font>
</defs>
</svg>
