<?xml version="1.0" standalone="no"?>
<!DOCTYPE svg PUBLIC "-//W3C//DTD SVG 1.1//EN" "http://www.w3.org/Graphics/SVG/1.1/DTD/svg11.dtd" >
<svg xmlns="http://www.w3.org/2000/svg">
<metadata></metadata>
<defs>
<font id="proxima_nova_condensedSBdIt" horiz-adv-x="1101" >
<font-face units-per-em="2048" ascent="1618" descent="-430" />
<missing-glyph horiz-adv-x="432" />
<glyph unicode="&#xfb01;" horiz-adv-x="1003" d="M51 0l180 811h-129l39 178h129l19 90q67 307 313 307q97 0 166 -38l-74 -158q-29 20 -71 20q-101 0 -129 -131l-21 -90h164l-39 -178h-164l-180 -811h-203zM569 0l219 989h203l-219 -989h-203zM815 1225q0 63 45.5 103t97.5 40q50 0 83.5 -31.5t33.5 -76.5 q0 -65 -45.5 -105.5t-99.5 -40.5q-49 0 -82 32.5t-33 78.5z" />
<glyph unicode="&#xfb02;" horiz-adv-x="1003" d="M51 0l180 811h-129l39 178h129l19 90q67 307 313 307q97 0 166 -38l-74 -158q-29 20 -71 20q-101 0 -129 -131l-21 -90h164l-39 -178h-164l-180 -811h-203zM569 0l301 1366h203l-301 -1366h-203z" />
<glyph unicode="&#xfb03;" horiz-adv-x="1562" d="M51 0l180 811h-129l39 178h129l19 90q70 307 313 307q139 0 211 -75l-98 -142q-35 41 -92 41q-53 0 -84 -33.5t-45 -97.5l-21 -90h164l-39 -178h-164l-180 -811h-203zM610 0l181 811h-129l38 178h129l19 90q67 307 313 307q97 0 166 -38l-74 -158q-29 20 -71 20 q-101 0 -129 -131l-21 -90h164l-39 -178h-164l-180 -811h-203zM1126 0l220 989h202l-219 -989h-203zM1372 1225q0 63 46 103t98 40q50 0 83 -31.5t33 -76.5q0 -65 -45.5 -105.5t-99.5 -40.5q-49 0 -82 32.5t-33 78.5z" />
<glyph unicode="&#xfb04;" horiz-adv-x="1562" d="M51 0l180 811h-129l39 178h129l19 90q70 307 313 307q139 0 211 -75l-98 -142q-35 41 -92 41q-53 0 -84 -33.5t-45 -97.5l-21 -90h164l-39 -178h-164l-180 -811h-203zM610 0l181 811h-129l38 178h129l19 90q67 307 313 307q97 0 166 -38l-74 -158q-29 20 -71 20 q-101 0 -129 -131l-21 -90h164l-39 -178h-164l-180 -811h-203zM1126 0l301 1366h203l-301 -1366h-203z" />
<glyph horiz-adv-x="2048" />
<glyph horiz-adv-x="2048" />
<glyph unicode="&#xd;" horiz-adv-x="2048" />
<glyph unicode=" "  horiz-adv-x="432" />
<glyph unicode="&#x09;" horiz-adv-x="432" />
<glyph unicode="&#xa0;" horiz-adv-x="432" />
<glyph unicode="!" horiz-adv-x="495" d="M25 104q0 61 43.5 104.5t105.5 43.5q52 0 88.5 -36t36.5 -89q0 -61 -44.5 -105.5t-104.5 -44.5q-53 0 -89 37t-36 90zM139 412l174 954h250l-248 -954h-176z" />
<glyph unicode="&#x22;" horiz-adv-x="763" d="M236 809q28 411 30 440q1 60 39 98.5t94 38.5q42 0 72.5 -30t30.5 -74q0 -27 -13 -53l-161 -420h-92zM569 809q29 411 31 440q1 60 39 98.5t94 38.5q42 0 72.5 -30t30.5 -74q0 -27 -13 -53l-161 -420h-93z" />
<glyph unicode="#" horiz-adv-x="1073" d="M-10 0l182 360h-168l68 136h170l188 374h-170l64 134h174l180 362h158l-183 -362h172l181 362h155l-180 -362h168l-64 -134h-172l-190 -374h176l-65 -136h-179l-182 -360h-156l185 360h-174l-181 -360h-157zM397 496h168l193 374h-172z" />
<glyph unicode="$" horiz-adv-x="1001" d="M-6 176l139 166q81 -119 234 -156l94 424q-48 29 -79 50t-71 56t-63.5 68.5t-40.5 81t-17 99.5q0 83 33.5 159.5t92 134t141.5 93t178 37.5l41 184h155l-45 -201q171 -39 267 -155l-135 -164q-69 87 -177 118l-86 -391q59 -37 96.5 -65.5t80.5 -73t64.5 -98t21.5 -117.5 q0 -117 -52.5 -217t-155 -164t-235.5 -70l-39 -180h-155l43 193q-107 20 -193.5 69.5t-136.5 118.5zM432 1004q0 -70 86 -136l70 316q-69 -13 -112.5 -64.5t-43.5 -115.5zM522 182q74 18 116 74.5t42 130.5q0 70 -82 135z" />
<glyph unicode="%" horiz-adv-x="1357" d="M154 0l1020 1366h116l-1022 -1366h-114zM166 975q0 174 102.5 292.5t239.5 118.5q119 0 194.5 -75t75.5 -191q0 -174 -102.5 -292.5t-239.5 -118.5q-119 0 -194.5 75t-75.5 191zM313 989q0 -70 35.5 -109.5t95.5 -39.5q73 0 131 77.5t58 188.5q0 70 -36 110.5t-95 40.5 q-74 0 -131.5 -78.5t-57.5 -189.5zM657 242q0 174 102.5 292.5t239.5 118.5q119 0 195 -75t76 -191q0 -175 -102.5 -293.5t-239.5 -118.5q-119 0 -195 75.5t-76 191.5zM805 256q0 -70 35 -111t94 -41q74 0 132 79t58 190q0 70 -36 109.5t-95 39.5q-74 0 -131 -77.5 t-57 -188.5z" />
<glyph unicode="&#x26;" d="M18 293q0 76 20 142t51 113.5t79.5 91t94 73t106.5 61.5q-29 119 -29 211q0 165 105.5 283t248.5 118q120 0 196.5 -64t76.5 -185q0 -47 -12 -90t-29 -75.5t-48.5 -65.5t-58 -55t-71.5 -49.5t-74.5 -43t-79.5 -41.5q-3 -1 -4 -2q36 -91 65 -156q33 -80 78 -176 q90 119 164 270l147 -90q-112 -202 -229 -338q51 -97 129 -225h-227q-36 60 -49 86q-150 -111 -303 -111q-155 0 -251 82.5t-96 235.5zM236 319q0 -83 47 -131.5t118 -48.5q90 0 191 88q-66 129 -98 205q-31 70 -76 186q-87 -60 -134.5 -130.5t-47.5 -168.5zM532 979 q0 -54 13 -117q118 60 178.5 119t60.5 147q0 55 -25.5 81t-68.5 26q-60 0 -109 -76t-49 -180z" />
<glyph unicode="'" horiz-adv-x="432" d="M236 809q28 411 30 440q1 60 39 98.5t94 38.5q42 0 72.5 -30t30.5 -74q0 -27 -13 -53l-161 -420h-92z" />
<glyph unicode="(" horiz-adv-x="526" d="M47 129q0 347 131.5 672t372.5 602l119 -92q-192 -280 -302 -609.5t-110 -658.5q0 -78 13.5 -187.5t33.5 -195.5l-151 -68q-107 236 -107 537z" />
<glyph unicode=")" horiz-adv-x="526" d="M-145 -315q192 280 301.5 608.5t109.5 658.5q0 78 -13.5 187.5t-33.5 195.5l152 68q106 -234 106 -537q0 -347 -131.5 -672t-372.5 -602z" />
<glyph unicode="*" horiz-adv-x="675" d="M152 1010l227 82l-180 122l73 89l166 -144l39 227h113l-66 -235l221 100l33 -98l-223 -82l178 -125l-78 -86l-163 141l-39 -225h-111l64 236l-222 -101z" />
<glyph unicode="+" horiz-adv-x="903" d="M86 625l31 133h319l78 350h145l-77 -350h319l-29 -133h-321l-80 -367h-145l82 367h-322z" />
<glyph unicode="," horiz-adv-x="497" d="M-37 -176q60 28 112.5 75t71.5 97h-18q-43 0 -73.5 30t-30.5 80q0 59 45.5 102.5t103.5 43.5q56 0 94.5 -37t38.5 -104q0 -104 -77.5 -208t-190.5 -159z" />
<glyph unicode="-" horiz-adv-x="552" d="M41 408l37 176h430l-37 -176h-430z" />
<glyph unicode="." horiz-adv-x="495" d="M25 104q0 61 44.5 104.5t104.5 43.5q54 0 89.5 -36t35.5 -89q0 -62 -44 -106t-105 -44q-52 0 -88.5 37t-36.5 90z" />
<glyph unicode="/" horiz-adv-x="542" d="M-123 -41l713 1448h158l-715 -1448h-156z" />
<glyph unicode="0" horiz-adv-x="1081" d="M88 453q0 129 27.5 262t81 252.5t125 213.5t167 149.5t199.5 55.5q179 0 282 -124t103 -353q0 -162 -44 -327.5t-120 -300.5t-190.5 -220.5t-243.5 -85.5q-179 0 -283 125.5t-104 352.5zM313 428q0 -117 43.5 -184.5t137.5 -67.5q78 0 147 81.5t112.5 201.5t69 248 t25.5 229q0 250 -182 250q-77 0 -146 -81.5t-112.5 -201t-69 -247t-25.5 -228.5z" />
<glyph unicode="1" horiz-adv-x="720" d="M131 991l451 375h198l-301 -1366h-227l237 1073l-256 -219z" />
<glyph unicode="2" horiz-adv-x="1044" d="M-14 0l49 221q54 44 155 125q131 105 191.5 154.5t150.5 126.5t128.5 118.5t82.5 95.5t59 96t15 85q0 76 -55.5 120t-147.5 44q-165 0 -284 -131l-111 153q80 83 187.5 130.5t226.5 47.5q180 0 301 -91t121 -253q0 -49 -11 -96t-37.5 -97t-55 -93t-81.5 -99.5t-97 -100.5 t-121.5 -111.5t-135 -116t-156.5 -129.5h512l-43 -199h-843z" />
<glyph unicode="3" horiz-adv-x="1019" d="M-18 254l172 123q39 -95 120.5 -148t178.5 -53q111 0 175 77.5t64 182.5q0 77 -55.5 119.5t-155.5 42.5q-68 0 -108 -4l45 205q18 -2 145 -2q108 0 176 64.5t68 164.5q0 74 -59 117t-160 43q-73 0 -143.5 -32t-125.5 -91l-106 143q75 82 180.5 131t222.5 49 q191 0 307.5 -84.5t116.5 -236.5q0 -141 -100 -246t-233 -125q98 -29 153 -103t55 -175q0 -182 -132.5 -311.5t-329.5 -129.5q-160 0 -290.5 74.5t-180.5 204.5z" />
<glyph unicode="4" horiz-adv-x="1009" d="M4 315l47 211l662 840h299l-189 -850h144l-43 -201h-144l-69 -315h-226l68 315h-549zM254 516h344l135 610z" />
<glyph unicode="5" horiz-adv-x="1052" d="M27 246l172 125q37 -95 108.5 -145t171.5 -50q108 0 184 96t76 222q0 87 -55 136.5t-149 49.5q-65 0 -117 -23.5t-107 -72.5l-149 63l157 719h771l-46 -199h-542l-86 -393q95 92 237 92q141 0 232.5 -92t91.5 -252q0 -107 -37 -206.5t-101.5 -175t-159.5 -120.5t-204 -45 q-325 0 -448 271z" />
<glyph unicode="6" horiz-adv-x="1050" d="M80 436q0 91 17.5 193.5t50.5 210t88 204.5t123.5 174t163 122.5t200.5 45.5q123 0 216.5 -51t145.5 -143l-149 -152q-28 68 -87 107t-138 39q-68 0 -128.5 -38.5t-104.5 -103.5t-75.5 -137.5t-52.5 -154.5q-7 -19 -14 -52q55 72 138.5 120t174.5 48q145 0 238.5 -89 t93.5 -242q0 -138 -61 -266t-176 -212t-255 -84q-197 0 -303 122.5t-106 338.5zM299 408q0 -106 52 -169t145 -63q72 0 131 53.5t88.5 128t29.5 146.5q0 79 -53 128.5t-143 49.5q-128 0 -242 -152q-8 -62 -8 -122z" />
<glyph unicode="7" horiz-adv-x="921" d="M82 0l678 1167h-565l43 199h831l-35 -158l-696 -1208h-256z" />
<glyph unicode="8" horiz-adv-x="1042" d="M31 303q0 140 94 254.5t264 167.5q-78 40 -131 113t-53 163q0 114 66 204t168 135.5t216 45.5q81 0 154.5 -19t133.5 -56t96 -99.5t36 -142.5q0 -146 -94.5 -247.5t-241.5 -135.5q90 -50 145.5 -130t55.5 -175q0 -177 -135.5 -291.5t-333.5 -114.5q-130 0 -226.5 33.5 t-155 108.5t-58.5 186zM268 346q0 -82 57.5 -126t149.5 -44q93 0 165.5 68t72.5 168q0 76 -52.5 130t-113.5 72q-117 -18 -198 -90.5t-81 -177.5zM428 969q0 -61 48.5 -111t107.5 -72q110 19 182 81t72 163q0 68 -54.5 111t-138.5 43q-91 0 -154 -61t-63 -154z" />
<glyph unicode="9" horiz-adv-x="1050" d="M45 172l148 152q30 -69 88.5 -107.5t136.5 -38.5q56 0 106.5 26t88.5 68t71 100t55.5 116.5t40.5 123.5q10 37 13 52q-52 -71 -137 -119.5t-175 -48.5q-146 0 -238.5 89t-92.5 242q0 103 36 203.5t98.5 180t156 129t198.5 49.5q198 0 304 -122t106 -339 q0 -91 -17.5 -193.5t-50.5 -210t-88 -205t-123.5 -174.5t-163 -122.5t-200.5 -45.5q-122 0 -215.5 51.5t-145.5 143.5zM385 860q0 -79 53.5 -128.5t143.5 -49.5q125 0 239 152q10 52 10 122q0 106 -52 169t-144 63q-73 0 -132 -53.5t-88.5 -128t-29.5 -146.5z" />
<glyph unicode=":" horiz-adv-x="487" d="M25 104q0 61 44.5 104.5t106.5 43.5q52 0 88.5 -36t36.5 -89q0 -61 -44.5 -105.5t-106.5 -44.5q-52 0 -88.5 37t-36.5 90zM190 856q0 60 45 104t105 44q53 0 89 -37t36 -90q0 -61 -44 -104.5t-106 -43.5q-53 0 -89 36.5t-36 90.5z" />
<glyph unicode=";" horiz-adv-x="495" d="M-37 -176q60 28 112.5 75t71.5 97h-18q-43 0 -73.5 30t-30.5 80q0 59 45.5 102.5t103.5 43.5q56 0 94.5 -37t38.5 -104q0 -104 -77.5 -208t-190.5 -159zM190 856q0 60 45 104t105 44q53 0 89 -37t36 -90q0 -61 -44 -104.5t-106 -43.5q-53 0 -89 36.5t-36 90.5z" />
<glyph unicode="&#x3c;" horiz-adv-x="903" d="M82 612l35 146l864 360l-37 -164l-688 -276l565 -275l-33 -149z" />
<glyph unicode="=" horiz-adv-x="903" d="M41 422l31 133h784l-29 -133h-786zM127 813l31 133h784l-29 -133h-786z" />
<glyph unicode="&#x3e;" horiz-adv-x="903" d="M4 254l37 164l690 272l-569 277l33 151l706 -360l-33 -146z" />
<glyph unicode="?" horiz-adv-x="798" d="M174 104q0 61 45 104.5t107 43.5q52 0 88.5 -36t36.5 -89q0 -61 -45 -105.5t-107 -44.5q-52 0 -88.5 37t-36.5 90zM203 1262q147 124 334 124q152 0 250 -76.5t98 -197.5q0 -67 -23.5 -125t-60.5 -99t-82 -77t-90 -67t-82 -61.5t-60.5 -68t-23.5 -79.5q0 -47 20 -76 l-184 -62q-31 60 -31 135q0 59 21 110t54.5 87t74 68t80.5 60.5t73.5 58t54.5 66.5t21 79q0 58 -42 94.5t-118 36.5q-111 0 -202 -82z" />
<glyph unicode="@" horiz-adv-x="1439" d="M113 471q0 109 28.5 215.5t78.5 198t121 170t153.5 134t179.5 87t196 31.5q240 0 389.5 -159t149.5 -409q0 -100 -20 -190t-54.5 -157t-79.5 -117t-96.5 -75.5t-103.5 -25.5q-76 0 -124.5 42.5t-56.5 107.5l-2 14q-50 -73 -118.5 -118.5t-149.5 -45.5q-112 0 -183 77.5 t-71 221.5q0 138 57 264.5t156.5 205.5t214.5 79q76 0 128 -39.5t77 -103.5l23 110h182l-113 -530q-4 -20 -4 -51q0 -45 19 -69t53 -24q27 0 58 27t60 76.5t48.5 134t19.5 186.5q0 226 -126.5 360t-336.5 134q-179 0 -336.5 -109t-248.5 -284t-91 -367q0 -155 60 -278.5 t174 -195t262 -71.5q172 0 336 115l39 -57q-184 -129 -385 -129q-251 0 -407 171.5t-156 442.5zM541 494q0 -79 36 -125.5t103 -46.5q119 0 215 149l59 281q-14 49 -50 85.5t-91 36.5q-79 0 -143 -60t-96.5 -146.5t-32.5 -173.5z" />
<glyph unicode="A" d="M-104 0l710 1366h271l108 -1366h-235l-17 270h-450l-136 -270h-251zM373 471h360l-37 653z" />
<glyph unicode="B" horiz-adv-x="1107" d="M20 0l302 1366h460q153 0 243.5 -86.5t90.5 -218.5q0 -138 -84.5 -248t-208.5 -127q81 -24 127.5 -98.5t46.5 -163.5q0 -79 -26 -152.5t-75.5 -135t-133.5 -99t-189 -37.5h-553zM291 199h256q99 0 160 71.5t61 171.5q0 73 -42 114.5t-118 41.5h-229zM422 797h252 q67 0 114.5 36.5t66.5 85.5t19 103q0 65 -43.5 105t-111.5 40h-215z" />
<glyph unicode="C" horiz-adv-x="1124" d="M88 487q0 132 30 262.5t89.5 245.5t139.5 203t187 139.5t226 51.5q94 0 171.5 -29t131 -80t89 -113.5t54.5 -136.5l-213 -61q-30 105 -93.5 162t-154.5 57q-87 0 -167 -63.5t-135 -163.5t-88 -224.5t-33 -244.5q0 -148 71.5 -232t196.5 -84q145 0 262 164l176 -100 q-88 -131 -204 -198t-246 -67q-220 0 -355 138.5t-135 373.5z" />
<glyph unicode="D" horiz-adv-x="1196" d="M20 0l302 1366h399q89 0 170.5 -35t144.5 -98.5t100.5 -161.5t37.5 -215q0 -111 -23.5 -224t-80.5 -228t-140 -203.5t-213 -144.5t-289 -56h-408zM291 199h176q90 0 169 41t133.5 108t94 152.5t58 174t18.5 173.5q0 146 -73.5 232.5t-188.5 86.5h-174z" />
<glyph unicode="E" horiz-adv-x="968" d="M20 0l302 1366h749l-45 -199h-522l-82 -370h510l-45 -199h-508l-88 -399h522l-43 -199h-750z" />
<glyph unicode="F" horiz-adv-x="950" d="M20 0l302 1366h749l-45 -199h-522l-82 -370h510l-45 -199h-508l-133 -598h-226z" />
<glyph unicode="G" horiz-adv-x="1183" d="M88 487q0 133 30 264t89 245.5t139.5 202.5t190 139t231.5 51q89 0 163 -26.5t125 -73.5t85.5 -104.5t52.5 -125.5l-199 -68q-26 88 -90.5 142.5t-156.5 54.5q-115 0 -215 -105t-155.5 -265t-55.5 -326q0 -149 71 -232.5t199 -83.5q122 0 231 113l54 239h-291l43 201h506 l-117 -526q-181 -228 -440 -228q-221 0 -355.5 138.5t-134.5 373.5z" />
<glyph unicode="H" horiz-adv-x="1218" d="M20 0l302 1366h225l-123 -563h504l125 563h225l-301 -1366h-225l131 602h-504l-133 -602h-226z" />
<glyph unicode="I" horiz-adv-x="487" d="M20 0l302 1366h225l-301 -1366h-226z" />
<glyph unicode="J" horiz-adv-x="839" d="M-63 104l112 172q29 -47 78 -73.5t106 -26.5q178 0 224 209l217 981h227l-219 -989q-46 -207 -150.5 -304.5t-281.5 -97.5q-96 0 -180 33t-133 96z" />
<glyph unicode="K" horiz-adv-x="1097" d="M20 0l302 1366h225l-139 -633l553 633h278l-588 -645l322 -721h-252l-240 571l-145 -165l-90 -406h-226z" />
<glyph unicode="L" horiz-adv-x="878" d="M12 0l301 1366h226l-258 -1167h477l-43 -199h-703z" />
<glyph unicode="M" horiz-adv-x="1462" d="M20 0l302 1366h299l98 -889l493 889h310l-301 -1366h-224l220 999l-553 -999h-86l-111 999l-221 -999h-226z" />
<glyph unicode="N" horiz-adv-x="1216" d="M20 0l302 1366h229l297 -903l201 903h227l-301 -1366h-217l-305 930l-207 -930h-226z" />
<glyph unicode="O" horiz-adv-x="1259" d="M88 487q0 127 29 255.5t87 244.5t137.5 206t188 143t230.5 53q221 0 355 -141.5t134 -370.5q0 -127 -29 -255.5t-87 -244.5t-137 -206t-187.5 -143t-230.5 -53q-222 0 -356 141t-134 371zM322 492q0 -146 73.5 -231t194.5 -85q117 0 217 106.5t154.5 265.5t54.5 322 q0 146 -75 232t-196 86q-89 0 -169.5 -63t-135 -163.5t-86.5 -224.5t-32 -245z" />
<glyph unicode="P" horiz-adv-x="1054" d="M20 0l302 1366h444q147 0 242.5 -100.5t95.5 -249.5q0 -90 -29.5 -175t-88.5 -159t-160 -119t-230 -45h-236l-114 -518h-226zM403 717h213h-2q116 0 184 82.5t68 195.5q0 77 -45 124.5t-116 47.5h-201z" />
<glyph unicode="Q" horiz-adv-x="1259" d="M88 487q0 127 29 255.5t87 244.5t137.5 206t188 143t230.5 53q221 0 355 -141.5t134 -370.5q0 -232 -92.5 -451t-253.5 -340l39 -96l-176 -62l-31 72q-87 -25 -157 -25q-222 0 -356 141t-134 371zM322 492q0 -146 73.5 -231t194.5 -85q40 0 69 10l-98 244l176 62l80 -197 q90 101 144.5 258.5t54.5 316.5q0 146 -75 232t-196 86q-89 0 -169.5 -63t-135 -163.5t-86.5 -224.5t-32 -245z" />
<glyph unicode="R" horiz-adv-x="1095" d="M20 0l302 1366h426q150 0 253 -98.5t103 -253.5q0 -178 -98.5 -309.5t-245.5 -159.5l143 -545h-244l-118 516h-181l-114 -516h-226zM403 717h213q116 0 183 81t67 195q0 81 -46 127.5t-115 46.5h-201z" />
<glyph unicode="S" horiz-adv-x="999" d="M-12 176l139 166q53 -76 141 -121t187 -45q101 0 160 61t59 150q0 42 -27 79.5t-70 67.5t-95.5 60.5t-105 66.5t-95.5 77t-70 99.5t-27 127.5q0 173 131 298.5t326 125.5q123 0 232 -45.5t174 -126.5l-136 -164q-50 64 -127 99.5t-159 35.5q-87 0 -143 -54.5t-56 -129.5 q0 -35 21 -67t55 -57.5t77.5 -54.5t89 -55.5t89 -62.5t77.5 -74.5t55 -92t21 -114.5q0 -121 -55.5 -223t-163 -165t-246.5 -63q-146 0 -270 55.5t-188 145.5z" />
<glyph unicode="T" horiz-adv-x="950" d="M195 1167l43 199h854l-43 -199h-314l-258 -1167h-225l256 1167h-313z" />
<glyph unicode="U" horiz-adv-x="1214" d="M113 371q0 52 10 94l199 901h227l-201 -909q-8 -56 -8 -70q2 -95 62.5 -154t164.5 -59q115 0 181 70.5t98 212.5l201 909h227l-201 -905q-53 -239 -178 -362.5t-336 -123.5q-205 0 -325.5 107t-120.5 289z" />
<glyph unicode="V" d="M197 1366h235l57 -1096l543 1096h254l-711 -1366h-270z" />
<glyph unicode="W" horiz-adv-x="1529" d="M211 1366h238l-27 -1018l438 1018h182l-12 -1018l422 1018h248l-610 -1366h-238l18 979l-413 -979h-236z" />
<glyph unicode="X" d="M-104 0l565 711l-242 655h248l162 -481l360 481h275l-535 -680l258 -686h-248l-180 510l-391 -510h-272z" />
<glyph unicode="Y" horiz-adv-x="1073" d="M190 1366h240l156 -584l415 584h263l-598 -797l-127 -569h-226l125 569z" />
<glyph unicode="Z" horiz-adv-x="976" d="M-33 0l41 188l735 979h-518l43 199h807l-41 -184l-739 -983h536l-43 -199h-821z" />
<glyph unicode="[" horiz-adv-x="468" d="M-117 -389l393 1778h355l-33 -142h-201l-331 -1495h200l-30 -141h-353z" />
<glyph unicode="\" horiz-adv-x="542" d="M190 1407h152l82 -1448h-152z" />
<glyph unicode="]" horiz-adv-x="468" d="M-162 -389l33 141h201l331 1495h-202l30 142h355l-396 -1778h-352z" />
<glyph unicode="^" horiz-adv-x="790" d="M78 682l432 684h152l129 -684h-148l-86 530l-317 -530h-162z" />
<glyph unicode="_" horiz-adv-x="864" d="M-166 -223l33 141h874l-32 -141h-875z" />
<glyph unicode="`" horiz-adv-x="415" d="M207 1434h188l162 -295h-139z" />
<glyph unicode="a" horiz-adv-x="1013" d="M51 334q0 86 18.5 179t57 182.5t91.5 160.5t128.5 114.5t161.5 43.5q89 0 157.5 -41.5t104.5 -120.5l29 137h202l-219 -989h-202l28 127q-109 -152 -260 -152q-138 0 -217.5 94.5t-79.5 264.5zM264 367q0 -100 47 -155.5t129 -55.5q59 0 114 39t91 98l90 405 q-21 59 -72 97.5t-118 38.5q-51 0 -96.5 -31t-78.5 -81t-57.5 -112t-36.5 -125t-12 -118z" />
<glyph unicode="b" horiz-adv-x="1013" d="M10 0l301 1366h203l-111 -504q112 152 263 152q137 0 216 -94t79 -265q0 -86 -18.5 -179t-57 -182.5t-91.5 -160.5t-128.5 -114.5t-161.5 -43.5q-88 0 -156.5 42t-103.5 120l-31 -137h-203zM276 291q23 -59 74 -97t117 -38q63 0 118.5 47t90.5 118.5t54.5 151.5t19.5 150 q0 100 -48 155.5t-129 55.5q-58 0 -113 -39t-93 -99z" />
<glyph unicode="c" horiz-adv-x="854" d="M55 379q0 92 23.5 184t69 172.5t106.5 143t142.5 99t170.5 36.5q107 0 187.5 -39.5t124.5 -106.5l-127 -133q-27 48 -74 73.5t-103 25.5q-92 0 -165.5 -70.5t-109.5 -170.5t-36 -202q0 -114 59.5 -174.5t155.5 -60.5q102 0 176 84l76 -148q-117 -117 -285 -117 q-179 0 -285 107t-106 297z" />
<glyph unicode="d" horiz-adv-x="1013" d="M51 334q0 86 18.5 179t57 182.5t91.5 160.5t128.5 114.5t161.5 43.5q89 0 157.5 -41.5t104.5 -120.5l113 514h202l-303 -1366h-202l28 127q-109 -152 -260 -152q-138 0 -217.5 94.5t-79.5 264.5zM264 367q0 -100 47 -155.5t129 -55.5q59 0 114 39t91 98l90 405 q-21 59 -72 97.5t-118 38.5q-51 0 -96.5 -31t-78.5 -81t-57.5 -112t-36.5 -125t-12 -118z" />
<glyph unicode="e" horiz-adv-x="974" d="M55 377q0 84 22 172.5t66 171.5t103.5 148.5t141.5 105t173 39.5q167 0 264 -102.5t97 -280.5q0 -89 -29 -203h-635q-6 -34 -6 -70q0 -88 60.5 -152.5t176.5 -64.5q58 0 118 24.5t104 65.5l69 -135q-63 -57 -146.5 -89t-168.5 -32q-191 0 -300.5 107t-109.5 295zM285 573 h440h4q8 31 8 72q0 89 -50 146t-142 57q-67 0 -124 -43t-90.5 -104t-45.5 -128z" />
<glyph unicode="f" horiz-adv-x="559" d="M51 0l180 811h-129l39 178h129l19 90q70 307 313 307q139 0 211 -75l-98 -142q-35 41 -92 41q-53 0 -84 -33.5t-45 -97.5l-21 -90h164l-39 -178h-164l-180 -811h-203z" />
<glyph unicode="g" horiz-adv-x="1013" d="M-49 -256l119 150q39 -57 108.5 -88t153.5 -31q199 0 252 241l30 140q-51 -74 -120.5 -114t-145.5 -40q-133 0 -214 88t-81 262q0 106 29.5 219.5t84 213.5t143.5 164.5t196 64.5q78 0 153 -44t109 -118l31 137h202l-215 -973q-93 -417 -452 -417q-255 0 -383 145z M264 389q0 -101 47.5 -154t130.5 -53q56 0 112 38.5t95 96.5l84 377q-24 61 -77.5 100.5t-118.5 39.5q-61 0 -114.5 -44t-87 -111.5t-52.5 -144t-19 -145.5z" />
<glyph unicode="h" horiz-adv-x="995" d="M10 0l301 1366h205l-113 -508q137 156 293 156q110 0 175 -55.5t65 -149.5q0 -22 -10 -72l-162 -737h-203l148 674q8 24 8 53q0 55 -34 81t-93 26q-111 0 -223 -142l-152 -692h-205z" />
<glyph unicode="i" horiz-adv-x="444" d="M10 0l219 989h203l-219 -989h-203zM256 1225q0 63 45.5 103t97.5 40q50 0 83.5 -31.5t33.5 -76.5q0 -65 -45.5 -105.5t-99.5 -40.5q-49 0 -82 32.5t-33 78.5z" />
<glyph unicode="j" horiz-adv-x="444" d="M-319 -328l90 150q29 -47 92 -47q97 0 129 141l237 1073h203l-237 -1073q-37 -161 -109.5 -239t-204.5 -78q-138 0 -200 73zM256 1225q0 63 45.5 103t97.5 40q50 0 83.5 -31.5t33.5 -76.5q0 -65 -45.5 -105.5t-99.5 -40.5q-49 0 -82 32.5t-33 78.5z" />
<glyph unicode="k" horiz-adv-x="935" d="M10 0l301 1366h203l-186 -850l448 473h246l-428 -444l215 -545h-231l-148 420l-162 -166l-55 -254h-203z" />
<glyph unicode="l" horiz-adv-x="444" d="M10 0l301 1366h203l-301 -1366h-203z" />
<glyph unicode="m" horiz-adv-x="1480" d="M10 0l219 989h203l-29 -131q51 64 123.5 110t153.5 46q100 0 160.5 -55t60.5 -115v-10q59 79 135 129.5t162 50.5q97 0 160 -55t63 -150q0 -27 -10 -72l-162 -737h-202l149 678q6 24 6 49q0 51 -30.5 79t-81.5 28q-53 0 -108 -41t-97 -99l-154 -694h-203l150 678 q6 27 6 53q0 48 -29 75.5t-84 27.5q-54 0 -108 -40.5t-96 -99.5l-154 -694h-203z" />
<glyph unicode="n" horiz-adv-x="995" d="M10 0l219 989h203l-29 -131q137 156 293 156q109 0 174.5 -55t65.5 -150q0 -32 -10 -72l-162 -737h-205l150 674q8 28 8 53q0 53 -34.5 80t-92.5 27q-110 0 -223 -140l-154 -694h-203z" />
<glyph unicode="o" horiz-adv-x="1003" d="M53 373q0 89 22.5 180.5t67 173.5t104.5 146.5t141 102.5t171 38q183 0 284 -106.5t101 -291.5q0 -89 -22.5 -180.5t-66.5 -173.5t-103.5 -146.5t-140.5 -102.5t-171 -38q-183 0 -285 106.5t-102 291.5zM264 375q0 -107 48.5 -163t136.5 -56q63 0 118.5 46t91 116 t56 148.5t20.5 147.5q0 107 -48.5 163.5t-135.5 56.5q-63 0 -118.5 -46t-91.5 -116t-56.5 -149t-20.5 -148z" />
<glyph unicode="p" horiz-adv-x="1011" d="M-74 -377l303 1366h203l-29 -127q112 152 263 152q137 0 216 -94t79 -265q0 -86 -18.5 -179t-57 -182.5t-91.5 -160.5t-128.5 -114.5t-161.5 -43.5q-88 0 -156.5 42t-103.5 120l-115 -514h-203zM276 291q23 -59 74 -97t117 -38q63 0 118.5 47t90.5 118.5t54.5 151.5 t19.5 150q0 100 -48 155.5t-129 55.5q-58 0 -113 -39t-93 -99z" />
<glyph unicode="q" horiz-adv-x="1011" d="M51 334q0 86 18.5 179t57 182.5t91.5 160.5t128.5 114.5t161.5 43.5q89 0 157.5 -41.5t104.5 -120.5l29 137h202l-303 -1366h-202l112 504q-109 -152 -260 -152q-138 0 -217.5 94.5t-79.5 264.5zM264 367q0 -100 47 -155.5t129 -55.5q59 0 114 39t91 98l90 405 q-21 59 -72 97.5t-118 38.5q-51 0 -96.5 -31t-78.5 -81t-57.5 -112t-36.5 -125t-12 -118z" />
<glyph unicode="r" horiz-adv-x="630" d="M10 0l219 989h203l-31 -135q123 158 312 158l-47 -205q-23 10 -68 10q-68 0 -130.5 -39.5t-105.5 -103.5l-149 -674h-203z" />
<glyph unicode="s" horiz-adv-x="823" d="M-25 135l117 135q38 -55 110 -94t154 -39q71 0 117.5 40.5t46.5 96.5q0 31 -22 57.5t-57.5 47.5t-78 42t-85.5 46.5t-78.5 56t-57.5 74.5t-22 98q0 132 95 225t259 93q102 0 193 -39.5t147 -106.5l-111 -131q-29 45 -96 80t-137 35q-69 0 -110.5 -34t-41.5 -87 q0 -28 22.5 -53t58 -45.5t79 -41.5t87 -47t79 -57t58 -76.5t22.5 -99.5q0 -140 -104 -238t-273 -98q-118 0 -216.5 43t-154.5 117z" />
<glyph unicode="t" horiz-adv-x="577" d="M88 158q0 32 8 71l131 582h-131l41 178h129l60 271h202l-59 -271h164l-39 -178h-164l-121 -539q-4 -14 -4 -45q0 -71 76 -71q44 0 70 26l10 -166q-51 -41 -139 -41q-112 0 -173 45.5t-61 137.5z" />
<glyph unicode="u" horiz-adv-x="995" d="M57 180q0 43 11 72l161 737h203l-149 -672q-1 -5 -4 -25.5t-3 -29.5q0 -54 34 -80t93 -26t117.5 39t104.5 98l153 696h203l-219 -989h-203l31 131q-140 -156 -293 -156q-111 0 -175.5 55t-64.5 150z" />
<glyph unicode="v" horiz-adv-x="884" d="M111 989h211l57 -745l389 745h223l-551 -989h-219z" />
<glyph unicode="w" horiz-adv-x="1370" d="M123 989h205l12 -721l350 721h189l32 -721l334 721h219l-485 -989h-213l-33 725l-350 -725h-213z" />
<glyph unicode="x" horiz-adv-x="872" d="M-98 0l407 504l-172 485h215l109 -340l262 340h229l-391 -485l189 -504h-218l-120 358l-281 -358h-229z" />
<glyph unicode="y" horiz-adv-x="884" d="M-104 -377l65 172q28 -14 74 -14q35 0 60.5 18.5t51.5 63.5l72 125l-108 1001h211l57 -743l389 743h223l-655 -1173q-66 -119 -136 -168t-167 -49q-80 0 -137 24z" />
<glyph unicode="z" horiz-adv-x="819" d="M-33 0l33 156l539 655h-392l39 178h656l-33 -149l-543 -662h402l-37 -178h-664z" />
<glyph unicode="{" horiz-adv-x="499" d="M-31 -178q0 25 8 57l93 420q6 36 6 37q0 46 -21.5 74t-60.5 28l29 123q56 0 90 38t47 101l94 422q30 133 111.5 200t203.5 67h93l-31 -142h-92q-52 0 -86.5 -32t-46.5 -93l-103 -456q-29 -144 -133 -183q59 -29 59 -112q0 -37 -8 -70l-92 -418q-4 -24 -4 -39 q0 -41 25.5 -66.5t62.5 -25.5h84l-31 -141h-69q-91 0 -159 59.5t-69 151.5z" />
<glyph unicode="|" horiz-adv-x="401" d="M172 -41v1448h141v-1448h-141z" />
<glyph unicode="}" horiz-adv-x="499" d="M-164 -389l31 141h92q51 0 85.5 32t47.5 93l103 457q29 143 131 182q-60 31 -60 113q0 36 8 69l95 418q4 24 4 39q0 41 -25.5 66.5t-62.5 25.5h-86l32 142h70q91 0 158 -59.5t67 -153.5q0 -35 -6 -56l-94 -420q-4 -24 -4 -36q0 -45 21.5 -74t58.5 -29l-27 -123 q-108 0 -137 -139l-94 -422q-30 -133 -112 -199.5t-204 -66.5h-92z" />
<glyph unicode="~" horiz-adv-x="937" d="M135 870q15 74 34.5 138.5t50 132t67.5 115t88.5 78t111.5 30.5q73 0 112.5 -39t49.5 -95t13.5 -111.5t17.5 -94.5t49 -39q57 0 109 99t92 282l141 -14q-105 -496 -352 -496q-73 0 -112.5 39t-49.5 94t-13.5 110.5t-17.5 94.5t-49 39q-57 0 -109 -98.5t-92 -280.5z" />
<glyph unicode="&#xa1;" horiz-adv-x="495" d="M-70 -377l248 955h174l-174 -955h-248zM193 862q0 61 44.5 105.5t106.5 44.5q52 0 88.5 -37t36.5 -90q0 -61 -45 -104.5t-107 -43.5q-52 0 -88 36t-36 89z" />
<glyph unicode="&#xa2;" horiz-adv-x="854" d="M55 379q0 148 57 286.5t166.5 235.5t245.5 111l33 145h152l-35 -156q134 -29 205 -133l-127 -133q-38 67 -117 90l-150 -669q99 3 170 84l76 -148q-117 -117 -285 -117h-2l-38 -180h-152l45 203q-116 37 -180 135.5t-64 245.5zM264 391q0 -130 80 -194l135 614 q-97 -45 -156 -168t-59 -252z" />
<glyph unicode="&#xa3;" horiz-adv-x="966" d="M12 145q121 59 201 163t80 214q0 5 -1 16.5t-1 16.5h-228l31 137h156q-20 46 -29.5 70t-20 69t-10.5 89q0 127 66 235t174.5 169.5t231.5 61.5q146 0 251.5 -70.5t126.5 -197.5l-200 -71q-11 71 -56.5 112t-115.5 41q-94 0 -164 -88.5t-70 -218.5q0 -37 7.5 -68 t27.5 -77.5t23 -55.5h221l-29 -137h-176q-10 -102 -68.5 -193t-132.5 -137q50 17 84 17q56 0 135.5 -33t124.5 -33q90 0 158 72l39 -182q-97 -93 -225 -93q-70 0 -135.5 22.5t-124 45t-111.5 22.5q-83 0 -201 -77z" />
<glyph unicode="&#xa4;" horiz-adv-x="1069" d="M23 283l157 129q-35 64 -49 109.5t-14 111.5q0 193 164 354l-76 100l65 54l80 -99q122 88 273 88q167 0 292 -116l160 131l51 -62l-159 -131q63 -104 63 -221q0 -187 -164 -354l78 -98l-70 -56l-75 101q-126 -91 -271 -91q-170 0 -297 121l-161 -135zM217 645 q0 -139 89 -226t229 -87q157 0 276 115.5t119 271.5q0 139 -89 226t-229 87q-157 0 -276 -115.5t-119 -271.5z" />
<glyph unicode="&#xa5;" horiz-adv-x="1073" d="M-10 244l28 131h381l43 194h-381l31 133h309l-206 664h239l156 -584l416 584h262l-498 -664h299l-31 -133h-368l-43 -194h368l-28 -131h-371l-53 -244h-226l54 244h-381z" />
<glyph unicode="&#xa6;" horiz-adv-x="401" d="M172 -41v647h141v-647h-141zM172 760v647h141v-647h-141z" />
<glyph unicode="&#xa7;" horiz-adv-x="831" d="M-70 -14l117 125q40 -59 111 -93t155 -34q75 0 123.5 45.5t48.5 111.5q0 35 -22 63.5t-56.5 49.5t-76.5 42t-84.5 46t-77 54.5t-56.5 75t-22 101.5q0 102 67 179t187 104q-66 38 -103.5 95t-37.5 126q0 131 99 220t249 89q238 0 358 -139l-112 -112q-38 53 -101 79.5 t-135 26.5q-70 0 -115 -41t-45 -100q0 -34 22 -62t57 -49.5t77.5 -42t85 -45.5t77.5 -54.5t57 -74t22 -98.5q0 -101 -59 -180.5t-169 -118.5q115 -73 115 -205q0 -140 -103 -238t-264 -98q-127 0 -228.5 39t-160.5 113zM287 610q0 -52 39.5 -91t115.5 -73q80 25 119 74 t39 109q0 93 -119 153q-99 -14 -146.5 -61.5t-47.5 -110.5z" />
<glyph unicode="&#xa8;" horiz-adv-x="569" d="M145 1231q0 51 40 89t91 38q43 0 73 -29.5t30 -73.5q0 -51 -39 -89t-92 -38q-43 0 -73 30t-30 73zM520 1231q0 51 39 89t90 38q43 0 73 -29.5t30 -73.5q0 -51 -39 -89t-90 -38q-44 0 -73.5 30t-29.5 73z" />
<glyph unicode="&#xa9;" horiz-adv-x="1593" d="M131 684q0 192 94.5 355t257 257.5t353.5 94.5q192 0 355 -94.5t258 -257.5t95 -355q0 -143 -56 -274t-151 -226t-226 -151t-275 -56q-191 0 -353.5 95t-257 258t-94.5 354zM199 684q0 -129 50.5 -247t136 -204t203.5 -137t247 -51t247.5 51t204.5 137t137.5 204 t51.5 247t-51.5 247t-137.5 204t-204.5 137t-247.5 51t-247 -51t-203.5 -137t-136 -204t-50.5 -247zM410 629q0 102 40.5 194.5t106.5 157t153.5 102t178.5 37.5q221 0 323 -166l-69 -49q-37 69 -103 105.5t-153 36.5q-72 0 -142.5 -31.5t-126 -85.5t-90 -132.5 t-34.5 -166.5q0 -129 85 -218t224 -89q64 0 126 27.5t107 70.5l45 -64q-131 -108 -280 -108q-179 0 -285 107.5t-106 271.5z" />
<glyph unicode="&#xaa;" horiz-adv-x="735" d="M156 899q0 103 38.5 200.5t111.5 162.5t161 65q126 0 180 -100l19 84h151l-143 -643h-152l19 84q-76 -101 -179 -101q-90 0 -148 63t-58 185zM313 913q0 -68 31 -104.5t86 -36.5q73 0 135 88l60 268q-13 35 -47.5 56.5t-75.5 21.5q-53 0 -97.5 -46.5t-68 -113 t-23.5 -133.5z" />
<glyph unicode="&#xab;" horiz-adv-x="866" d="M59 498l338 362h185l-346 -371l170 -360h-173zM371 498l338 362h182l-344 -371l168 -360h-170z" />
<glyph unicode="&#xac;" horiz-adv-x="911" d="M127 813l31 133h784l-115 -524h-137l86 391h-649z" />
<glyph unicode="&#xad;" horiz-adv-x="552" d="M41 408l37 176h430l-37 -176h-430z" />
<glyph unicode="&#xae;" horiz-adv-x="1011" d="M172 952q0 181 127 307.5t307 126.5q119 0 219 -57.5t157.5 -157.5t57.5 -219q0 -180 -127.5 -307t-308.5 -127q-180 0 -306 127t-126 307zM233 952q0 -154 108 -263t263 -109t265 109t110 263q0 156 -109.5 264.5t-265.5 108.5q-155 0 -263 -108t-108 -265zM385 702 l109 498h188q63 0 104 -36t41 -95q0 -71 -50.5 -119.5t-112.5 -48.5l90 -199h-80l-86 197h-92l-43 -197h-68zM508 961h137q46 0 78.5 29.5t32.5 72.5q0 36 -23.5 57t-62.5 21h-121z" />
<glyph unicode="&#xaf;" horiz-adv-x="632" d="M158 1210l26 121h631l-27 -121h-630z" />
<glyph unicode="&#xb0;" horiz-adv-x="614" d="M182 1122q0 109 76.5 186.5t185.5 77.5q108 0 185.5 -78t77.5 -186q0 -107 -77.5 -183.5t-185.5 -76.5q-109 0 -185.5 76.5t-76.5 183.5zM301 1122q0 -59 40.5 -100t100.5 -41q59 0 103.5 41.5t44.5 99.5q0 60 -43.5 103t-102.5 43q-60 0 -101.5 -43t-41.5 -103z" />
<glyph unicode="&#xb1;" horiz-adv-x="903" d="M-45 33l29 133h786l-29 -133h-786zM90 645l31 131h319l78 352h146l-78 -352h319l-28 -131h-322l-80 -366h-145l82 366h-322z" />
<glyph unicode="&#xb2;" horiz-adv-x="692" d="M160 862l26 125q298 215 396 306t98 171q0 49 -36 76t-91 27q-111 0 -193 -92l-73 102q54 56 126 86.5t150 30.5q117 0 197 -56.5t80 -158.5q0 -39 -12 -76.5t-42 -77.5t-61.5 -73.5t-90 -81.5t-105.5 -84t-130 -97h338l-26 -127h-551z" />
<glyph unicode="&#xb3;" horiz-adv-x="692" d="M174 995l109 90q29 -53 78 -81.5t108 -28.5q66 0 103.5 44t37.5 103q0 45 -39.5 71t-103.5 26q-49 0 -61 -2l26 126q18 -2 98 -2q68 0 108 34.5t40 92.5q0 45 -38.5 72t-96.5 27q-100 0 -185 -82l-67 94q52 53 121.5 84t142.5 31q126 0 204.5 -53.5t78.5 -149.5 q0 -80 -57.5 -144.5t-151.5 -74.5q62 -15 99.5 -60.5t37.5 -109.5q0 -98 -80 -176t-211 -78q-103 0 -183.5 39t-117.5 108z" />
<glyph unicode="&#xb4;" horiz-adv-x="415" d="M137 1139l291 295h195l-342 -295h-144z" />
<glyph unicode="&#xb6;" horiz-adv-x="919" d="M162 981q0 97 50.5 185t143 144t203.5 56h428l-348 -1571h-109l326 1462h-172l-326 -1462h-108l192 867q-116 0 -198 91t-82 228z" />
<glyph unicode="&#xb7;" horiz-adv-x="495" d="M111 489q0 62 44 106t105 44q52 0 88.5 -37t36.5 -90q0 -61 -44 -104t-105 -43q-53 0 -89 36t-36 88z" />
<glyph unicode="&#xb8;" horiz-adv-x="399" d="M-182 -315l61 84q61 -70 148 -70q46 0 74 25t28 61q0 24 -15 38.5t-42 14.5q-32 0 -60 -31l-69 46l100 170h109l-82 -132q27 21 57 21q50 0 81.5 -33t31.5 -88q0 -81 -61 -133.5t-154 -52.5q-134 0 -207 80z" />
<glyph unicode="&#xb9;" horiz-adv-x="505" d="M229 1442l291 239h137l-180 -819h-158l134 608l-150 -124z" />
<glyph unicode="&#xba;" horiz-adv-x="724" d="M162 920q0 99 42.5 191.5t123.5 154t180 61.5q127 0 198.5 -73.5t71.5 -194.5q0 -99 -42.5 -192t-123.5 -154.5t-180 -61.5q-127 0 -198.5 74t-71.5 195zM315 913q0 -66 32 -102.5t89 -36.5q58 0 103.5 52t65.5 116t20 121q0 66 -32.5 102.5t-90.5 36.5q-57 0 -102 -51.5 t-65 -115.5t-20 -122z" />
<glyph unicode="&#xbb;" horiz-adv-x="866" d="M-23 129l347 373l-170 358h172l174 -368l-338 -363h-185zM289 129l344 373l-168 358h170l174 -368l-338 -363h-182z" />
<glyph unicode="&#xbc;" horiz-adv-x="1458" d="M160 1126l291 240h137l-180 -819h-158l133 608l-150 -125zM168 0l1020 1366h117l-1022 -1366h-115zM748 193l24 116l416 510h205l-113 -502h92l-26 -124h-93l-41 -193h-157l43 193h-350zM922 317h202l76 340z" />
<glyph unicode="&#xbd;" horiz-adv-x="1529" d="M160 1126l291 240h137l-180 -819h-158l133 608l-150 -125zM168 0l1020 1366h117l-1022 -1366h-115zM807 0l27 125q125 90 193.5 141.5t135.5 106.5t97.5 90t48.5 70t18 69q0 49 -36 76t-91 27q-109 0 -192 -93l-74 103q113 116 276 116q117 0 197 -56.5t80 -158.5 q0 -39 -12 -76.5t-42 -77.5t-61 -73.5t-89.5 -81.5t-105.5 -83.5t-130 -96.5h337l-26 -127h-551z" />
<glyph unicode="&#xbe;" horiz-adv-x="1597" d="M104 680l109 90q29 -53 78 -82t108 -29q66 0 104 44.5t38 103.5q0 45 -40 70.5t-104 25.5q-49 0 -61 -2l26 127q18 -2 99 -2q68 0 107.5 34.5t39.5 92.5q0 45 -38.5 71.5t-96.5 26.5q-99 0 -184 -82l-68 95q52 53 121.5 83.5t142.5 30.5q127 0 205 -53t78 -149 q0 -80 -57.5 -145t-151.5 -75q62 -15 99.5 -60.5t37.5 -109.5q0 -98 -80 -176t-210 -78q-103 0 -184 39.5t-118 108.5zM305 0l1020 1366h117l-1022 -1366h-115zM885 193l24 116l416 510h205l-113 -502h92l-26 -124h-92l-41 -193h-158l43 193h-350zM1059 317h203l75 340z" />
<glyph unicode="&#xbf;" horiz-adv-x="694" d="M-90 -125q0 67 23.5 125t61 99t82.5 77.5t90 67.5t82.5 62t61 69t23.5 80q0 39 -21 73l185 62q30 -56 30 -133q0 -59 -21 -110t-54 -87t-73.5 -68.5t-81 -61t-73.5 -57.5t-54 -66t-21 -79q0 -58 41.5 -94.5t117.5 -36.5q115 0 203 82l80 -151q-144 -127 -332 -127 q-151 0 -250.5 77t-99.5 197zM346 862q0 61 45 104.5t107 43.5q52 0 87.5 -36t35.5 -89q0 -61 -44.5 -105.5t-105.5 -44.5q-52 0 -88.5 37t-36.5 90z" />
<glyph unicode="&#xc0;" d="M-104 0l710 1366h271l108 -1366h-235l-17 270h-450l-136 -270h-251zM373 471h360l-37 653zM559 1786h189l161 -295h-139z" />
<glyph unicode="&#xc1;" d="M-104 0l710 1366h271l108 -1366h-235l-17 270h-450l-136 -270h-251zM373 471h360l-37 653zM631 1491l291 295h194l-342 -295h-143z" />
<glyph unicode="&#xc2;" d="M-104 0l710 1366h271l108 -1366h-235l-17 270h-450l-136 -270h-251zM373 471h360l-37 653zM516 1491l225 295h189l100 -295h-119l-94 199l-174 -199h-127z" />
<glyph unicode="&#xc3;" d="M-104 0l710 1366h271l108 -1366h-235l-17 270h-450l-136 -270h-251zM373 471h360l-37 653zM477 1499q59 275 225 275q38 0 64 -17t39.5 -41.5t25 -49t28.5 -41.5t42 -17q64 0 100 153h113q-59 -274 -227 -274q-45 0 -74.5 26t-41 57t-31.5 57t-50 26q-67 0 -100 -154 h-113z" />
<glyph unicode="&#xc4;" d="M-104 0l710 1366h271l108 -1366h-235l-17 270h-450l-136 -270h-251zM373 471h360l-37 653zM489 1581q0 51 40.5 89t91.5 38q43 0 72.5 -29t29.5 -73q0 -51 -39 -89t-92 -38q-43 0 -73 29.5t-30 72.5zM864 1581q0 51 39 89t90 38q43 0 73 -29t30 -73q0 -51 -39 -89 t-90 -38q-44 0 -73.5 29.5t-29.5 72.5z" />
<glyph unicode="&#xc5;" d="M-104 0l710 1366h271l108 -1366h-235l-17 270h-450l-136 -270h-251zM373 471h360l-37 653zM602 1591q0 86 63.5 149.5t149.5 63.5q77 0 125.5 -49t48.5 -125q0 -86 -64.5 -150.5t-150.5 -64.5q-76 0 -124 49.5t-48 126.5zM698 1602q0 -39 24 -64t62 -25q43 0 76 32t33 75 q0 38 -24 63t-62 25q-43 0 -76 -32t-33 -74z" />
<glyph unicode="&#xc6;" horiz-adv-x="1585" d="M-102 0l950 1366h842l-43 -199h-523l-82 -370h508l-45 -199h-508l-88 -399h525l-45 -199h-748l57 270h-368l-180 -270h-252zM457 471h286l140 635z" />
<glyph unicode="&#xc7;" horiz-adv-x="1124" d="M88 487q0 132 30 262.5t89.5 245.5t139.5 203t187 139.5t226 51.5q94 0 171.5 -29t131 -80t89 -113.5t54.5 -136.5l-213 -61q-30 105 -93.5 162t-154.5 57q-87 0 -167 -63.5t-135 -163.5t-88 -224.5t-33 -244.5q0 -148 71.5 -232t196.5 -84q145 0 262 164l176 -100 q-88 -131 -204 -198t-246 -67h-21l-51 -84q27 21 57 21q50 0 81.5 -33t31.5 -88q0 -81 -61 -133.5t-154 -52.5q-134 0 -207 80l61 84q61 -70 148 -70q46 0 74 25t28 61q0 24 -15 38.5t-42 14.5q-31 0 -59 -31l-70 46l80 135q-171 34 -271 166t-100 333z" />
<glyph unicode="&#xc8;" horiz-adv-x="968" d="M20 0l302 1366h749l-45 -199h-522l-82 -370h510l-45 -199h-508l-88 -399h522l-43 -199h-750zM514 1786h188l162 -295h-139z" />
<glyph unicode="&#xc9;" horiz-adv-x="968" d="M20 0l302 1366h749l-45 -199h-522l-82 -370h510l-45 -199h-508l-88 -399h522l-43 -199h-750zM588 1491l291 295h194l-342 -295h-143z" />
<glyph unicode="&#xca;" horiz-adv-x="968" d="M20 0l302 1366h749l-45 -199h-522l-82 -370h510l-45 -199h-508l-88 -399h522l-43 -199h-750zM469 1491l225 295h189l100 -295h-119l-94 199l-174 -199h-127z" />
<glyph unicode="&#xcb;" horiz-adv-x="968" d="M20 0l302 1366h749l-45 -199h-522l-82 -370h510l-45 -199h-508l-88 -399h522l-43 -199h-750zM446 1581q0 51 40.5 89t91.5 38q43 0 72.5 -29t29.5 -73q0 -51 -39 -89t-92 -38q-43 0 -73 29.5t-30 72.5zM821 1581q0 51 39 89t90 38q43 0 73 -29t30 -73q0 -51 -39 -89 t-90 -38q-44 0 -73.5 29.5t-29.5 72.5z" />
<glyph unicode="&#xcc;" horiz-adv-x="487" d="M20 0l302 1366h225l-301 -1366h-226zM250 1786h188l162 -295h-139z" />
<glyph unicode="&#xcd;" horiz-adv-x="487" d="M20 0l302 1366h225l-301 -1366h-226zM326 1491l290 295h195l-342 -295h-143z" />
<glyph unicode="&#xce;" horiz-adv-x="487" d="M20 0l302 1366h225l-301 -1366h-226zM207 1491l225 295h189l100 -295h-119l-94 199l-174 -199h-127z" />
<glyph unicode="&#xcf;" horiz-adv-x="487" d="M20 0l302 1366h225l-301 -1366h-226zM184 1581q0 51 40 89t91 38q43 0 73 -29t30 -73q0 -51 -39 -89t-92 -38q-43 0 -73 29.5t-30 72.5zM559 1581q0 51 39 89t90 38q43 0 73 -29t30 -73q0 -51 -39 -89t-90 -38q-44 0 -73.5 29.5t-29.5 72.5z" />
<glyph unicode="&#xd0;" horiz-adv-x="1245" d="M47 592l41 184h152l131 590h399q89 0 170.5 -35t144.5 -98.5t100.5 -161.5t37.5 -215q0 -111 -23.5 -224t-80.5 -228t-140 -203.5t-213 -144.5t-289 -56h-407l129 592h-152zM340 199h176q90 0 169 41t133.5 108t94 152.5t58 174t18.5 173.5q0 146 -73.5 232.5 t-188.5 86.5h-174l-86 -391h240l-41 -184h-240z" />
<glyph unicode="&#xd1;" horiz-adv-x="1216" d="M20 0l302 1366h229l297 -903l201 903h227l-301 -1366h-217l-305 930l-207 -930h-226zM537 1499q59 275 225 275q38 0 64 -17t39.5 -41.5t25 -49t28.5 -41.5t42 -17q64 0 100 153h113q-59 -274 -228 -274q-37 0 -63 17t-39 41.5t-24.5 49t-28 41.5t-41.5 17 q-68 0 -101 -154h-112z" />
<glyph unicode="&#xd2;" horiz-adv-x="1259" d="M88 487q0 127 29 255.5t87 244.5t137.5 206t188 143t230.5 53q221 0 355 -141.5t134 -370.5q0 -127 -29 -255.5t-87 -244.5t-137 -206t-187.5 -143t-230.5 -53q-222 0 -356 141t-134 371zM322 492q0 -146 73.5 -231t194.5 -85q117 0 217 106.5t154.5 265.5t54.5 322 q0 146 -75 232t-196 86q-89 0 -169.5 -63t-135 -163.5t-86.5 -224.5t-32 -245zM639 1786h188l162 -295h-139z" />
<glyph unicode="&#xd3;" horiz-adv-x="1259" d="M88 487q0 127 29 255.5t87 244.5t137.5 206t188 143t230.5 53q221 0 355 -141.5t134 -370.5q0 -127 -29 -255.5t-87 -244.5t-137 -206t-187.5 -143t-230.5 -53q-222 0 -356 141t-134 371zM322 492q0 -146 73.5 -231t194.5 -85q117 0 217 106.5t154.5 265.5t54.5 322 q0 146 -75 232t-196 86q-89 0 -169.5 -63t-135 -163.5t-86.5 -224.5t-32 -245zM711 1491l290 295h195l-342 -295h-143z" />
<glyph unicode="&#xd4;" horiz-adv-x="1259" d="M88 487q0 127 29 255.5t87 244.5t137.5 206t188 143t230.5 53q221 0 355 -141.5t134 -370.5q0 -127 -29 -255.5t-87 -244.5t-137 -206t-187.5 -143t-230.5 -53q-222 0 -356 141t-134 371zM322 492q0 -146 73.5 -231t194.5 -85q117 0 217 106.5t154.5 265.5t54.5 322 q0 146 -75 232t-196 86q-89 0 -169.5 -63t-135 -163.5t-86.5 -224.5t-32 -245zM594 1491l225 295h189l100 -295h-119l-94 199l-174 -199h-127z" />
<glyph unicode="&#xd5;" horiz-adv-x="1259" d="M88 487q0 127 29 255.5t87 244.5t137.5 206t188 143t230.5 53q221 0 355 -141.5t134 -370.5q0 -127 -29 -255.5t-87 -244.5t-137 -206t-187.5 -143t-230.5 -53q-222 0 -356 141t-134 371zM322 492q0 -146 73.5 -231t194.5 -85q117 0 217 106.5t154.5 265.5t54.5 322 q0 146 -75 232t-196 86q-89 0 -169.5 -63t-135 -163.5t-86.5 -224.5t-32 -245zM561 1499q59 275 225 275q38 0 64 -17t39.5 -41.5t25 -49t28.5 -41.5t42 -17q64 0 100 153h113q-59 -274 -227 -274q-45 0 -74.5 26t-41 57t-31.5 57t-50 26q-67 0 -100 -154h-113z" />
<glyph unicode="&#xd6;" horiz-adv-x="1259" d="M88 487q0 127 29 255.5t87 244.5t137.5 206t188 143t230.5 53q221 0 355 -141.5t134 -370.5q0 -127 -29 -255.5t-87 -244.5t-137 -206t-187.5 -143t-230.5 -53q-222 0 -356 141t-134 371zM322 492q0 -146 73.5 -231t194.5 -85q117 0 217 106.5t154.5 265.5t54.5 322 q0 146 -75 232t-196 86q-89 0 -169.5 -63t-135 -163.5t-86.5 -224.5t-32 -245zM567 1581q0 51 40 89t91 38q43 0 73 -29t30 -73q0 -51 -39 -89t-92 -38q-43 0 -73 29.5t-30 72.5zM942 1581q0 51 39 89t90 38q43 0 73 -29t30 -73q0 -51 -39.5 -89t-90.5 -38q-44 0 -73 29.5 t-29 72.5z" />
<glyph unicode="&#xd7;" horiz-adv-x="903" d="M84 434l317 258l-196 250l106 86l193 -250l315 258l82 -102l-315 -258l192 -250l-104 -86l-195 250l-313 -258z" />
<glyph unicode="&#xd8;" horiz-adv-x="1259" d="M35 0l141 174q-88 130 -88 313q0 127 29 255.5t87 244.5t137.5 206t188 143t230.5 53q183 0 313 -105l66 82h153l-137 -170q94 -129 94 -319q0 -127 -29 -255.5t-87 -244.5t-137 -206t-187.5 -143t-230.5 -53q-194 0 -322 109l-68 -84h-153zM322 492q0 -70 14 -119 l596 737q-75 78 -187 78q-89 0 -169.5 -63t-135 -163.5t-86.5 -224.5t-32 -245zM397 258q73 -82 193 -82q117 0 217 106.5t154.5 265.5t54.5 322q0 67 -19 129z" />
<glyph unicode="&#xd9;" horiz-adv-x="1214" d="M113 371q0 52 10 94l199 901h227l-201 -909q-8 -56 -8 -70q2 -95 62.5 -154t164.5 -59q115 0 181 70.5t98 212.5l201 909h227l-201 -905q-53 -239 -178 -362.5t-336 -123.5q-205 0 -325.5 107t-120.5 289zM616 1786h189l162 -295h-140z" />
<glyph unicode="&#xda;" horiz-adv-x="1214" d="M113 371q0 52 10 94l199 901h227l-201 -909q-8 -56 -8 -70q2 -95 62.5 -154t164.5 -59q115 0 181 70.5t98 212.5l201 909h227l-201 -905q-53 -239 -178 -362.5t-336 -123.5q-205 0 -325.5 107t-120.5 289zM688 1491l291 295h195l-343 -295h-143z" />
<glyph unicode="&#xdb;" horiz-adv-x="1214" d="M113 371q0 52 10 94l199 901h227l-201 -909q-8 -56 -8 -70q2 -95 62.5 -154t164.5 -59q115 0 181 70.5t98 212.5l201 909h227l-201 -905q-53 -239 -178 -362.5t-336 -123.5q-205 0 -325.5 107t-120.5 289zM575 1491l226 295h188l101 -295h-119l-94 199l-175 -199h-127z " />
<glyph unicode="&#xdc;" horiz-adv-x="1214" d="M113 371q0 52 10 94l199 901h227l-201 -909q-8 -56 -8 -70q2 -95 62.5 -154t164.5 -59q115 0 181 70.5t98 212.5l201 909h227l-201 -905q-53 -239 -178 -362.5t-336 -123.5q-205 0 -325.5 107t-120.5 289zM547 1581q0 51 40 89t91 38q43 0 72.5 -29t29.5 -73 q0 -51 -39 -89t-92 -38q-43 0 -72.5 29.5t-29.5 72.5zM922 1581q0 51 39 89t90 38q43 0 72.5 -29t29.5 -73q0 -51 -39 -89t-90 -38q-44 0 -73 29.5t-29 72.5z" />
<glyph unicode="&#xdd;" horiz-adv-x="1073" d="M190 1366h240l156 -584l415 584h263l-598 -797l-127 -569h-226l125 569zM623 1491l290 295h195l-342 -295h-143z" />
<glyph unicode="&#xde;" horiz-adv-x="1054" d="M20 0l302 1366h225l-49 -233h215q147 0 243.5 -100.5t96.5 -250.5q0 -70 -17.5 -138.5t-57.5 -133.5t-97.5 -115t-144 -80t-191.5 -30h-236l-63 -285h-226zM354 483h207q118 0 186 83t68 196q0 76 -45.5 124t-116.5 48h-200z" />
<glyph unicode="&#xdf;" horiz-adv-x="1140" d="M18 0l224 1010q37 169 146.5 272.5t279.5 103.5q96 0 178.5 -32.5t134 -95t51.5 -140.5q0 -53 -18.5 -96.5t-48 -73t-65 -54t-71 -45t-65 -41t-48 -46.5t-18.5 -57q0 -33 27.5 -60.5t68.5 -46.5t89.5 -46t89.5 -56t68.5 -78t27.5 -111q0 -131 -101 -231.5t-263 -100.5 q-121 0 -208.5 39t-154.5 123l113 129q96 -127 241 -127q69 0 115.5 42t46.5 100q0 34 -27 62.5t-67 48t-87 45.5t-87 54t-67 74.5t-27 104.5q0 75 33.5 131.5t81 89.5t94.5 61t80.5 62t33.5 76q0 53 -46.5 84.5t-117.5 31.5q-79 0 -134.5 -49.5t-76.5 -146.5l-223 -1010 h-203z" />
<glyph unicode="&#xe0;" horiz-adv-x="1013" d="M51 334q0 86 18.5 179t57 182.5t91.5 160.5t128.5 114.5t161.5 43.5q89 0 157.5 -41.5t104.5 -120.5l29 137h202l-219 -989h-202l28 127q-109 -152 -260 -152q-138 0 -217.5 94.5t-79.5 264.5zM264 367q0 -100 47 -155.5t129 -55.5q59 0 114 39t91 98l90 405 q-21 59 -72 97.5t-118 38.5q-51 0 -96.5 -31t-78.5 -81t-57.5 -112t-36.5 -125t-12 -118zM395 1434h189l161 -295h-139z" />
<glyph unicode="&#xe1;" horiz-adv-x="1013" d="M51 334q0 86 18.5 179t57 182.5t91.5 160.5t128.5 114.5t161.5 43.5q89 0 157.5 -41.5t104.5 -120.5l29 137h202l-219 -989h-202l28 127q-109 -152 -260 -152q-138 0 -217.5 94.5t-79.5 264.5zM264 367q0 -100 47 -155.5t129 -55.5q59 0 114 39t91 98l90 405 q-21 59 -72 97.5t-118 38.5q-51 0 -96.5 -31t-78.5 -81t-57.5 -112t-36.5 -125t-12 -118zM471 1139l291 295h194l-342 -295h-143z" />
<glyph unicode="&#xe2;" horiz-adv-x="1013" d="M51 334q0 86 18.5 179t57 182.5t91.5 160.5t128.5 114.5t161.5 43.5q89 0 157.5 -41.5t104.5 -120.5l29 137h202l-219 -989h-202l28 127q-109 -152 -260 -152q-138 0 -217.5 94.5t-79.5 264.5zM264 367q0 -100 47 -155.5t129 -55.5q59 0 114 39t91 98l90 405 q-21 59 -72 97.5t-118 38.5q-51 0 -96.5 -31t-78.5 -81t-57.5 -112t-36.5 -125t-12 -118zM354 1139l226 295h188l100 -295h-118l-95 198l-174 -198h-127z" />
<glyph unicode="&#xe3;" horiz-adv-x="1013" d="M51 334q0 86 18.5 179t57 182.5t91.5 160.5t128.5 114.5t161.5 43.5q89 0 157.5 -41.5t104.5 -120.5l29 137h202l-219 -989h-202l28 127q-109 -152 -260 -152q-138 0 -217.5 94.5t-79.5 264.5zM264 367q0 -100 47 -155.5t129 -55.5q59 0 114 39t91 98l90 405 q-21 59 -72 97.5t-118 38.5q-51 0 -96.5 -31t-78.5 -81t-57.5 -112t-36.5 -125t-12 -118zM319 1147q59 274 226 274q38 0 64 -17t39.5 -41.5t25 -49t28 -41.5t41.5 -17q65 0 101 154h112q-59 -274 -227 -274q-45 0 -74.5 26t-41 56.5t-31.5 56.5t-50 26q-67 0 -100 -153 h-113z" />
<glyph unicode="&#xe4;" horiz-adv-x="1013" d="M51 334q0 86 18.5 179t57 182.5t91.5 160.5t128.5 114.5t161.5 43.5q89 0 157.5 -41.5t104.5 -120.5l29 137h202l-219 -989h-202l28 127q-109 -152 -260 -152q-138 0 -217.5 94.5t-79.5 264.5zM264 367q0 -100 47 -155.5t129 -55.5q59 0 114 39t91 98l90 405 q-21 59 -72 97.5t-118 38.5q-51 0 -96.5 -31t-78.5 -81t-57.5 -112t-36.5 -125t-12 -118zM330 1231q0 51 40 89t91 38q43 0 72.5 -29.5t29.5 -73.5q0 -51 -39 -89t-92 -38q-43 0 -72.5 30t-29.5 73zM705 1231q0 51 39 89t90 38q43 0 72.5 -29.5t29.5 -73.5q0 -51 -39 -89 t-90 -38q-44 0 -73 30t-29 73z" />
<glyph unicode="&#xe5;" horiz-adv-x="1013" d="M51 334q0 86 18.5 179t57 182.5t91.5 160.5t128.5 114.5t161.5 43.5q89 0 157.5 -41.5t104.5 -120.5l29 137h202l-219 -989h-202l28 127q-109 -152 -260 -152q-138 0 -217.5 94.5t-79.5 264.5zM264 367q0 -100 47 -155.5t129 -55.5q59 0 114 39t91 98l90 405 q-21 59 -72 97.5t-118 38.5q-51 0 -96.5 -31t-78.5 -81t-57.5 -112t-36.5 -125t-12 -118zM451 1288q0 86 63.5 149.5t149.5 63.5q76 0 125 -48.5t49 -125.5q0 -86 -64.5 -150.5t-150.5 -64.5q-76 0 -124 49.5t-48 126.5zM547 1298q0 -38 24 -63t62 -25q43 0 75.5 32t32.5 75 q0 38 -24 63t-62 25q-43 0 -75.5 -32t-32.5 -75z" />
<glyph unicode="&#xe6;" horiz-adv-x="1595" d="M51 334q0 109 31 226t86.5 219.5t145.5 168.5t196 66q87 0 155.5 -41.5t104.5 -120.5l31 137h203l-31 -133q124 158 274 158q143 0 219 -93.5t76 -275.5q0 -103 -29 -217h-628q-6 -35 -6 -70q0 -87 61.5 -150t175.5 -63q119 0 217 91l70 -144q-61 -55 -136 -86t-147 -31 q-233 0 -297 203l-39 -178h-204l28 127q-109 -152 -260 -152q-138 0 -217.5 94.5t-79.5 264.5zM264 367q0 -100 47.5 -155.5t128.5 -55.5q59 0 114 39t93 98l88 405q-21 59 -72 97.5t-118 38.5q-51 0 -96.5 -31t-78.5 -81t-57.5 -112t-36.5 -125t-12 -118zM909 573h441 q8 31 8 74q0 88 -47 144.5t-137 56.5q-67 0 -125 -43t-92.5 -104t-47.5 -128z" />
<glyph unicode="&#xe7;" horiz-adv-x="854" d="M55 379q0 92 23.5 184t69 172.5t106.5 143t142.5 99t170.5 36.5q107 0 187.5 -39.5t124.5 -106.5l-127 -133q-27 48 -74 73.5t-103 25.5q-92 0 -165.5 -70.5t-109.5 -170.5t-36 -202q0 -114 59.5 -174.5t155.5 -60.5q102 0 176 84l76 -148q-117 -117 -285 -117h-12 l-51 -84q27 21 57 21q50 0 81.5 -33t31.5 -88q0 -81 -61 -133.5t-154 -52.5q-134 0 -207 80l62 84q61 -70 147 -70q46 0 74 25t28 61q0 24 -15 38.5t-42 14.5q-31 0 -59 -31l-70 46l80 135q-131 30 -206 132t-75 259z" />
<glyph unicode="&#xe8;" horiz-adv-x="974" d="M55 377q0 84 22 172.5t66 171.5t103.5 148.5t141.5 105t173 39.5q167 0 264 -102.5t97 -280.5q0 -89 -29 -203h-635q-6 -34 -6 -70q0 -88 60.5 -152.5t176.5 -64.5q58 0 118 24.5t104 65.5l69 -135q-63 -57 -146.5 -89t-168.5 -32q-191 0 -300.5 107t-109.5 295zM285 573 h440h4q8 31 8 72q0 89 -50 146t-142 57q-67 0 -124 -43t-90.5 -104t-45.5 -128zM428 1434h188l162 -295h-139z" />
<glyph unicode="&#xe9;" horiz-adv-x="974" d="M55 377q0 84 22 172.5t66 171.5t103.5 148.5t141.5 105t173 39.5q167 0 264 -102.5t97 -280.5q0 -89 -29 -203h-635q-6 -34 -6 -70q0 -88 60.5 -152.5t176.5 -64.5q58 0 118 24.5t104 65.5l69 -135q-63 -57 -146.5 -89t-168.5 -32q-191 0 -300.5 107t-109.5 295zM285 573 h440h4q8 31 8 72q0 89 -50 146t-142 57q-67 0 -124 -43t-90.5 -104t-45.5 -128zM504 1139l291 295h194l-342 -295h-143z" />
<glyph unicode="&#xea;" horiz-adv-x="974" d="M55 377q0 84 22 172.5t66 171.5t103.5 148.5t141.5 105t173 39.5q167 0 264 -102.5t97 -280.5q0 -89 -29 -203h-635q-6 -34 -6 -70q0 -88 60.5 -152.5t176.5 -64.5q58 0 118 24.5t104 65.5l69 -135q-63 -57 -146.5 -89t-168.5 -32q-191 0 -300.5 107t-109.5 295zM285 573 h440h4q8 31 8 72q0 89 -50 146t-142 57q-67 0 -124 -43t-90.5 -104t-45.5 -128zM383 1139l225 295h189l100 -295h-119l-94 198l-174 -198h-127z" />
<glyph unicode="&#xeb;" horiz-adv-x="974" d="M55 377q0 84 22 172.5t66 171.5t103.5 148.5t141.5 105t173 39.5q167 0 264 -102.5t97 -280.5q0 -89 -29 -203h-635q-6 -34 -6 -70q0 -88 60.5 -152.5t176.5 -64.5q58 0 118 24.5t104 65.5l69 -135q-63 -57 -146.5 -89t-168.5 -32q-191 0 -300.5 107t-109.5 295zM285 573 h440h4q8 31 8 72q0 89 -50 146t-142 57q-67 0 -124 -43t-90.5 -104t-45.5 -128zM356 1231q0 51 40 89t91 38q43 0 73 -29.5t30 -73.5q0 -51 -39 -89t-92 -38q-43 0 -73 30t-30 73zM731 1231q0 51 39 89t90 38q43 0 73 -29.5t30 -73.5q0 -51 -39 -89t-90 -38q-44 0 -73.5 30 t-29.5 73z" />
<glyph unicode="&#xec;" horiz-adv-x="444" d="M10 0l219 989h203l-219 -989h-203zM150 1434h188l162 -295h-140z" />
<glyph unicode="&#xed;" horiz-adv-x="444" d="M10 0l219 989h203l-219 -989h-203zM225 1139l291 295h195l-342 -295h-144z" />
<glyph unicode="&#xee;" horiz-adv-x="444" d="M10 0l219 989h203l-219 -989h-203zM109 1139l225 295h188l101 -295h-119l-94 198l-174 -198h-127z" />
<glyph unicode="&#xef;" horiz-adv-x="444" d="M10 0l219 989h203l-219 -989h-203zM84 1231q0 51 40 89t91 38q43 0 72.5 -29.5t29.5 -73.5q0 -51 -39 -89t-92 -38q-43 0 -72.5 30t-29.5 73zM459 1231q0 51 39 89t90 38q43 0 72.5 -29.5t29.5 -73.5q0 -51 -39 -89t-90 -38q-44 0 -73 30t-29 73z" />
<glyph unicode="&#xf0;" horiz-adv-x="1003" d="M51 360q0 144 56.5 281.5t163 229.5t233.5 92q92 0 161 -49t99 -140q-23 154 -121 338l-281 -84l-22 102l250 74q-46 70 -96 129l172 107q68 -82 131 -174l184 55l23 -100l-152 -45q113 -207 113 -428q0 -108 -20.5 -216.5t-63.5 -208.5t-103 -177.5t-146 -124 t-186 -46.5q-185 0 -290 104.5t-105 280.5zM262 369q0 -104 49 -158.5t140 -54.5q59 0 112 41t88 103.5t55.5 136.5t20.5 141q0 82 -48.5 144t-143.5 62q-77 0 -142 -69t-98 -163.5t-33 -182.5z" />
<glyph unicode="&#xf1;" horiz-adv-x="995" d="M14 0l219 989h203l-28 -131q136 156 292 156q109 0 174.5 -55t65.5 -150q0 -32 -10 -72l-162 -737h-205l150 674q8 28 8 53q0 53 -34.5 80t-92.5 27q-110 0 -223 -140l-154 -694h-203zM354 1147q59 274 226 274q38 0 64 -17t39.5 -41.5t25 -49t28 -41.5t41.5 -17 q65 0 101 154h112q-59 -274 -227 -274q-45 0 -74.5 26t-41 56.5t-31.5 56.5t-50 26q-67 0 -100 -153h-113z" />
<glyph unicode="&#xf2;" horiz-adv-x="1003" d="M53 373q0 89 22.5 180.5t67 173.5t104.5 146.5t141 102.5t171 38q183 0 284 -106.5t101 -291.5q0 -89 -22.5 -180.5t-66.5 -173.5t-103.5 -146.5t-140.5 -102.5t-171 -38q-183 0 -285 106.5t-102 291.5zM264 375q0 -107 48.5 -163t136.5 -56q63 0 118.5 46t91 116 t56 148.5t20.5 147.5q0 107 -48.5 163.5t-135.5 56.5q-63 0 -118.5 -46t-91.5 -116t-56.5 -149t-20.5 -148zM430 1434h188l162 -295h-139z" />
<glyph unicode="&#xf3;" horiz-adv-x="1003" d="M53 373q0 89 22.5 180.5t67 173.5t104.5 146.5t141 102.5t171 38q183 0 284 -106.5t101 -291.5q0 -89 -22.5 -180.5t-66.5 -173.5t-103.5 -146.5t-140.5 -102.5t-171 -38q-183 0 -285 106.5t-102 291.5zM264 375q0 -107 48.5 -163t136.5 -56q63 0 118.5 46t91 116 t56 148.5t20.5 147.5q0 107 -48.5 163.5t-135.5 56.5q-63 0 -118.5 -46t-91.5 -116t-56.5 -149t-20.5 -148zM504 1139l291 295h194l-342 -295h-143z" />
<glyph unicode="&#xf4;" horiz-adv-x="1003" d="M53 373q0 89 22.5 180.5t67 173.5t104.5 146.5t141 102.5t171 38q183 0 284 -106.5t101 -291.5q0 -89 -22.5 -180.5t-66.5 -173.5t-103.5 -146.5t-140.5 -102.5t-171 -38q-183 0 -285 106.5t-102 291.5zM264 375q0 -107 48.5 -163t136.5 -56q63 0 118.5 46t91 116 t56 148.5t20.5 147.5q0 107 -48.5 163.5t-135.5 56.5q-63 0 -118.5 -46t-91.5 -116t-56.5 -149t-20.5 -148zM387 1139l225 295h189l100 -295h-119l-94 198l-174 -198h-127z" />
<glyph unicode="&#xf5;" horiz-adv-x="1003" d="M53 373q0 89 22.5 180.5t67 173.5t104.5 146.5t141 102.5t171 38q183 0 284 -106.5t101 -291.5q0 -89 -22.5 -180.5t-66.5 -173.5t-103.5 -146.5t-140.5 -102.5t-171 -38q-183 0 -285 106.5t-102 291.5zM264 375q0 -107 48.5 -163t136.5 -56q63 0 118.5 46t91 116 t56 148.5t20.5 147.5q0 107 -48.5 163.5t-135.5 56.5q-63 0 -118.5 -46t-91.5 -116t-56.5 -149t-20.5 -148zM354 1147q59 274 226 274q38 0 64 -17t39.5 -41.5t25 -49t28 -41.5t41.5 -17q65 0 101 154h112q-59 -274 -227 -274q-45 0 -74.5 26t-41 56.5t-31.5 56.5t-50 26 q-67 0 -100 -153h-113z" />
<glyph unicode="&#xf6;" horiz-adv-x="1003" d="M53 373q0 89 22.5 180.5t67 173.5t104.5 146.5t141 102.5t171 38q183 0 284 -106.5t101 -291.5q0 -89 -22.5 -180.5t-66.5 -173.5t-103.5 -146.5t-140.5 -102.5t-171 -38q-183 0 -285 106.5t-102 291.5zM264 375q0 -107 48.5 -163t136.5 -56q63 0 118.5 46t91 116 t56 148.5t20.5 147.5q0 107 -48.5 163.5t-135.5 56.5q-63 0 -118.5 -46t-91.5 -116t-56.5 -149t-20.5 -148zM362 1231q0 51 40.5 89t91.5 38q43 0 72.5 -29.5t29.5 -73.5q0 -51 -39 -89t-92 -38q-43 0 -73 30t-30 73zM737 1231q0 51 39 89t90 38q43 0 73 -29.5t30 -73.5 q0 -51 -39 -89t-90 -38q-44 0 -73.5 30t-29.5 73z" />
<glyph unicode="&#xf7;" horiz-adv-x="907" d="M86 625l31 133h786l-29 -133h-788zM311 342q0 47 35 81t84 34q40 0 69 -29t29 -70q0 -49 -35 -82.5t-83 -33.5q-41 0 -70 29.5t-29 70.5zM461 1016q0 49 34.5 83t84.5 34q41 0 69.5 -29.5t28.5 -69.5q0 -49 -35.5 -82.5t-83.5 -33.5q-40 0 -69 29t-29 69z" />
<glyph unicode="&#xf8;" horiz-adv-x="1003" d="M-20 0l129 141q-56 95 -56 232q0 89 22.5 180.5t67 173.5t104.5 146.5t141 102.5t171 38q167 0 264 -88l60 63h133l-129 -141q57 -94 57 -232q0 -89 -22.5 -180.5t-66.5 -173.5t-103.5 -146.5t-140.5 -102.5t-171 -38q-166 0 -268 91l-59 -66h-133zM264 375q0 -42 4 -60 l420 461q-52 58 -137 58q-63 0 -118.5 -46t-91.5 -116t-56.5 -149t-20.5 -148zM309 215q45 -59 140 -59q63 0 118.5 46t91 116t56 148.5t20.5 147.5q0 35 -6 62z" />
<glyph unicode="&#xf9;" horiz-adv-x="995" d="M57 180q0 43 11 72l161 737h203l-149 -672q-1 -5 -4 -25.5t-3 -29.5q0 -54 34 -80t93 -26t117.5 39t104.5 98l153 696h203l-219 -989h-203l31 131q-140 -156 -293 -156q-111 0 -175.5 55t-64.5 150zM428 1434h188l162 -295h-139z" />
<glyph unicode="&#xfa;" horiz-adv-x="995" d="M57 180q0 43 11 72l161 737h203l-149 -672q-1 -5 -4 -25.5t-3 -29.5q0 -54 34 -80t93 -26t117.5 39t104.5 98l153 696h203l-219 -989h-203l31 131q-140 -156 -293 -156q-111 0 -175.5 55t-64.5 150zM502 1139l291 295h194l-342 -295h-143z" />
<glyph unicode="&#xfb;" horiz-adv-x="995" d="M57 180q0 43 11 72l161 737h203l-149 -672q-1 -5 -4 -25.5t-3 -29.5q0 -54 34 -80t93 -26t117.5 39t104.5 98l153 696h203l-219 -989h-203l31 131q-140 -156 -293 -156q-111 0 -175.5 55t-64.5 150zM383 1139l225 295h189l100 -295h-119l-94 198l-174 -198h-127z" />
<glyph unicode="&#xfc;" horiz-adv-x="995" d="M57 180q0 43 11 72l161 737h203l-149 -672q-1 -5 -4 -25.5t-3 -29.5q0 -54 34 -80t93 -26t117.5 39t104.5 98l153 696h203l-219 -989h-203l31 131q-140 -156 -293 -156q-111 0 -175.5 55t-64.5 150zM362 1231q0 51 40.5 89t91.5 38q43 0 72.5 -29.5t29.5 -73.5 q0 -51 -39 -89t-92 -38q-43 0 -73 30t-30 73zM737 1231q0 51 39 89t90 38q43 0 73 -29.5t30 -73.5q0 -51 -39 -89t-90 -38q-44 0 -73.5 30t-29.5 73z" />
<glyph unicode="&#xfd;" horiz-adv-x="884" d="M-104 -377l65 172q28 -14 74 -14q35 0 60.5 18.5t51.5 63.5l72 125l-108 1001h211l57 -743l389 743h223l-655 -1173q-66 -119 -136 -168t-167 -49q-80 0 -137 24zM444 1139l291 295h195l-342 -295h-144z" />
<glyph unicode="&#xfe;" horiz-adv-x="1011" d="M-74 -377l385 1743h203l-111 -504q112 152 263 152q137 0 216 -94t79 -265q0 -86 -18.5 -179t-57 -182.5t-91.5 -160.5t-128.5 -114.5t-161.5 -43.5q-88 0 -156.5 42t-103.5 120l-115 -514h-203zM276 291q23 -59 74 -97t117 -38q63 0 118.5 47t90.5 118.5t54.5 151.5 t19.5 150q0 100 -48 155.5t-129 55.5q-58 0 -113 -39t-93 -99z" />
<glyph unicode="&#xff;" horiz-adv-x="884" d="M-104 -377l65 172q28 -14 74 -14q35 0 60.5 18.5t51.5 63.5l72 125l-108 1001h211l57 -743l389 743h223l-655 -1173q-66 -119 -136 -168t-167 -49q-80 0 -137 24zM303 1231q0 51 40 89t91 38q43 0 73 -29.5t30 -73.5q0 -51 -39 -89t-92 -38q-43 0 -73 30t-30 73z M678 1231q0 51 39 89t90 38q43 0 72.5 -29.5t29.5 -73.5q0 -51 -39 -89t-90 -38q-44 0 -73 30t-29 73z" />
<glyph unicode="&#x152;" horiz-adv-x="1757" d="M86 487q0 101 22 207.5t62.5 206t101 188t132.5 154.5t163 104.5t187 38.5q110 0 195 -48.5t124 -155.5l41 184h750l-45 -199h-523l-82 -370h508l-43 -199h-510l-88 -399h525l-43 -199h-750l31 147q-127 -172 -340 -172q-184 0 -301 141t-117 371zM322 492 q0 -142 69.5 -229t188.5 -87q92 0 177 61t144 169l115 518q-17 128 -85 195t-175 67q-75 0 -144.5 -45t-121 -118.5t-90 -164.5t-58.5 -186t-20 -180z" />
<glyph unicode="&#x153;" horiz-adv-x="1624" d="M53 373q0 91 22.5 183t66.5 174t103.5 145.5t140 101t169.5 37.5q121 0 201.5 -64.5t109.5 -156.5q143 221 348 221q162 0 259.5 -99t97.5 -284q0 -93 -29 -203h-627q-6 -30 -6 -70q0 -93 61 -154t173 -61q57 0 114.5 23t102.5 65l70 -135q-63 -58 -144 -89.5t-168 -31.5 q-133 0 -220 65t-112 159q-34 -49 -64.5 -84t-73.5 -69.5t-96.5 -52.5t-115.5 -18q-180 0 -281.5 105.5t-101.5 292.5zM264 375q0 -104 46 -161.5t136 -57.5q50 0 95 30t78.5 79t58 109t37 122.5t12.5 117.5q0 108 -49 164t-133 56q-79 0 -146 -75.5t-101 -179.5t-34 -204z M942 573h438q9 36 9 72q0 91 -48.5 146t-140.5 55q-53 0 -99.5 -25.5t-78 -66.5t-52 -87.5t-28.5 -93.5z" />
<glyph unicode="&#x178;" horiz-adv-x="1073" d="M190 1366h240l156 -584l415 584h263l-598 -797l-127 -569h-226l125 569zM479 1581q0 51 40 89t91 38q43 0 73 -29t30 -73q0 -51 -39 -89t-92 -38q-43 0 -73 29.5t-30 72.5zM854 1581q0 51 39 89t90 38q43 0 72.5 -29t29.5 -73q0 -51 -39 -89t-90 -38q-44 0 -73 29.5 t-29 72.5z" />
<glyph unicode="&#x2c6;" horiz-adv-x="514" d="M141 1139l226 295h188l100 -295h-118l-95 198l-174 -198h-127z" />
<glyph unicode="&#x2dc;" horiz-adv-x="579" d="M143 1147q59 274 226 274q38 0 64 -17t39.5 -41.5t25 -49t28 -41.5t41.5 -17q65 0 101 154h112q-59 -274 -227 -274q-45 0 -74.5 26t-41 56.5t-31.5 56.5t-50 26q-67 0 -100 -153h-113z" />
<glyph unicode="&#x2000;" horiz-adv-x="902" />
<glyph unicode="&#x2001;" horiz-adv-x="1804" />
<glyph unicode="&#x2002;" horiz-adv-x="902" />
<glyph unicode="&#x2003;" horiz-adv-x="1804" />
<glyph unicode="&#x2004;" horiz-adv-x="601" />
<glyph unicode="&#x2005;" horiz-adv-x="451" />
<glyph unicode="&#x2006;" horiz-adv-x="300" />
<glyph unicode="&#x2007;" horiz-adv-x="300" />
<glyph unicode="&#x2008;" horiz-adv-x="225" />
<glyph unicode="&#x2009;" horiz-adv-x="360" />
<glyph unicode="&#x200a;" horiz-adv-x="100" />
<glyph unicode="&#x2010;" horiz-adv-x="552" d="M41 408l37 176h430l-37 -176h-430z" />
<glyph unicode="&#x2011;" horiz-adv-x="552" d="M41 408l37 176h430l-37 -176h-430z" />
<glyph unicode="&#x2012;" horiz-adv-x="552" d="M41 408l37 176h430l-37 -176h-430z" />
<glyph unicode="&#x2013;" horiz-adv-x="1079" d="M41 408l37 176h956l-39 -176h-954z" />
<glyph unicode="&#x2014;" horiz-adv-x="1509" d="M41 408l37 176h1386l-39 -176h-1384z" />
<glyph unicode="&#x2018;" horiz-adv-x="497" d="M213 1020q0 104 77 207.5t189 158.5l76 -79q-60 -28 -112.5 -75t-71.5 -97q2 2 18 2q43 0 74 -30.5t31 -82.5q0 -59 -46 -102t-104 -43q-56 0 -93.5 37t-37.5 104z" />
<glyph unicode="&#x2019;" horiz-adv-x="497" d="M215 958q60 28 112.5 75t71.5 97q-4 -2 -18 -2q-43 0 -74 30.5t-31 80.5q0 61 45.5 104t104.5 43q55 0 93 -37.5t38 -103.5q0 -104 -76.5 -207.5t-189.5 -160.5z" />
<glyph unicode="&#x201a;" horiz-adv-x="497" d="M-37 -176q60 28 112.5 75t71.5 97h-18q-43 0 -73.5 30t-30.5 80q0 59 45.5 102.5t103.5 43.5q56 0 94.5 -37t38.5 -104q0 -104 -77.5 -208t-190.5 -159z" />
<glyph unicode="&#x201c;" horiz-adv-x="866" d="M219 1020q0 104 77 207.5t189 158.5l76 -79q-60 -28 -112.5 -75t-71.5 -97q4 2 18 2q43 0 74 -30.5t31 -82.5q0 -59 -45.5 -102t-104.5 -43q-56 0 -93.5 37t-37.5 104zM586 1020q0 103 77.5 207t188.5 159l78 -79q-60 -28 -113 -75t-74 -97q4 2 19 2q45 0 75.5 -30.5 t30.5 -82.5q0 -59 -45.5 -102t-103.5 -43q-57 0 -95 37t-38 104z" />
<glyph unicode="&#x201d;" horiz-adv-x="866" d="M215 958q60 28 112.5 75t71.5 97q-4 -2 -18 -2q-43 0 -74 30.5t-31 80.5q0 61 45.5 104t104.5 43q55 0 93 -37.5t38 -103.5q0 -104 -76.5 -207.5t-189.5 -160.5zM582 958q60 28 112.5 75t73.5 97q-4 -2 -20 -2q-43 0 -74 30.5t-31 80.5q0 60 46 103.5t104 43.5 q57 0 95 -37.5t38 -103.5q0 -103 -77.5 -207t-189.5 -161z" />
<glyph unicode="&#x201e;" horiz-adv-x="866" d="M-37 -176q60 28 112.5 75t71.5 97h-18q-43 0 -73.5 30t-30.5 80q0 59 45.5 102.5t103.5 43.5q56 0 94.5 -37t38.5 -104q0 -104 -77.5 -208t-190.5 -159zM330 -176q60 28 112.5 75t73.5 97h-18q-45 0 -76 29.5t-31 80.5q0 59 46.5 102.5t105.5 43.5q56 0 93.5 -37 t37.5 -104q0 -104 -77 -208t-189 -159z" />
<glyph unicode="&#x2022;" horiz-adv-x="733" d="M133 475q0 102 77.5 177t180.5 75q89 0 149 -60t60 -149q0 -102 -77.5 -177t-180.5 -75q-89 0 -149 60t-60 149z" />
<glyph unicode="&#x2026;" horiz-adv-x="1486" d="M25 104q0 61 44.5 104.5t104.5 43.5q54 0 89.5 -36t35.5 -89q0 -62 -44 -106t-105 -44q-52 0 -88.5 37t-36.5 90zM520 104q0 61 44.5 104.5t105.5 43.5q54 0 89.5 -36t35.5 -89q0 -61 -44.5 -105.5t-105.5 -44.5q-52 0 -88.5 37t-36.5 90zM1016 104q0 61 44.5 104.5 t104.5 43.5q53 0 89 -36t36 -89q0 -62 -44 -106t-105 -44q-52 0 -88.5 37t-36.5 90z" />
<glyph unicode="&#x202f;" horiz-adv-x="360" />
<glyph unicode="&#x2039;" horiz-adv-x="557" d="M59 498l338 362h185l-346 -371l170 -360h-173z" />
<glyph unicode="&#x203a;" horiz-adv-x="557" d="M-23 129l347 373l-170 358h172l174 -368l-338 -363h-185z" />
<glyph unicode="&#x205f;" horiz-adv-x="451" />
<glyph unicode="&#x20ac;" horiz-adv-x="1161" d="M37 473l29 133h71q5 64 27 158h-64l31 131h74q55 142 139 251t203.5 176t255.5 67q94 0 171.5 -29t131 -80t89 -113.5t54.5 -136.5l-213 -61q-30 105 -93.5 162t-154.5 57q-100 0 -186.5 -80t-148.5 -213h401l-31 -131h-420q-18 -66 -32 -158h417l-28 -133h-395 q5 -140 76 -218.5t192 -78.5q145 0 262 164l176 -100q-88 -131 -204 -198t-246 -67q-217 0 -351.5 134t-138.5 364h-94z" />
<glyph unicode="&#x2122;" horiz-adv-x="847" d="M215 1313l10 53h271l-11 -53h-106l-88 -398h-58l89 398h-107zM471 915l98 451h88l41 -324l181 324h88l-99 -451h-57l82 373l-215 -373h-16l-52 373l-82 -373h-57z" />
<glyph unicode="&#xe000;" horiz-adv-x="993" d="M0 0v993h993v-993h-993z" />
</font>
</defs>
</svg>
