<?xml version="1.0" standalone="no"?>
<!DOCTYPE svg PUBLIC "-//W3C//DTD SVG 1.1//EN" "http://www.w3.org/Graphics/SVG/1.1/DTD/svg11.dtd" >
<svg>
<metadata>
Created by FontForge 20110222 at Mon Oct 21 20:33:20 2013
 By Orthosie Webhosting
Digitized data copyright The Monotype Corporation 1991-1995. All rights reserved. Rockwell is a trademark of The Monotype Corporation which may be registered in certain jurisdictions.
</metadata>
<defs>
<font id="RockwellBoldItalic" horiz-adv-x="682" >
  <font-face 
    font-family="RockwellBoldItalic"
    font-weight="700"
    font-style="italic"
    font-stretch="normal"
    units-per-em="2048"
    panose-1="2 6 8 3 3 5 5 9 4 3"
    ascent="1638"
    descent="-410"
    x-height="969"
    cap-height="1391"
    bbox="-367 -629 2476 1903"
    underline-thickness="102"
    underline-position="-103"
    slope="-13"
    unicode-range="U+0020-F002"
  />
<missing-glyph horiz-adv-x="2048" 
d="M256 0v1536h1536v-1536h-1536zM384 128h1280v1280h-1280v-1280z" />
    <glyph glyph-name=".notdef" horiz-adv-x="2048" 
d="M256 0v1536h1536v-1536h-1536zM384 128h1280v1280h-1280v-1280z" />
    <glyph glyph-name=".null" horiz-adv-x="0" 
 />
    <glyph glyph-name="nonmarkingreturn" horiz-adv-x="512" 
 />
    <glyph glyph-name="space" unicode=" " horiz-adv-x="512" 
 />
    <glyph glyph-name="exclam" unicode="!" 
d="M301 485l47 525l88 381h289l-88 -381l-199 -525h-137zM104 0l72 313h313l-71 -313h-314z" />
    <glyph glyph-name="quotedbl" unicode="&#x22;" horiz-adv-x="1130" 
d="M817 688l-29 367v336h222v-336l-29 -367h-164zM330 688l-29 367v336h221v-336l-28 -367h-164z" />
    <glyph glyph-name="numbersign" unicode="#" horiz-adv-x="1368" 
d="M162 1053h299l78 374h233l-78 -374h305l76 374h236l-78 -374h151v-224h-196l-58 -266h254v-223h-299l-79 -367h-234l80 367h-311l-78 -367h-234l78 367h-145v223h194l56 266h-250v224zM645 829l-55 -266h309l55 266h-309z" />
    <glyph glyph-name="dollar" unicode="$" horiz-adv-x="1024" 
d="M336 -190l43 190q-138 31 -213.5 123t-75.5 217q0 34 6 70h229q-3 -25 -3 -47q0 -133 102 -175l92 408q-244 159 -244 385q0 158 114 266.5t308 118.5l17 66h126l-18 -76q277 -62 277 -289q0 -57 -19 -123h-217q14 47 14 84q0 92 -98 139l-88 -381q146 -91 216.5 -183
t70.5 -208q0 -175 -123 -299.5t-350 -115.5l-39 -170h-127zM579 870l74 314q-149 -36 -149 -160q0 -79 75 -154zM627 518l-80 -344q78 10 130 66t52 122q0 90 -102 156z" />
    <glyph glyph-name="percent" unicode="%" horiz-adv-x="1898" 
d="M535 684q-133 0 -207 75t-74 210q0 186 111.5 312t275.5 126q130 0 203.5 -74t73.5 -205q0 -187 -111.5 -315.5t-271.5 -128.5zM692 1202q0 76 -59 76q-66 0 -110 -143.5t-44 -229.5q0 -92 62 -92q65 0 108 143t43 246zM279 0l1333 1391h180l-1333 -1391h-180zM1421 -27
q-132 0 -206 75.5t-74 209.5q0 187 111.5 312.5t275.5 125.5q130 0 203 -73.5t73 -204.5q0 -187 -111.5 -316t-271.5 -129zM1579 492q0 75 -59 75q-66 0 -110 -143.5t-44 -228.5q0 -93 61 -93q66 0 109 143.5t43 246.5z" />
    <glyph glyph-name="ampersand" unicode="&#x26;" horiz-adv-x="1516" 
d="M1440 217l-51 -217h-267l-90 139q-225 -164 -461 -164q-206 0 -333 127t-127 295q0 317 428 502q-60 106 -60 197q0 132 112.5 224.5t276.5 92.5q142 0 234 -75.5t92 -190.5q0 -194 -289 -330l182 -280q57 92 138 305h348l-51 -217h-133q-79 -194 -164 -297l73 -111h142z
M793 995q184 67 184 156q0 40 -30.5 66t-76.5 26q-52 0 -86 -33.5t-34 -85.5q0 -56 43 -129zM903 322l-252 393q-248 -112 -248 -289q0 -95 63.5 -161t151.5 -66q129 0 285 123z" />
    <glyph glyph-name="quotesingle" unicode="'" horiz-adv-x="575" 
d="M297 688l-29 367v336h221v-336l-28 -367h-164z" />
    <glyph glyph-name="parenleft" unicode="(" horiz-adv-x="705" 
d="M535 -248l-46 -192q-354 213 -354 690q0 366 212 723.5t571 443.5l-44 -190q-212 -97 -337 -470t-125 -675q0 -223 123 -330z" />
    <glyph glyph-name="parenright" unicode=")" horiz-adv-x="705" 
d="M221 1225l45 192q355 -213 355 -690q0 -366 -212 -723.5t-571 -443.5l43 190q213 97 338 470t125 675q0 223 -123 330z" />
    <glyph glyph-name="asterisk" unicode="*" horiz-adv-x="1153" 
d="M1026 475l-225 -90l-70 162q6 24 6 53q0 77 -45 203q-110 -111 -135 -215l-127 -113l-164 180l129 113q105 12 238 109q-158 75 -252 69l-152 94l133 211l150 -92q28 -81 168 -190q10 94 10 144q0 71 -18 126l37 164l237 -57l-39 -162q-94 -94 -129 -238q201 41 248 94
l170 17l21 -246l-164 -20q-81 51 -267 51q72 -144 172 -205z" />
    <glyph glyph-name="plus" unicode="+" horiz-adv-x="1368" 
d="M903 821h434v-260h-434v-434h-260v434h-434v260h434v434h260v-434z" />
    <glyph glyph-name="comma" unicode="," 
d="M123 0l72 313h313l-72 -313q-79 -353 -393 -367l33 142q151 32 192 225h-145z" />
    <glyph glyph-name="hyphen" unicode="-" horiz-adv-x="705" 
d="M123 356l59 256h482l-60 -256h-481z" />
    <glyph glyph-name="period" unicode="." 
d="M123 0l72 313h313l-72 -313h-313z" />
    <glyph glyph-name="slash" unicode="/" horiz-adv-x="1040" 
d="M838 1391h284l-737 -1420h-287z" />
    <glyph glyph-name="zero" unicode="0" horiz-adv-x="1110" 
d="M520 -23q-164 0 -260 131.5t-96 358.5q0 180 78.5 420t215 383t310.5 143q163 0 260.5 -127t97.5 -342q0 -340 -169 -653.5t-437 -313.5zM432 334q0 -148 107 -148q67 0 128.5 100t127 388.5t65.5 388.5q0 66 -28.5 103.5t-77.5 37.5q-69 0 -130.5 -104t-126.5 -397
t-65 -369z" />
    <glyph glyph-name="one" unicode="1" horiz-adv-x="1110" 
d="M176 0l47 207h160l225 977h-159l49 207h456l-274 -1184h149l-47 -207h-606z" />
    <glyph glyph-name="two" unicode="2" horiz-adv-x="1110" 
d="M987 459l-106 -459h-797l18 100q24 130 108.5 268.5t304.5 335t265 272t45 138.5q0 38 -28.5 64t-71.5 26q-164 0 -236 -317h-262q121 526 539 526q161 0 257.5 -86.5t96.5 -228.5q0 -130 -68 -223t-264 -242q-226 -171 -310.5 -262.5t-119.5 -163.5h353l59 252h217z" />
    <glyph glyph-name="three" unicode="3" horiz-adv-x="1110" 
d="M127 453h258q-11 -49 -11 -91q0 -83 38 -129.5t104 -46.5q90 0 143.5 92t53.5 185q0 158 -191 158h-25l50 208q178 7 237.5 96t59.5 183q0 41 -30 68.5t-75 27.5q-137 0 -180 -194h-262q88 403 452 403q174 0 276.5 -90.5t102.5 -243.5q0 -138 -85.5 -237t-239.5 -123v-4
q206 -84 206 -303q0 -180 -137.5 -307.5t-333.5 -127.5q-195 0 -307 100t-112 278q0 47 8 98z" />
    <glyph glyph-name="four" unicode="4" horiz-adv-x="1110" 
d="M328 0l43 186h131l45 195h-410l-18 231l676 803h268l-197 -854h211l-43 -180h-211l-45 -195h131l-43 -186h-538zM590 561l112 510l-421 -510h309z" />
    <glyph glyph-name="five" unicode="5" horiz-adv-x="1110" 
d="M146 434h262q-16 -59 -16 -107q0 -141 117 -141q108 0 174.5 136.5t66.5 242.5q0 58 -33 95.5t-81 37.5q-92 0 -150 -82l-200 125l186 650h711l-76 -330h-199l12 123h-292l-82 -307q77 27 150 27q150 0 248.5 -108t98.5 -274q0 -229 -154.5 -387t-379.5 -158
q-175 0 -272.5 94.5t-97.5 265.5q0 46 7 97z" />
    <glyph glyph-name="six" unicode="6" horiz-adv-x="1110" 
d="M1165 995h-241q10 42 10 76q0 127 -123 127q-90 0 -157.5 -92.5t-125.5 -278.5q90 47 181 47q144 0 235.5 -104.5t91.5 -269.5q0 -211 -145 -367t-340 -156q-176 0 -279.5 120t-103.5 327q0 310 176 649.5t479 339.5q149 0 249 -89t100 -248q0 -39 -7 -81zM625 664
q-58 0 -102.5 -33t-54.5 -59.5t-24 -91t-14 -126.5q0 -74 35 -116.5t94 -42.5q79 0 142 92t63 211q0 73 -39 119.5t-100 46.5z" />
    <glyph glyph-name="seven" unicode="7" horiz-adv-x="1110" 
d="M143 0l47 207h148q142 501 571 977h-413l-41 -170h-217l88 377h891l-48 -209q-150 -174 -296.5 -455t-213.5 -520h138l-47 -207h-607z" />
    <glyph glyph-name="eight" unicode="8" horiz-adv-x="1110" 
d="M455 752q-129 103 -129 249q0 161 123.5 286.5t322.5 125.5q165 0 267 -95.5t102 -250.5q0 -125 -70.5 -227t-200.5 -138q150 -109 150 -272q0 -185 -143.5 -319t-341.5 -134q-172 0 -285 94.5t-113 260.5q0 307 318 420zM766 1204q-87 0 -134.5 -100.5t-47.5 -196.5
q0 -92 94 -92q88 0 138 92.5t50 206.5q0 41 -27.5 65.5t-72.5 24.5zM631 631q-96 0 -150.5 -108.5t-54.5 -217.5q0 -119 113 -119q92 0 148 100t56 224q0 54 -30.5 87.5t-81.5 33.5z" />
    <glyph glyph-name="nine" unicode="9" horiz-adv-x="1110" 
d="M127 395h241q-10 -41 -10 -75q0 -127 123 -127q90 0 157.5 92.5t125.5 277.5q-89 -47 -180 -47q-145 0 -236.5 105t-91.5 270q0 211 145 366.5t340 155.5q177 0 280 -120t103 -326q0 -311 -176 -650.5t-479 -339.5q-149 0 -248.5 89t-99.5 249q0 38 6 80zM668 727
q57 0 102 33t54.5 59t23.5 90.5t14 126.5q0 74 -34.5 117t-94.5 43q-79 0 -142 -92t-63 -211q0 -74 39 -120t101 -46z" />
    <glyph glyph-name="colon" unicode=":" 
d="M276 655l72 314h314l-72 -314h-314zM123 0l72 313h313l-72 -313h-313z" />
    <glyph glyph-name="semicolon" unicode=";" 
d="M276 655l72 314h314l-72 -314h-314zM123 0l72 313h313l-72 -313q-79 -353 -393 -367l33 142q151 32 192 225h-145z" />
    <glyph glyph-name="less" unicode="&#x3c;" horiz-adv-x="1366" 
d="M209 565v238l1126 467v-283l-768 -303l768 -303v-283z" />
    <glyph glyph-name="equal" unicode="=" horiz-adv-x="1366" 
d="M209 1055h1128v-260h-1128v260zM209 573h1128v-260h-1128v260z" />
    <glyph glyph-name="greater" unicode="&#x3e;" horiz-adv-x="1366" 
d="M1337 565l-1126 -467v283l768 303l-768 303v283l1126 -467v-238z" />
    <glyph glyph-name="question" unicode="?" horiz-adv-x="1110" 
d="M475 475l33 356q155 -8 253.5 58t98.5 166q0 70 -48.5 114.5t-125.5 44.5q-154 0 -201 -155h-290q130 350 536 350q199 0 312.5 -97t113.5 -257q0 -168 -128.5 -291t-354.5 -137l-66 -152h-133zM281 0l71 313h314l-72 -313h-313z" />
    <glyph glyph-name="at" unicode="@" horiz-adv-x="2005" 
d="M2081 18q-225 -444 -907 -444q-491 0 -756.5 246.5t-265.5 662.5t268.5 712t759.5 296q374 0 611 -215t237 -547q0 -298 -192 -513.5t-470 -215.5q-157 0 -182 117q-112 -117 -269 -117q-180 0 -283.5 120.5t-103.5 321.5q0 220 150.5 430.5t388.5 210.5q178 0 266 -135
l25 111h264l-164 -772q-3 -15 -3 -28q0 -54 42 -54q84 0 217 153.5t133 378.5q0 238 -177.5 406t-502.5 168q-378 0 -599.5 -235.5t-221.5 -592.5q0 -348 221 -538.5t627 -190.5q462 0 674 264h213zM786 426q0 -117 49.5 -180.5t135.5 -63.5q133 0 220 158.5t87 329.5
q0 105 -50.5 169t-129.5 64q-143 0 -227.5 -152.5t-84.5 -324.5z" />
    <glyph glyph-name="A" unicode="A" horiz-adv-x="1323" 
d="M-76 0l51 217h134l526 957h-135l49 217h805l-49 -217h-119l41 -957h143l-51 -217h-580l52 217h129v234h-422l-117 -234h129l-51 -217h-535zM911 649l-16 537h-14l-279 -537h309z" />
    <glyph glyph-name="B" unicode="B" horiz-adv-x="1366" 
d="M63 217h138l221 957h-137l49 217h631q210 0 319 -93.5t109 -246.5q0 -268 -316 -334q213 -125 213 -320q0 -182 -145 -289.5t-328 -107.5h-805zM696 825h129q224 0 224 219q0 136 -148 136h-123zM553 207h166q111 0 171 76.5t60 179.5q0 75 -48 120.5t-132 45.5h-119z
" />
    <glyph glyph-name="C" unicode="C" horiz-adv-x="1579" 
d="M1307 481l223 -164q-131 -162 -310 -248.5t-374 -86.5q-294 0 -486 174t-192 440q0 329 277.5 573t656.5 244q254 0 383 -156l31 134h223l-105 -453h-223q-37 229 -313 229q-223 0 -392 -176.5t-169 -408.5q0 -150 91.5 -246t233.5 -96q242 0 445 241z" />
    <glyph glyph-name="D" unicode="D" horiz-adv-x="1556" 
d="M-16 0l51 217h168l219 957h-168l51 217h574q327 0 498 -166t171 -447q0 -341 -212 -559.5t-554 -218.5h-798zM555 217h211q200 0 310 198t110 429q0 147 -89 238.5t-239 91.5h-84z" />
    <glyph glyph-name="E" unicode="E" horiz-adv-x="1300" 
d="M18 0l52 217h131l221 957h-131l49 217h1137l-103 -443h-260l51 226h-393l-80 -357h326l-51 -217h-326l-88 -383h401l52 219h251l-102 -436h-1137z" />
    <glyph glyph-name="F" unicode="F" horiz-adv-x="1194" 
d="M-35 0l51 217h187l219 957h-205l51 217h1194l-104 -451h-258l53 234h-379l-80 -357h289l-51 -217h-289l-88 -383h190l-51 -217h-729z" />
    <glyph glyph-name="G" unicode="G" horiz-adv-x="1665" 
d="M1503 1391h223l-102 -447h-223q-3 104 -89 168t-212 64q-227 0 -396 -182t-169 -429q0 -144 90.5 -236.5t232.5 -92.5q279 0 336 196h-219l49 217h643q-46 -305 -279 -486t-563 -181q-303 0 -481 183t-178 441q0 325 273.5 566t645.5 241q239 0 392 -139z" />
    <glyph glyph-name="H" unicode="H" horiz-adv-x="1516" 
d="M18 0l52 217h129l221 957h-131l51 217h604l-51 -217h-141l-78 -338h401l78 338h-129l51 217h567l-51 -217h-106l-219 -957h141l-51 -217h-604l49 217h133l90 401h-401l-91 -401h142l-51 -217h-605z" />
    <glyph glyph-name="I" unicode="I" horiz-adv-x="811" 
d="M-18 0l49 217h176l221 957h-197l50 217h702l-49 -217h-152l-221 -957h201l-51 -217h-729z" />
    <glyph glyph-name="J" unicode="J" horiz-adv-x="768" 
d="M1012 1391l-51 -217h-154l-238 -1029q-73 -321 -227.5 -448t-367.5 -127q-107 0 -218 33l66 231q53 -9 96 -9q126 0 197 90.5t129 342.5l211 916h-183l52 217h688z" />
    <glyph glyph-name="K" unicode="K" horiz-adv-x="1450" 
d="M14 0l52 217h137l219 957h-137l51 217h620l-49 -217h-131l-221 -957h131l-51 -217h-621zM805 0l51 217h131l-301 512l541 445h-148l51 217h609l-51 -217h-121l-539 -445l307 -512h131l-49 -217h-612z" />
    <glyph glyph-name="L" unicode="L" horiz-adv-x="1237" 
d="M20 0l50 217h131l221 957h-166l51 217h649l-51 -217h-131l-219 -957h389l98 428h267l-150 -645h-1139z" />
    <glyph glyph-name="M" unicode="M" horiz-adv-x="2091" 
d="M12 0l51 217h138l221 957h-139l51 217h616l119 -836l512 836h639l-51 -217h-107l-219 -957h144l-52 -217h-606l49 217h131l222 957h-27l-717 -1174h-149l-160 1174h-35l-221 -957h131l-49 -217h-492z" />
    <glyph glyph-name="N" unicode="N" horiz-adv-x="1622" 
d="M20 0l52 217h131l219 957h-131l51 217h518l318 -963l170 746h-131l51 217h501l-51 -217h-131l-272 -1186h-305l-363 1120l-203 -891h146l-51 -217h-519z" />
    <glyph glyph-name="O" unicode="O" horiz-adv-x="1686" 
d="M782 -18q-263 0 -436.5 164t-173.5 413q0 340 257 599t630 259q288 0 458.5 -167.5t170.5 -411.5q0 -357 -263.5 -606.5t-642.5 -249.5zM1319 874q0 131 -82.5 214t-212.5 83q-213 0 -348 -203t-135 -433q0 -144 78.5 -226t216.5 -82q225 0 354 211t129 436z" />
    <glyph glyph-name="P" unicode="P" horiz-adv-x="1323" 
d="M23 0l49 217h131l221 957h-156l51 217h596q250 0 379 -107.5t129 -304.5q0 -204 -141 -337.5t-457 -133.5h-202l-68 -291h168l-49 -217h-651zM672 725h119q131 0 202.5 78t71.5 198q0 173 -195 173h-94z" />
    <glyph glyph-name="Q" unicode="Q" horiz-adv-x="1686" 
d="M1253 -150l-67 -202q-108 -9 -190 21t-196.5 98.5t-178.5 68.5q-108 0 -215 -86l-37 156q94 84 219 92v4q-198 60 -307 208t-109 345q0 351 263 606.5t626 255.5q291 0 459 -170t168 -409q0 -327 -234.5 -582.5t-646.5 -269.5v-4q219 -104 282.5 -119t112.5 -15
q25 0 51 2zM1319 874q0 131 -82.5 214t-212.5 83q-213 0 -348 -203t-135 -433q0 -144 78.5 -226t216.5 -82q225 0 354 211t129 436z" />
    <glyph glyph-name="R" unicode="R" horiz-adv-x="1430" 
d="M16 0l52 217h137l221 957h-137l49 217h723q190 0 296.5 -110.5t106.5 -266.5q0 -135 -82.5 -245t-236.5 -130l119 -422h139l-51 -217h-355l-153 618h-195l-92 -401h133l-53 -217h-621zM690 797h150q264 0 264 219q0 74 -45 116t-121 42h-160z" />
    <glyph glyph-name="S" unicode="S" horiz-adv-x="1044" 
d="M23 0l100 432h231q-8 -30 -8 -58q0 -67 46 -110t110 -43q77 0 128.5 50.5t51.5 125.5q0 50 -30.5 105.5t-165 176t-174.5 199.5t-40 154q0 147 101 258t286 111q174 0 273 -109l22 99h222l-86 -367h-222q3 14 3 28q0 53 -43.5 87.5t-112.5 34.5q-61 0 -97 -28t-36 -71
q0 -35 24.5 -75.5t160 -158.5t183 -217.5t47.5 -197.5q0 -197 -126.5 -324t-319.5 -127q-162 0 -272 129l-25 -104h-231z" />
    <glyph glyph-name="T" unicode="T" horiz-adv-x="1409" 
d="M297 0l51 217h160l219 957h-219l-74 -326h-223l125 543h1237l-125 -543h-223l75 326h-219l-219 -957h160l-51 -217h-674z" />
    <glyph glyph-name="U" unicode="U" horiz-adv-x="1450" 
d="M325 1174l49 217h604l-49 -217h-143l-162 -693q-11 -48 -11 -88q0 -172 191 -172q107 0 175 76.5t108 249.5l145 627h-131l49 217h478l-50 -217h-106l-162 -701q-58 -250 -198.5 -373t-380.5 -123q-186 0 -326.5 90t-140.5 296q0 79 22 176l146 635h-107z" />
    <glyph glyph-name="V" unicode="V" horiz-adv-x="1323" 
d="M420 -10l-131 1184h-142l52 217h592l-52 -217h-123l68 -754l436 754h-123l52 217h532l-49 -217h-131l-692 -1184h-289z" />
    <glyph glyph-name="W" unicode="W" horiz-adv-x="1835" 
d="M616 -10h-276l-74 1184h-137l49 217h572l-50 -217h-125l39 -689l383 689h-139l49 217h502l-51 -217h-125l41 -689l383 689h-139l49 217h544l-49 -217h-127l-659 -1184h-279l-36 618z" />
    <glyph glyph-name="X" unicode="X" horiz-adv-x="1386" 
d="M412 209h125l-48 -209h-563l49 217h119l490 535l-234 422h-135l51 217h602l-47 -209h-119l158 -293l252 293h-115l50 209h561l-49 -217h-129l-449 -506l248 -451h139l-49 -217h-610l49 209h131l-187 323z" />
    <glyph glyph-name="Y" unicode="Y" horiz-adv-x="1280" 
d="M258 0l51 217h131l88 383l-235 574h-137l51 217h577l-51 -217h-112l141 -386l328 386h-115l51 217h559l-49 -217h-131l-520 -574l-90 -383h143l-53 -217h-627z" />
    <glyph glyph-name="Z" unicode="Z" horiz-adv-x="1237" 
d="M8 0l51 217l875 967h-387l-51 -219h-213l98 426h1028l-43 -187l-893 -997h445l55 231h217l-103 -438h-1079z" />
    <glyph glyph-name="bracketleft" unicode="[" horiz-adv-x="788" 
d="M61 -414l418 1805h533l-43 -189h-236l-330 -1427h236l-45 -189h-533z" />
    <glyph glyph-name="backslash" unicode="\" horiz-adv-x="1040" 
d="M383 1391l739 -1420h-286l-738 1420h285z" />
    <glyph glyph-name="bracketright" unicode="]" horiz-adv-x="788" 
d="M801 1391l-418 -1805h-533l44 189h235l330 1427h-236l45 189h533z" />
    <glyph glyph-name="asciicircum" unicode="^" horiz-adv-x="1194" 
d="M205 592l377 799h221l366 -799h-284l-197 489l-196 -489h-287z" />
    <glyph glyph-name="underscore" unicode="_" horiz-adv-x="1024" 
d="M-12 -154h1048v-102h-1048v102z" />
    <glyph glyph-name="grave" unicode="`" 
d="M535 1071l-379 361h356l184 -361h-161z" />
    <glyph glyph-name="a" unicode="a" horiz-adv-x="1174" 
d="M1135 207l-60 -207h-446l18 78q-141 -90 -262 -90q-126 0 -208.5 76t-82.5 192q0 159 130 257.5t362 98.5q52 0 178 -28l16 80q3 12 3 23q0 52 -48.5 84t-120.5 32q-97 0 -227 -66l-147 146q206 110 419 110q198 0 308.5 -79t110.5 -217q0 -42 -11 -89l-94 -401h162z
M688 258l37 160q-72 20 -147 20q-93 0 -151 -44t-58 -111q0 -46 33.5 -77.5t80.5 -31.5q96 0 205 84z" />
    <glyph glyph-name="b" unicode="b" horiz-adv-x="1237" 
d="M-14 0l49 207h106l226 977h-131l47 207h428l-123 -527l4 -4q118 133 276 133q149 0 244.5 -105.5t95.5 -271.5q0 -256 -151.5 -442t-356.5 -186q-166 0 -276 162l-35 -150h-403zM647 217q100 0 177 109t77 256q0 82 -40.5 133t-104.5 51q-115 0 -189.5 -116t-74.5 -257
q0 -79 42.5 -127.5t112.5 -48.5z" />
    <glyph glyph-name="c" unicode="c" horiz-adv-x="1087" 
d="M809 354l213 -104q-168 -279 -465 -279q-201 0 -322.5 118t-121.5 312q0 238 166.5 408t398.5 170q129 0 233 -74l15 64h217l-84 -363h-217q-11 139 -160 139q-110 0 -186 -100.5t-76 -249.5q0 -82 46.5 -134t119.5 -52q134 0 223 145z" />
    <glyph glyph-name="d" unicode="d" horiz-adv-x="1237" 
d="M1180 207l-47 -207h-428l28 119l-4 4q-127 -137 -287 -137q-149 0 -241 109t-92 288q0 249 151 429.5t356 180.5q174 0 279 -164l82 355h-148l50 207h442l-272 -1184h131zM412 391q0 -78 42 -124t117 -46q107 0 183.5 120t76.5 228q0 88 -47.5 140.5t-121.5 52.5
q-100 0 -175 -110.5t-75 -260.5z" />
    <glyph glyph-name="e" unicode="e" horiz-adv-x="1130" 
d="M782 289l219 -99q-146 -219 -436 -219q-202 0 -322 114.5t-120 305.5q0 245 161 423.5t398 178.5q184 0 307 -116.5t123 -314.5q0 -66 -14 -138h-688q-6 -33 -6 -63q0 -92 49.5 -144.5t130.5 -52.5q125 0 198 125zM446 582h383q4 22 4 44q0 78 -46.5 125.5t-114.5 47.5
q-154 0 -226 -217z" />
    <glyph glyph-name="f" unicode="f" 
d="M590 207l-47 -207h-527l47 207h99l129 555h-148l47 207h148q93 438 442 438q125 0 240 -76l-80 -198q-61 57 -127 57q-71 0 -110 -49t-68 -172h125l-47 -207h-125l-129 -555h131z" />
    <glyph glyph-name="g" unicode="g" horiz-adv-x="1237" 
d="M-37 -360l90 215q185 -84 318 -84q272 0 329 229l27 106l-4 5q-123 -119 -260 -119q-158 0 -254 110t-96 291q0 234 152.5 410t352.5 176q173 0 269 -170l37 160h409l-47 -207h-106l-170 -731q-113 -486 -604 -486q-258 0 -443 95zM414 395q0 -79 42.5 -127.5
t118.5 -48.5q113 0 180.5 107.5t67.5 244.5q0 76 -42 126.5t-113 50.5q-110 0 -182 -115t-72 -238z" />
    <glyph glyph-name="h" unicode="h" horiz-adv-x="1237" 
d="M10 0l47 207h107l225 977h-131l49 207h428l-127 -547q106 70 179.5 103.5t152.5 33.5q101 0 159 -63t58 -172q0 -49 -12 -103l-103 -436h132l-48 -207h-428l144 621q5 22 5 42q0 82 -67 82q-82 0 -221 -110l-98 -428h129l-47 -207h-533z" />
    <glyph glyph-name="i" unicode="i" 
d="M563 1092q-67 0 -114.5 48t-47.5 115q0 68 47.5 115t114.5 47q68 0 116 -47.5t48 -114.5t-48.5 -115t-115.5 -48zM180 207l129 555h-131l47 207h428l-176 -762h131l-47 -207h-534l47 207h106z" />
    <glyph glyph-name="j" unicode="j" horiz-adv-x="662" 
d="M610 1092q-67 0 -114 48t-47 115q0 68 47 115t114 47q68 0 116 -47.5t48 -114.5t-48 -115t-116 -48zM356 762h-131l47 207h428l-221 -959q-54 -231 -160 -331.5t-299 -100.5q-75 0 -135 19l49 217q25 -3 46 -3q83 0 129.5 40.5t78.5 183.5z" />
    <glyph glyph-name="k" unicode="k" horiz-adv-x="1174" 
d="M8 0l47 207h107l225 977h-135l49 207h432l-205 -883l344 301h-161l37 160h499l-30 -187h-89l-292 -260l170 -315h122l-49 -207h-282l-269 504l-71 -307h106l-45 -197h-510z" />
    <glyph glyph-name="l" unicode="l" 
d="M20 0l48 207h106l225 977h-137l47 207h434l-272 -1184h131l-47 -207h-535z" />
    <glyph glyph-name="m" unicode="m" horiz-adv-x="1985" 
d="M-18 0l47 207h139l129 555h-174l47 207h471l-31 -135q232 147 375 147q191 0 250 -174q270 174 422 174q110 0 185.5 -66.5t75.5 -174.5q0 -37 -9 -76l-105 -457h152l-47 -207h-449l135 575q8 33 8 61q0 107 -98 107q-99 0 -272 -125l-98 -411h151l-47 -207h-448l133 575
q8 37 8 66q0 102 -98 102q-117 0 -273 -125l-96 -411h151l-47 -207h-587z" />
    <glyph glyph-name="n" unicode="n" horiz-adv-x="1237" 
d="M6 0l47 207h107l129 555h-146l47 207h443l-29 -121q138 85 201.5 109t132.5 24q98 0 160.5 -62.5t62.5 -165.5q0 -41 -10 -85l-107 -461h132l-48 -207h-428l142 612q7 30 7 53q0 83 -71 83q-73 0 -221 -107l-100 -434h123l-48 -207h-526z" />
    <glyph glyph-name="o" unicode="o" horiz-adv-x="1174" 
d="M537 -29q-187 0 -303.5 112.5t-116.5 291.5q0 260 172.5 439t423.5 179q196 0 309 -124.5t113 -299.5q0 -249 -171.5 -423.5t-426.5 -174.5zM686 776q-123 0 -195.5 -131.5t-72.5 -279.5q0 -81 38 -129t103 -48q121 0 198 131t77 279q0 81 -40 129.5t-108 48.5z" />
    <glyph glyph-name="p" unicode="p" horiz-adv-x="1237" 
d="M-104 -440l49 207h137l229 995h-137l47 207h434l-30 -127l4 -4q138 143 293 143q146 0 237.5 -109.5t91.5 -285.5q0 -256 -148.5 -435.5t-357.5 -179.5q-181 0 -282 160l-84 -364h160l-50 -207h-593zM797 748q-100 0 -182.5 -112.5t-82.5 -252.5q0 -78 46.5 -130
t115.5 -52q105 0 179.5 108t74.5 262q0 81 -41 129t-110 48z" />
    <glyph glyph-name="q" unicode="q" horiz-adv-x="1237" 
d="M1335 969l-49 -207h-106l-230 -995h123l-47 -207h-571l47 207h151l80 337l-4 5q-123 -138 -285 -138q-143 0 -238 108t-95 271q0 259 148 444t366 185q160 0 272 -158l35 148h403zM563 203q114 0 190 113t76 251q0 85 -43.5 135t-111.5 50q-117 0 -189.5 -115.5
t-72.5 -249.5q0 -87 40 -135.5t111 -48.5z" />
    <glyph glyph-name="r" unicode="r" horiz-adv-x="854" 
d="M10 0l47 207h117l129 555h-131l47 207h393l-65 -281l4 -4q155 226 214.5 260t124.5 34q38 0 87 -9l-59 -258q-48 10 -90 10q-240 0 -310 -307l-47 -207h152l-48 -207h-565z" />
    <glyph glyph-name="s" unicode="s" horiz-adv-x="1004" 
d="M16 0l78 334h191q33 -164 227 -164q188 0 188 104q0 36 -28.5 62t-195.5 64.5t-226.5 119t-59.5 156.5q0 131 112 217t286 86q134 0 225 -61l12 51h209l-65 -283h-199q-33 113 -178 113q-68 0 -109 -26t-41 -68q0 -28 26 -48.5t186.5 -57.5t224 -113t63.5 -175
q0 -139 -120.5 -230t-309.5 -91q-168 0 -272 65l-13 -55h-211z" />
    <glyph glyph-name="t" unicode="t" 
d="M657 254l-53 -223q-128 -60 -250 -60q-94 0 -151.5 54.5t-57.5 142.5q0 65 17 135l106 459h-114l47 207h114l33 141l354 246l-90 -387h131l-47 -207h-131l-104 -449q-8 -34 -8 -55q0 -51 61 -51q58 0 143 47z" />
    <glyph glyph-name="u" unicode="u" horiz-adv-x="1237" 
d="M1165 207l-49 -207h-428l31 127q-203 -137 -350 -137q-83 0 -144 59.5t-61 138.5q0 71 24 177l93 397h-131l49 207h428l-146 -625q-6 -25 -6 -46q0 -75 62 -75q37 0 104 32t125 81l98 426h-131l49 207h428l-176 -762h131z" />
    <glyph glyph-name="v" unicode="v" horiz-adv-x="1044" 
d="M317 -12l-133 774h-106l47 207h508l-49 -207h-117l53 -461l266 461h-116l47 207h512l-47 -207h-131l-467 -774h-267z" />
    <glyph glyph-name="w" unicode="w" horiz-adv-x="1556" 
d="M299 -12l-133 774h-117l47 207h490l-45 -199h-117l82 -453l303 652h207l110 -652l211 453h-123l46 199h458l-47 -207h-106l-371 -774h-262l-101 555l-262 -555h-270z" />
    <glyph glyph-name="x" unicode="x" horiz-adv-x="1024" 
d="M-35 0l49 207h117l281 291l-154 264h-117l49 207h306l122 -254l213 254h287l-47 -207h-102l-244 -256l176 -299h117l-47 -207h-314l-137 287l-248 -287h-307z" />
    <glyph glyph-name="y" unicode="y" horiz-adv-x="1153" 
d="M31 -440l47 207h162l114 202l-147 793h-107l50 207h507l-49 -207h-116l59 -455l262 455h-117l47 207h506l-47 -207h-131l-696 -1202h-344z" />
    <glyph glyph-name="z" unicode="z" horiz-adv-x="981" 
d="M-25 0l43 188l631 592h-239l-29 -125h-197l72 314h799l-43 -189l-631 -592h293l37 164h200l-80 -352h-856z" />
    <glyph glyph-name="braceleft" unicode="{" horiz-adv-x="788" 
d="M150 362v230q114 0 166.5 66t52.5 225v125q0 234 97 308.5t279 74.5h89v-236q-161 0 -185 -36t-24 -245q0 -167 -40.5 -251t-142.5 -146q102 -62 142.5 -146t40.5 -251q0 -208 24 -244.5t185 -36.5v-235h-89q-182 0 -279 74.5t-97 308.5v125q0 158 -52.5 224t-166.5 66z
" />
    <glyph glyph-name="bar" unicode="|" horiz-adv-x="1251" 
d="M584 1391h264v-1831h-264v1831z" />
    <glyph glyph-name="braceright" unicode="}" horiz-adv-x="788" 
d="M819 592v-230q-115 0 -167 -66t-52 -224v-125q0 -234 -97 -308.5t-280 -74.5h-88v235q161 0 185 36.5t24 244.5q0 167 40.5 251t141.5 146q-101 62 -141.5 146t-40.5 251q0 209 -24 245t-185 36v236h88q183 0 280 -74.5t97 -308.5v-125q0 -159 52 -225t167 -66z" />
    <glyph glyph-name="asciitilde" unicode="~" horiz-adv-x="1194" 
d="M156 520v258q126 137 301 137q113 0 266.5 -66.5t220.5 -66.5q145 0 275 142v-271q-143 -133 -293 -133q-93 0 -252 71t-244 71q-140 0 -274 -142z" />
    <glyph glyph-name="uni00A0" unicode="&#xa0;" horiz-adv-x="512" 
 />
    <glyph glyph-name="exclamdown" unicode="&#xa1;" 
d="M649 969l-71 -314h-314l72 314h313zM453 483l-47 -524l-89 -381h-288l88 381l198 524h138z" />
    <glyph glyph-name="cent" unicode="&#xa2;" horiz-adv-x="1087" 
d="M391 -377h-131l133 377q-135 40 -207.5 146t-72.5 255q0 222 158.5 400.5t392.5 178.5q39 0 79 -5l131 364h134l-152 -399q32 -11 55 -35l15 64h217l-84 -365h-209q-5 76 -74 111l-180 -512q125 13 217 147l209 -104q-159 -277 -456 -277q-26 0 -52 2zM487 240l179 501
q-114 -7 -180 -108.5t-66 -237.5q0 -92 67 -155z" />
    <glyph glyph-name="sterling" unicode="&#xa3;" horiz-adv-x="1044" 
d="M883 365h164q-32 -182 -134 -286t-237 -104q-113 0 -199 105q-95 -98 -196 -98q-85 0 -137 52t-52 136q0 93 65.5 158t157.5 65q62 0 127 -28q6 88 -16 219h-266l45 192h188q-17 98 -17 183q0 218 111 337t306 119q161 0 254 -74t93 -202q0 -53 -18 -113h-237
q16 42 16 84q0 117 -104 117q-146 0 -146 -240q0 -80 19 -211h274l-45 -192h-229q-15 -207 -72 -305q73 -58 143 -58q99 0 142 144zM393 186q-56 76 -104 76q-37 0 -61.5 -23.5t-24.5 -58.5q0 -32 23 -53t59 -21q65 0 108 80z" />
    <glyph glyph-name="currency" unicode="&#xa4;" horiz-adv-x="1366" 
d="M137 1075l170 172l137 -141q111 68 236 68q123 0 242 -68l137 141l170 -172l-137 -139q63 -116 63 -240q0 -128 -63 -233l137 -137l-170 -170l-137 135q-122 -68 -246 -68q-125 0 -232 68l-137 -135l-170 170l137 137q-65 118 -65 244q0 123 65 229zM918 698
q0 97 -69.5 166.5t-166.5 69.5q-96 0 -166 -69.5t-70 -166.5q0 -96 70 -165.5t166 -69.5q98 0 167 69t69 166z" />
    <glyph glyph-name="yen" unicode="&#xa5;" horiz-adv-x="1280" 
d="M672 1032h297l121 142h-115l51 217h559l-49 -217h-131l-129 -142h209l-33 -139h-301l-252 -277h479l-32 -139h-490l-61 -260h143l-53 -217h-627l51 217h131l60 260h-416l35 139h403l-114 277h-289l33 139h198l-57 142h-137l51 217h577l-51 -217h-112zM887 893h-193
l60 -152z" />
    <glyph glyph-name="brokenbar" unicode="&#xa6;" horiz-adv-x="1251" 
d="M584 1391h264v-781h-264v781zM584 340h264v-780h-264v780z" />
    <glyph glyph-name="section" unicode="&#xa7;" horiz-adv-x="1044" 
d="M45 -111l238 58q-4 -88 49.5 -140.5t132.5 -52.5q63 0 105 34t42 83q0 39 -34.5 84.5t-203.5 166.5t-224.5 206t-55.5 166q0 110 77.5 207t217.5 153q-100 103 -100 238q0 144 111.5 232.5t295.5 88.5q385 0 420 -326l-242 -43q6 79 -42.5 127t-133.5 48
q-68 0 -107.5 -34.5t-39.5 -92.5q0 -39 35 -83.5t205 -160t225 -197t55 -159.5q0 -228 -295 -367q101 -103 101 -236q0 -144 -114 -236.5t-294 -92.5q-185 0 -298.5 86t-125.5 243zM451 389l202 -160q80 30 123 83t43 110q0 88 -131 186l-186 140q-156 -76 -156 -191
q0 -86 105 -168z" />
    <glyph glyph-name="dieresis" unicode="&#xa8;" 
d="M631 1251q0 60 43 103t102 43q60 0 103 -43t43 -103q0 -59 -43 -102t-103 -43q-59 0 -102 43t-43 102zM135 1251q0 60 43 103t103 43q59 0 102 -43t43 -103q0 -59 -43 -102t-102 -43q-60 0 -103 43t-43 102z" />
    <glyph glyph-name="copyright" unicode="&#xa9;" horiz-adv-x="1516" 
d="M78 729q0 316 224.5 541t541.5 225q316 0 541 -225t225 -541t-225 -541t-541 -225q-317 0 -541.5 225t-224.5 541zM1458 731q0 254 -180 433t-434 179t-434.5 -179t-180.5 -433t180.5 -435t434.5 -181q253 0 433.5 181t180.5 435zM1028 616l162 -55q-82 -258 -336 -258
q-176 0 -281.5 115t-105.5 307q0 198 105 314t284 116q248 0 334 -244l-162 -39q-52 140 -178 140q-98 0 -152.5 -74.5t-54.5 -208.5q0 -135 52.5 -210t146.5 -75q137 0 186 172z" />
    <glyph glyph-name="ordfeminine" unicode="&#xaa;" horiz-adv-x="768" 
d="M852 944l-37 -123h-291l11 47q-89 -55 -175 -55q-80 0 -133 45.5t-53 114.5q0 96 85.5 155.5t225.5 59.5q55 0 121 -19q8 29 8 51q0 83 -104 83q-64 0 -148 -41l-94 88q132 65 271 65q129 0 201 -47t72 -133q0 -27 -7 -57l-55 -234h102zM561 973l21 98q-52 12 -95 12
q-58 0 -96.5 -27t-38.5 -67q0 -27 21.5 -46t52.5 -19q61 0 135 49z" />
    <glyph glyph-name="guillemotleft" unicode="&#xab;" horiz-adv-x="1087" 
d="M221 0l-135 489l317 480h310l-348 -520l124 -449h-268zM723 0l-135 489l317 480h309l-348 -520l125 -449h-268z" />
    <glyph glyph-name="logicalnot" unicode="&#xac;" horiz-adv-x="1368" 
d="M209 1065h1128v-748h-260v488h-868v260z" />
    <glyph glyph-name="uni00AD" unicode="&#xad;" horiz-adv-x="705" 
d="M123 356l59 256h482l-60 -256h-481z" />
    <glyph glyph-name="registered" unicode="&#xae;" horiz-adv-x="1516" 
d="M78 729q0 316 224.5 541t541.5 225q316 0 541 -225t225 -541t-225 -541t-541 -225q-317 0 -541.5 225t-224.5 541zM1458 731q0 254 -180 433t-434 179t-434.5 -179t-180.5 -433t180.5 -435t434.5 -181q253 0 433.5 181t180.5 435zM1206 319h-205q-77 161 -124.5 230.5
t-81 86.5t-101.5 17h-30v-334h-166v814h399q125 0 192.5 -63t67.5 -165q0 -92 -58 -153t-163 -74v-4q54 -16 99.5 -75t170.5 -280zM664 782h145q174 0 174 113q0 111 -170 111h-149v-224z" />
    <glyph glyph-name="uni00AF" unicode="&#xaf;" horiz-adv-x="1024" 
d="M-12 1624h1048v-102h-1048v102z" />
    <glyph glyph-name="degree" unicode="&#xb0;" horiz-adv-x="811" 
d="M535 1413q142 0 244 -101t102 -243t-102 -244t-244 -102t-243.5 102t-101.5 244t101 243t244 101zM535 854q88 0 151.5 63t63.5 152q0 88 -63.5 150.5t-151.5 62.5q-89 0 -151 -62t-62 -151t62 -152t151 -63z" />
    <glyph glyph-name="plusminus" unicode="&#xb1;" horiz-adv-x="1368" 
d="M903 1001h434v-260h-434v-434h-260v434h-434v260h434v435h260v-435zM209 193h1128v-261h-1128v261z" />
    <glyph glyph-name="twosuperior" unicode="&#xb2;" 
d="M719 928l-66 -248h-491q4 82 56.5 171.5t191.5 193.5t164.5 141t25.5 69q0 41 -45 41q-90 0 -131 -163h-180q72 282 331 282q103 0 163.5 -46t60.5 -124q0 -50 -34 -100.5t-194 -156t-225 -187.5h189l28 127h156z" />
    <glyph glyph-name="threesuperior" unicode="&#xb3;" 
d="M188 926h178q-8 -31 -8 -56q0 -79 72 -79q42 0 73 39.5t31 95.5q0 71 -100 71h-29l29 119q172 0 172 135q0 45 -49 45q-68 0 -94 -100h-178q50 219 278 219q109 0 173.5 -48.5t64.5 -129.5q0 -144 -174 -186q104 -60 104 -152q0 -94 -84.5 -160.5t-206.5 -66.5
q-116 0 -187 53t-71 146q0 26 6 55z" />
    <glyph glyph-name="acute" unicode="&#xb4;" 
d="M475 1071h-162l185 361h356z" />
    <glyph glyph-name="uni00B5" unicode="&#xb5;" horiz-adv-x="1260" 
d="M256 969h287l-105 -523q-7 -38 -7 -71q0 -87 48.5 -134.5t116.5 -47.5q174 0 233 282l105 494h283l-203 -969h-258l22 94l-4 4q-107 -123 -215 -123q-123 0 -201 138l-114 -553h-287z" />
    <glyph glyph-name="paragraph" unicode="&#xb6;" horiz-adv-x="1130" 
d="M721 -434h-238v1003q-189 15 -291 122.5t-102 281.5q0 192 116.5 305t321.5 113h693v-261h-113v-1564h-238v1564h-149v-1564z" />
    <glyph glyph-name="uni00B7" unicode="&#xb7;" 
d="M242 555l71 313h314l-72 -313h-313z" />
    <glyph glyph-name="uni00B7" unicode="&#x2219;" 
d="M242 555l71 313h314l-72 -313h-313z" />
    <glyph glyph-name="cedilla" unicode="&#xb8;" 
d="M221 18h139l-34 -100q157 -23 157 -151q0 -96 -93 -154.5t-249 -58.5q-85 0 -204 18l38 92q54 -12 117 -12q137 0 137 84q0 54 -86 65z" />
    <glyph glyph-name="onesuperior" unicode="&#xb9;" 
d="M213 680l27 119h98l133 485h-92l27 119h299l-164 -604h84l-27 -119h-385z" />
    <glyph glyph-name="ordmasculine" unicode="&#xba;" horiz-adv-x="768" 
d="M483 805q-121 0 -196.5 67t-75.5 172q0 156 112.5 263.5t274.5 107.5q121 0 197.5 -70t76.5 -182q0 -151 -112.5 -254.5t-276.5 -103.5zM580 1284q-71 0 -122.5 -71.5t-51.5 -172.5q0 -108 94 -108q69 0 124.5 74.5t55.5 171.5q0 48 -27.5 77t-72.5 29z" />
    <glyph glyph-name="guillemotright" unicode="&#xbb;" horiz-adv-x="1087" 
d="M958 969l136 -490l-318 -479h-309l348 520l-125 449h268zM457 969l135 -490l-318 -479h-309l348 520l-125 449h269z" />
    <glyph glyph-name="onequarter" unicode="&#xbc;" horiz-adv-x="1898" 
d="M174 680l27 119h98l133 485h-92l27 119h299l-164 -604h84l-27 -119h-385zM145 0l1334 1391h182l-1333 -1391h-183zM1124 0l25 109h86l18 86h-243l-11 124l404 416h180l-123 -436h127l-24 -104h-127l-19 -86h72l-27 -109h-338zM1278 299l55 217l-211 -217h156z" />
    <glyph glyph-name="onehalf" unicode="&#xbd;" horiz-adv-x="1898" 
d="M174 680l27 119h98l133 485h-92l27 119h299l-164 -604h84l-27 -119h-385zM145 0l1334 1391h182l-1333 -1391h-183zM1591 248l-65 -248h-492q4 82 56.5 171.5t191.5 193.5t165 141t26 69q0 41 -46 41q-89 0 -131 -163h-180q73 282 332 282q102 0 162.5 -46t60.5 -124
q0 -50 -34 -100.5t-193.5 -156t-224.5 -187.5h188l29 127h155z" />
    <glyph glyph-name="threequarters" unicode="&#xbe;" horiz-adv-x="1898" 
d="M188 926h178q-8 -31 -8 -56q0 -79 72 -79q42 0 73 39.5t31 95.5q0 71 -100 71h-29l29 119q172 0 172 135q0 45 -49 45q-68 0 -94 -100h-178q50 219 278 219q109 0 173.5 -48.5t64.5 -129.5q0 -144 -174 -186q104 -60 104 -152q0 -94 -84.5 -160.5t-206.5 -66.5
q-116 0 -187 53t-71 146q0 26 6 55zM188 0l1334 1391h182l-1333 -1391h-183zM1167 0l25 109h86l18 86h-243l-11 124l404 416h180l-123 -436h127l-25 -104h-126l-19 -86h72l-27 -109h-338zM1321 299l55 217l-211 -217h156z" />
    <glyph glyph-name="questiondown" unicode="&#xbf;" horiz-adv-x="1110" 
d="M928 969l-72 -314h-313l71 314h314zM733 494l-33 -357q-154 9 -253 -57t-99 -166q0 -70 49 -115t125 -45q154 0 201 156h291q-130 -350 -537 -350q-199 0 -312.5 97t-113.5 257q0 168 128.5 291t355.5 137l65 152h133z" />
    <glyph glyph-name="Agrave" unicode="&#xc0;" horiz-adv-x="1323" 
d="M-76 0l51 217h134l526 957h-135l49 217h805l-49 -217h-119l41 -957h143l-51 -217h-580l52 217h129v234h-422l-117 -234h129l-51 -217h-535zM911 649l-16 537h-14l-279 -537h309zM965 1495l-379 361h356l184 -361h-161z" />
    <glyph glyph-name="Aacute" unicode="&#xc1;" horiz-adv-x="1323" 
d="M-76 0l51 217h134l526 957h-135l49 217h805l-49 -217h-119l41 -957h143l-51 -217h-580l52 217h129v234h-422l-117 -234h129l-51 -217h-535zM911 649l-16 537h-14l-279 -537h309zM930 1495h-162l185 361h356z" />
    <glyph glyph-name="Acircumflex" unicode="&#xc2;" horiz-adv-x="1323" 
d="M-76 0l51 217h134l526 957h-135l49 217h805l-49 -217h-119l41 -957h143l-51 -217h-580l52 217h129v234h-422l-117 -234h129l-51 -217h-535zM911 649l-16 537h-14l-279 -537h309zM518 1487l347 373h280l148 -373h-123l-178 229l-340 -229h-134z" />
    <glyph glyph-name="Atilde" unicode="&#xc3;" horiz-adv-x="1323" 
d="M-76 0l51 217h134l526 957h-135l49 217h805l-49 -217h-119l41 -957h143l-51 -217h-580l52 217h129v234h-422l-117 -234h129l-51 -217h-535zM911 649l-16 537h-14l-279 -537h309zM1221 1833h145q7 -145 -62 -234.5t-173 -89.5q-55 0 -163 56.5t-155 56.5q-77 0 -77 -115
h-150q0 158 69 241t162 83q61 0 172.5 -55.5t145.5 -55.5q77 0 86 113z" />
    <glyph glyph-name="Adieresis" unicode="&#xc4;" horiz-adv-x="1323" 
d="M-76 0l51 217h134l526 957h-135l49 217h805l-49 -217h-119l41 -957h143l-51 -217h-580l52 217h129v234h-422l-117 -234h129l-51 -217h-535zM911 649l-16 537h-14l-279 -537h309zM1086 1675q0 60 43 103t102 43q60 0 103 -43t43 -103q0 -59 -43 -102t-103 -43
q-59 0 -102 43t-43 102zM590 1675q0 60 43 103t103 43q59 0 102 -43t43 -103q0 -59 -43 -102t-102 -43q-60 0 -103 43t-43 102z" />
    <glyph glyph-name="Aring" unicode="&#xc5;" horiz-adv-x="1323" 
d="M-76 0l51 217h134l526 957h-135l49 217h805l-49 -217h-119l41 -957h143l-51 -217h-580l52 217h129v234h-422l-117 -234h129l-51 -217h-535zM911 649l-16 537h-14l-279 -537h309zM765 1692q0 87 62 149t149 62t149 -62t62 -149t-62 -149t-149 -62t-149 62t-62 149z
M1091 1692q0 47 -33.5 80.5t-81.5 33.5q-47 0 -80.5 -33.5t-33.5 -80.5q0 -48 33.5 -81.5t80.5 -33.5q48 0 81.5 33.5t33.5 81.5z" />
    <glyph glyph-name="AE" unicode="&#xc6;" horiz-adv-x="1898" 
d="M-98 0l51 217h92l614 957h-139l51 217h1504l-103 -445h-225l51 228h-424l-86 -377h326l-47 -201h-326l-86 -379h432l49 219h217l-100 -436h-1145l51 217h148l86 379h-338l-233 -379h131l-50 -217h-501zM940 797l109 420h-121l-250 -420h262z" />
    <glyph glyph-name="Ccedilla" unicode="&#xc7;" horiz-adv-x="1579" 
d="M614 -199l70 197q-239 47 -377.5 211.5t-138.5 386.5q0 329 277.5 573t656.5 244q254 0 383 -156l31 134h223l-105 -453h-223q-37 229 -313 229q-223 0 -392 -176.5t-169 -408.5q0 -150 91.5 -246t233.5 -96q242 0 445 241l223 -164q-131 -162 -310 -248.5t-374 -86.5
h-27l-22 -64q157 -23 157 -151q0 -96 -93 -154.5t-249 -58.5q-85 0 -204 18l38 92q54 -12 117 -12q137 0 137 84q0 54 -86 65z" />
    <glyph glyph-name="Egrave" unicode="&#xc8;" horiz-adv-x="1300" 
d="M18 0l52 217h131l221 957h-131l49 217h1137l-103 -443h-260l51 226h-393l-80 -357h326l-51 -217h-326l-88 -383h401l52 219h251l-102 -436h-1137zM978 1495l-379 361h356l184 -361h-161z" />
    <glyph glyph-name="Eacute" unicode="&#xc9;" horiz-adv-x="1300" 
d="M18 0l52 217h131l221 957h-131l49 217h1137l-103 -443h-260l51 226h-393l-80 -357h326l-51 -217h-326l-88 -383h401l52 219h251l-102 -436h-1137zM918 1495h-162l185 361h356z" />
    <glyph glyph-name="Ecircumflex" unicode="&#xca;" horiz-adv-x="1300" 
d="M18 0l52 217h131l221 957h-131l49 217h1137l-103 -443h-260l51 226h-393l-80 -357h326l-51 -217h-326l-88 -383h401l52 219h251l-102 -436h-1137zM506 1487l347 373h280l148 -373h-123l-178 229l-340 -229h-134z" />
    <glyph glyph-name="Edieresis" unicode="&#xcb;" horiz-adv-x="1300" 
d="M18 0l52 217h131l221 957h-131l49 217h1137l-103 -443h-260l51 226h-393l-80 -357h326l-51 -217h-326l-88 -383h401l52 219h251l-102 -436h-1137zM1074 1675q0 60 43 103t102 43q60 0 103 -43t43 -103q0 -59 -43 -102t-103 -43q-59 0 -102 43t-43 102zM578 1675
q0 60 43 103t103 43q59 0 102 -43t43 -103q0 -59 -43 -102t-102 -43q-60 0 -103 43t-43 102z" />
    <glyph glyph-name="Igrave" unicode="&#xcc;" horiz-adv-x="811" 
d="M-18 0l49 217h176l221 957h-197l50 217h702l-49 -217h-152l-221 -957h201l-51 -217h-729zM652 1495l-379 361h356l184 -361h-161z" />
    <glyph glyph-name="Iacute" unicode="&#xcd;" horiz-adv-x="811" 
d="M-18 0l49 217h176l221 957h-197l50 217h702l-49 -217h-152l-221 -957h201l-51 -217h-729zM674 1495h-162l185 361h356z" />
    <glyph glyph-name="Icircumflex" unicode="&#xce;" horiz-adv-x="811" 
d="M-18 0l49 217h176l221 957h-197l50 217h702l-49 -217h-152l-221 -957h201l-51 -217h-729zM262 1487l347 373h280l148 -373h-123l-178 229l-340 -229h-134z" />
    <glyph glyph-name="Idieresis" unicode="&#xcf;" horiz-adv-x="811" 
d="M-18 0l49 217h176l221 957h-197l50 217h702l-49 -217h-152l-221 -957h201l-51 -217h-729zM830 1675q0 60 43 103t102 43q60 0 103 -43t43 -103q0 -59 -43 -102t-103 -43q-59 0 -102 43t-43 102zM334 1675q0 60 43 103t103 43q59 0 102 -43t43 -103q0 -59 -43 -102
t-102 -43q-60 0 -103 43t-43 102z" />
    <glyph glyph-name="Eth" unicode="&#xd0;" horiz-adv-x="1556" 
d="M-16 0l51 217h168l88 383h-201l49 217h201l82 357h-168l51 217h574q327 0 498 -166t171 -447q0 -341 -212 -559.5t-554 -218.5h-798zM555 217h211q200 0 310 198t110 429q0 147 -89 238.5t-239 91.5h-84l-82 -357h258l-49 -217h-258z" />
    <glyph glyph-name="Ntilde" unicode="&#xd1;" horiz-adv-x="1622" 
d="M20 0l52 217h131l219 957h-131l51 217h518l318 -963l170 746h-131l51 217h501l-51 -217h-131l-272 -1186h-305l-363 1120l-203 -891h146l-51 -217h-519zM1371 1833h145q7 -145 -62 -234.5t-173 -89.5q-55 0 -163 56.5t-155 56.5q-77 0 -77 -115h-150q0 158 69 241t162 83
q61 0 172.5 -55.5t145.5 -55.5q77 0 86 113z" />
    <glyph glyph-name="Ograve" unicode="&#xd2;" horiz-adv-x="1686" 
d="M782 -18q-263 0 -436.5 164t-173.5 413q0 340 257 599t630 259q288 0 458.5 -167.5t170.5 -411.5q0 -357 -263.5 -606.5t-642.5 -249.5zM1319 874q0 131 -82.5 214t-212.5 83q-213 0 -348 -203t-135 -433q0 -144 78.5 -226t216.5 -82q225 0 354 211t129 436zM1170 1495
l-379 361h356l184 -361h-161z" />
    <glyph glyph-name="Oacute" unicode="&#xd3;" horiz-adv-x="1686" 
d="M782 -18q-263 0 -436.5 164t-173.5 413q0 340 257 599t630 259q288 0 458.5 -167.5t170.5 -411.5q0 -357 -263.5 -606.5t-642.5 -249.5zM1319 874q0 131 -82.5 214t-212.5 83q-213 0 -348 -203t-135 -433q0 -144 78.5 -226t216.5 -82q225 0 354 211t129 436zM1110 1495
h-162l185 361h356z" />
    <glyph glyph-name="Ocircumflex" unicode="&#xd4;" horiz-adv-x="1686" 
d="M782 -18q-263 0 -436.5 164t-173.5 413q0 340 257 599t630 259q288 0 458.5 -167.5t170.5 -411.5q0 -357 -263.5 -606.5t-642.5 -249.5zM1319 874q0 131 -82.5 214t-212.5 83q-213 0 -348 -203t-135 -433q0 -144 78.5 -226t216.5 -82q225 0 354 211t129 436zM698 1487
l347 373h280l148 -373h-123l-178 229l-340 -229h-134z" />
    <glyph glyph-name="Otilde" unicode="&#xd5;" horiz-adv-x="1686" 
d="M782 -18q-263 0 -436.5 164t-173.5 413q0 340 257 599t630 259q288 0 458.5 -167.5t170.5 -411.5q0 -357 -263.5 -606.5t-642.5 -249.5zM1319 874q0 131 -82.5 214t-212.5 83q-213 0 -348 -203t-135 -433q0 -144 78.5 -226t216.5 -82q225 0 354 211t129 436zM1401 1833
h145q7 -145 -62 -234.5t-173 -89.5q-55 0 -163 56.5t-155 56.5q-77 0 -77 -115h-150q0 158 69 241t162 83q61 0 172.5 -55.5t145.5 -55.5q77 0 86 113z" />
    <glyph glyph-name="Odieresis" unicode="&#xd6;" horiz-adv-x="1686" 
d="M782 -18q-263 0 -436.5 164t-173.5 413q0 340 257 599t630 259q288 0 458.5 -167.5t170.5 -411.5q0 -357 -263.5 -606.5t-642.5 -249.5zM1319 874q0 131 -82.5 214t-212.5 83q-213 0 -348 -203t-135 -433q0 -144 78.5 -226t216.5 -82q225 0 354 211t129 436zM1266 1675
q0 60 43 103t102 43q60 0 103 -43t43 -103q0 -59 -43 -102t-103 -43q-59 0 -102 43t-43 102zM770 1675q0 60 43 103t103 43q59 0 102 -43t43 -103q0 -59 -43 -102t-102 -43q-60 0 -103 43t-43 102z" />
    <glyph glyph-name="multiply" unicode="&#xd7;" horiz-adv-x="1366" 
d="M958 680l353 -352l-183 -183l-354 355l-354 -355l-182 183l352 352l-357 356l185 185l356 -357l356 357l185 -185z" />
    <glyph glyph-name="Oslash" unicode="&#xd8;" horiz-adv-x="1686" 
d="M1405 1339l92 107l109 -90l-90 -101q172 -175 172 -413q0 -359 -263.5 -609.5t-642.5 -250.5q-60 0 -110.5 7.5t-103 28t-107.5 43.5l-129 -147l-103 86l121 141q-178 164 -178 418q0 339 255.5 598.5t637.5 259.5q200 0 340 -78zM569 389l639 727q-79 56 -185 56
q-206 0 -343.5 -200.5t-137.5 -428.5q0 -91 27 -154zM1294 1006l-641 -727q74 -53 177 -53q228 0 358.5 209.5t130.5 427.5q0 82 -25 143z" />
    <glyph glyph-name="Ugrave" unicode="&#xd9;" horiz-adv-x="1450" 
d="M325 1174l49 217h604l-49 -217h-143l-162 -693q-11 -48 -11 -88q0 -172 191 -172q107 0 175 76.5t108 249.5l145 627h-131l49 217h478l-50 -217h-106l-162 -701q-58 -250 -198.5 -373t-380.5 -123q-186 0 -326.5 90t-140.5 296q0 79 22 176l146 635h-107zM991 1495
l-379 361h356l184 -361h-161z" />
    <glyph glyph-name="Uacute" unicode="&#xda;" horiz-adv-x="1450" 
d="M325 1174l49 217h604l-49 -217h-143l-162 -693q-11 -48 -11 -88q0 -172 191 -172q107 0 175 76.5t108 249.5l145 627h-131l49 217h478l-50 -217h-106l-162 -701q-58 -250 -198.5 -373t-380.5 -123q-186 0 -326.5 90t-140.5 296q0 79 22 176l146 635h-107zM1013 1495h-162
l185 361h356z" />
    <glyph glyph-name="Ucircumflex" unicode="&#xdb;" horiz-adv-x="1450" 
d="M325 1174l49 217h604l-49 -217h-143l-162 -693q-11 -48 -11 -88q0 -172 191 -172q107 0 175 76.5t108 249.5l145 627h-131l49 217h478l-50 -217h-106l-162 -701q-58 -250 -198.5 -373t-380.5 -123q-186 0 -326.5 90t-140.5 296q0 79 22 176l146 635h-107zM602 1487
l347 373h280l148 -373h-123l-178 229l-340 -229h-134z" />
    <glyph glyph-name="Udieresis" unicode="&#xdc;" horiz-adv-x="1450" 
d="M325 1174l49 217h604l-49 -217h-143l-162 -693q-11 -48 -11 -88q0 -172 191 -172q107 0 175 76.5t108 249.5l145 627h-131l49 217h478l-50 -217h-106l-162 -701q-58 -250 -198.5 -373t-380.5 -123q-186 0 -326.5 90t-140.5 296q0 79 22 176l146 635h-107zM1169 1675
q0 60 43 103t102 43q60 0 103 -43t43 -103q0 -59 -43 -102t-103 -43q-59 0 -102 43t-43 102zM673 1675q0 60 43 103t103 43q59 0 102 -43t43 -103q0 -59 -43 -102t-102 -43q-60 0 -103 43t-43 102z" />
    <glyph glyph-name="Yacute" unicode="&#xdd;" horiz-adv-x="1280" 
d="M258 0l51 217h131l88 383l-235 574h-137l51 217h577l-51 -217h-112l141 -386l328 386h-115l51 217h559l-49 -217h-131l-520 -574l-90 -383h143l-53 -217h-627zM907 1495h-162l185 361h356z" />
    <glyph glyph-name="Thorn" unicode="&#xde;" horiz-adv-x="1323" 
d="M23 0l49 217h131l221 957h-156l51 217h676l-51 -217h-168l-14 -66h96q506 0 506 -354q0 -209 -142 -340t-454 -131h-199l-14 -66h168l-49 -217h-651zM614 483h121q130 0 198 78.5t68 196.5q0 149 -190 149h-96z" />
    <glyph glyph-name="germandbls" unicode="&#xdf;" horiz-adv-x="1260" 
d="M12 0l47 207h107l190 823q47 203 166 292t332 89q218 0 332 -82.5t114 -230.5q0 -116 -82 -204t-231 -118v-4q242 -72 242 -323q0 -192 -130 -326.5t-315 -134.5q-76 0 -176 35l47 200q49 -18 84 -18q89 0 144 92.5t55 206.5q0 77 -42 127t-112 50q-17 0 -34 -3l49 209
q103 0 158 50.5t55 123.5q0 67 -47 111.5t-119 44.5q-149 0 -187 -162l-196 -848h84l-47 -207h-488z" />
    <glyph glyph-name="agrave" unicode="&#xe0;" horiz-adv-x="1174" 
d="M1135 207l-60 -207h-446l18 78q-141 -90 -262 -90q-126 0 -208.5 76t-82.5 192q0 159 130 257.5t362 98.5q52 0 178 -28l16 80q3 12 3 23q0 52 -48.5 84t-120.5 32q-97 0 -227 -66l-147 146q206 110 419 110q198 0 308.5 -79t110.5 -217q0 -42 -11 -89l-94 -401h162z
M688 258l37 160q-72 20 -147 20q-93 0 -151 -44t-58 -111q0 -46 33.5 -77.5t80.5 -31.5q96 0 205 84zM781 1071l-379 361h356l184 -361h-161z" />
    <glyph glyph-name="aacute" unicode="&#xe1;" horiz-adv-x="1174" 
d="M1135 207l-60 -207h-446l18 78q-141 -90 -262 -90q-126 0 -208.5 76t-82.5 192q0 159 130 257.5t362 98.5q52 0 178 -28l16 80q3 12 3 23q0 52 -48.5 84t-120.5 32q-97 0 -227 -66l-147 146q206 110 419 110q198 0 308.5 -79t110.5 -217q0 -42 -11 -89l-94 -401h162z
M688 258l37 160q-72 20 -147 20q-93 0 -151 -44t-58 -111q0 -46 33.5 -77.5t80.5 -31.5q96 0 205 84zM721 1071h-162l185 361h356z" />
    <glyph glyph-name="acircumflex" unicode="&#xe2;" horiz-adv-x="1174" 
d="M1135 207l-60 -207h-446l18 78q-141 -90 -262 -90q-126 0 -208.5 76t-82.5 192q0 159 130 257.5t362 98.5q52 0 178 -28l16 80q3 12 3 23q0 52 -48.5 84t-120.5 32q-97 0 -227 -66l-147 146q206 110 419 110q198 0 308.5 -79t110.5 -217q0 -42 -11 -89l-94 -401h162z
M688 258l37 160q-72 20 -147 20q-93 0 -151 -44t-58 -111q0 -46 33.5 -77.5t80.5 -31.5q96 0 205 84zM309 1063l347 373h280l148 -373h-123l-178 229l-340 -229h-134z" />
    <glyph glyph-name="atilde" unicode="&#xe3;" horiz-adv-x="1174" 
d="M1135 207l-60 -207h-446l18 78q-141 -90 -262 -90q-126 0 -208.5 76t-82.5 192q0 159 130 257.5t362 98.5q52 0 178 -28l16 80q3 12 3 23q0 52 -48.5 84t-120.5 32q-97 0 -227 -66l-147 146q206 110 419 110q198 0 308.5 -79t110.5 -217q0 -42 -11 -89l-94 -401h162z
M688 258l37 160q-72 20 -147 20q-93 0 -151 -44t-58 -111q0 -46 33.5 -77.5t80.5 -31.5q96 0 205 84zM1012 1409h145q7 -145 -62 -234.5t-173 -89.5q-55 0 -163 56.5t-155 56.5q-77 0 -77 -115h-150q0 158 69 241t162 83q61 0 172.5 -55.5t145.5 -55.5q77 0 86 113z" />
    <glyph glyph-name="adieresis" unicode="&#xe4;" horiz-adv-x="1174" 
d="M1135 207l-60 -207h-446l18 78q-141 -90 -262 -90q-126 0 -208.5 76t-82.5 192q0 159 130 257.5t362 98.5q52 0 178 -28l16 80q3 12 3 23q0 52 -48.5 84t-120.5 32q-97 0 -227 -66l-147 146q206 110 419 110q198 0 308.5 -79t110.5 -217q0 -42 -11 -89l-94 -401h162z
M688 258l37 160q-72 20 -147 20q-93 0 -151 -44t-58 -111q0 -46 33.5 -77.5t80.5 -31.5q96 0 205 84zM877 1251q0 60 43 103t102 43q60 0 103 -43t43 -103q0 -59 -43 -102t-103 -43q-59 0 -102 43t-43 102zM381 1251q0 60 43 103t103 43q59 0 102 -43t43 -103
q0 -59 -43 -102t-102 -43q-60 0 -103 43t-43 102z" />
    <glyph glyph-name="aring" unicode="&#xe5;" horiz-adv-x="1174" 
d="M1135 207l-60 -207h-446l18 78q-141 -90 -262 -90q-126 0 -208.5 76t-82.5 192q0 159 130 257.5t362 98.5q52 0 178 -28l16 80q3 12 3 23q0 52 -48.5 84t-120.5 32q-97 0 -227 -66l-147 146q206 110 419 110q198 0 308.5 -79t110.5 -217q0 -42 -11 -89l-94 -401h162z
M688 258l37 160q-72 20 -147 20q-93 0 -151 -44t-58 -111q0 -46 33.5 -77.5t80.5 -31.5q96 0 205 84zM559 1268q0 87 62 149t149 62t149 -62t62 -149t-62 -149t-149 -62t-149 62t-62 149zM885 1268q0 47 -33.5 80.5t-81.5 33.5q-47 0 -80.5 -33.5t-33.5 -80.5
q0 -48 33.5 -81.5t80.5 -33.5q48 0 81.5 33.5t33.5 81.5z" />
    <glyph glyph-name="ae" unicode="&#xe6;" horiz-adv-x="1729" 
d="M1391 291l217 -101q-172 -219 -445 -219q-246 0 -372 183q-222 -183 -424 -183q-127 0 -207 78.5t-80 202.5q0 158 129 262t328 104q101 0 208 -28l17 72q3 14 3 27q0 53 -50 85.5t-123 32.5q-109 0 -223 -64l-148 148q195 102 414 102q246 0 346 -102q143 102 303 102
q182 0 306 -120t124 -307q0 -69 -18 -142h-682q-9 -37 -9 -71q0 -85 53.5 -137t135.5 -52q127 0 197 127zM1047 582h387q5 27 5 53q0 75 -46 119.5t-115 44.5q-76 0 -139 -57.5t-92 -159.5zM664 233l43 191q-80 20 -136 20q-95 0 -155 -48t-60 -126q0 -49 32 -79.5t83 -30.5
q112 0 193 73z" />
    <glyph glyph-name="ccedilla" unicode="&#xe7;" horiz-adv-x="1087" 
d="M369 -199l65 185q-153 34 -237 145t-84 270q0 238 166.5 408t398.5 170q129 0 233 -74l15 64h217l-84 -363h-217q-11 139 -160 139q-110 0 -186 -100.5t-76 -249.5q0 -82 46.5 -134t119.5 -52q134 0 223 145l213 -104q-165 -271 -453 -279l-18 -53q158 -23 158 -151
q0 -96 -93.5 -154.5t-248.5 -58.5q-86 0 -205 18l39 92q54 -12 116 -12q138 0 138 84q0 54 -86 65z" />
    <glyph glyph-name="egrave" unicode="&#xe8;" horiz-adv-x="1130" 
d="M782 289l219 -99q-146 -219 -436 -219q-202 0 -322 114.5t-120 305.5q0 245 161 423.5t398 178.5q184 0 307 -116.5t123 -314.5q0 -66 -14 -138h-688q-6 -33 -6 -63q0 -92 49.5 -144.5t130.5 -52.5q125 0 198 125zM446 582h383q4 22 4 44q0 78 -46.5 125.5t-114.5 47.5
q-154 0 -226 -217zM761 1071l-379 361h356l184 -361h-161z" />
    <glyph glyph-name="eacute" unicode="&#xe9;" horiz-adv-x="1130" 
d="M782 289l219 -99q-146 -219 -436 -219q-202 0 -322 114.5t-120 305.5q0 245 161 423.5t398 178.5q184 0 307 -116.5t123 -314.5q0 -66 -14 -138h-688q-6 -33 -6 -63q0 -92 49.5 -144.5t130.5 -52.5q125 0 198 125zM446 582h383q4 22 4 44q0 78 -46.5 125.5t-114.5 47.5
q-154 0 -226 -217zM701 1071h-162l185 361h356z" />
    <glyph glyph-name="ecircumflex" unicode="&#xea;" horiz-adv-x="1130" 
d="M782 289l219 -99q-146 -219 -436 -219q-202 0 -322 114.5t-120 305.5q0 245 161 423.5t398 178.5q184 0 307 -116.5t123 -314.5q0 -66 -14 -138h-688q-6 -33 -6 -63q0 -92 49.5 -144.5t130.5 -52.5q125 0 198 125zM446 582h383q4 22 4 44q0 78 -46.5 125.5t-114.5 47.5
q-154 0 -226 -217zM289 1063l347 373h280l148 -373h-123l-178 229l-340 -229h-134z" />
    <glyph glyph-name="edieresis" unicode="&#xeb;" horiz-adv-x="1130" 
d="M782 289l219 -99q-146 -219 -436 -219q-202 0 -322 114.5t-120 305.5q0 245 161 423.5t398 178.5q184 0 307 -116.5t123 -314.5q0 -66 -14 -138h-688q-6 -33 -6 -63q0 -92 49.5 -144.5t130.5 -52.5q125 0 198 125zM446 582h383q4 22 4 44q0 78 -46.5 125.5t-114.5 47.5
q-154 0 -226 -217zM856 1251q0 60 43 103t102 43q60 0 103 -43t43 -103q0 -59 -43 -102t-103 -43q-59 0 -102 43t-43 102zM360 1251q0 60 43 103t103 43q59 0 102 -43t43 -103q0 -59 -43 -102t-102 -43q-60 0 -103 43t-43 102z" />
    <glyph glyph-name="igrave" unicode="&#xec;" 
d="M27 0l47 207h106l129 555h-131l47 207h428l-176 -762h131l-47 -207h-534zM412 1071l-379 361h356l184 -361h-161z" />
    <glyph glyph-name="iacute" unicode="&#xed;" 
d="M27 0l47 207h106l129 555h-131l47 207h428l-176 -762h131l-47 -207h-534zM475 1071h-162l185 361h356z" />
    <glyph glyph-name="icircumflex" unicode="&#xee;" 
d="M27 0l47 207h106l129 555h-131l47 207h428l-176 -762h131l-47 -207h-534zM63 1063l347 373h280l148 -373h-123l-178 229l-340 -229h-134z" />
    <glyph glyph-name="idieresis" unicode="&#xef;" 
d="M27 0l47 207h106l129 555h-131l47 207h428l-176 -762h131l-47 -207h-534zM631 1251q0 60 43 103t102 43q60 0 103 -43t43 -103q0 -59 -43 -102t-103 -43q-59 0 -102 43t-43 102zM135 1251q0 60 43 103t103 43q59 0 102 -43t43 -103q0 -59 -43 -102t-102 -43
q-60 0 -103 43t-43 102z" />
    <glyph glyph-name="eth" unicode="&#xf0;" horiz-adv-x="1300" 
d="M1231 1311l-219 -86q96 -125 145 -277.5t49 -279.5q0 -271 -166 -481t-458 -210q-182 0 -298 118t-116 298q0 245 175.5 422.5t399.5 177.5q90 0 162 -53l4 4q-34 88 -123 193l-221 -86l-121 102l242 94q-59 56 -104 80l219 86q61 -36 108 -78l201 78zM737 780
q-123 0 -195.5 -136.5t-72.5 -281.5q0 -76 40 -120.5t105 -44.5q122 0 196.5 135.5t74.5 273.5q0 77 -41 125.5t-107 48.5z" />
    <glyph glyph-name="ntilde" unicode="&#xf1;" horiz-adv-x="1237" 
d="M6 0l47 207h107l129 555h-146l47 207h443l-29 -121q138 85 201.5 109t132.5 24q98 0 160.5 -62.5t62.5 -165.5q0 -41 -10 -85l-107 -461h132l-48 -207h-428l142 612q7 30 7 53q0 83 -71 83q-73 0 -221 -107l-100 -434h123l-48 -207h-526zM1045 1409h145
q7 -145 -62 -234.5t-173 -89.5q-55 0 -163 56.5t-155 56.5q-77 0 -77 -115h-150q0 158 69 241t162 83q61 0 172.5 -55.5t145.5 -55.5q77 0 86 113z" />
    <glyph glyph-name="ograve" unicode="&#xf2;" horiz-adv-x="1174" 
d="M537 -29q-187 0 -303.5 112.5t-116.5 291.5q0 260 172.5 439t423.5 179q196 0 309 -124.5t113 -299.5q0 -249 -171.5 -423.5t-426.5 -174.5zM686 776q-123 0 -195.5 -131.5t-72.5 -279.5q0 -81 38 -129t103 -48q121 0 198 131t77 279q0 81 -40 129.5t-108 48.5zM781 1071
l-379 361h356l184 -361h-161z" />
    <glyph glyph-name="oacute" unicode="&#xf3;" horiz-adv-x="1174" 
d="M537 -29q-187 0 -303.5 112.5t-116.5 291.5q0 260 172.5 439t423.5 179q196 0 309 -124.5t113 -299.5q0 -249 -171.5 -423.5t-426.5 -174.5zM686 776q-123 0 -195.5 -131.5t-72.5 -279.5q0 -81 38 -129t103 -48q121 0 198 131t77 279q0 81 -40 129.5t-108 48.5zM721 1071
h-162l185 361h356z" />
    <glyph glyph-name="ocircumflex" unicode="&#xf4;" horiz-adv-x="1174" 
d="M537 -29q-187 0 -303.5 112.5t-116.5 291.5q0 260 172.5 439t423.5 179q196 0 309 -124.5t113 -299.5q0 -249 -171.5 -423.5t-426.5 -174.5zM686 776q-123 0 -195.5 -131.5t-72.5 -279.5q0 -81 38 -129t103 -48q121 0 198 131t77 279q0 81 -40 129.5t-108 48.5zM309 1063
l347 373h280l148 -373h-123l-178 229l-340 -229h-134z" />
    <glyph glyph-name="otilde" unicode="&#xf5;" horiz-adv-x="1174" 
d="M537 -29q-187 0 -303.5 112.5t-116.5 291.5q0 260 172.5 439t423.5 179q196 0 309 -124.5t113 -299.5q0 -249 -171.5 -423.5t-426.5 -174.5zM686 776q-123 0 -195.5 -131.5t-72.5 -279.5q0 -81 38 -129t103 -48q121 0 198 131t77 279q0 81 -40 129.5t-108 48.5z
M1012 1409h145q7 -145 -62 -234.5t-173 -89.5q-55 0 -163 56.5t-155 56.5q-77 0 -77 -115h-150q0 158 69 241t162 83q61 0 172.5 -55.5t145.5 -55.5q77 0 86 113z" />
    <glyph glyph-name="odieresis" unicode="&#xf6;" horiz-adv-x="1174" 
d="M537 -29q-187 0 -303.5 112.5t-116.5 291.5q0 260 172.5 439t423.5 179q196 0 309 -124.5t113 -299.5q0 -249 -171.5 -423.5t-426.5 -174.5zM686 776q-123 0 -195.5 -131.5t-72.5 -279.5q0 -81 38 -129t103 -48q121 0 198 131t77 279q0 81 -40 129.5t-108 48.5zM877 1251
q0 60 43 103t102 43q60 0 103 -43t43 -103q0 -59 -43 -102t-103 -43q-59 0 -102 43t-43 102zM381 1251q0 60 43 103t103 43q59 0 102 -43t43 -103q0 -59 -43 -102t-102 -43q-60 0 -103 43t-43 102z" />
    <glyph glyph-name="divide" unicode="&#xf7;" horiz-adv-x="1368" 
d="M621 1120q0 63 44 107.5t107 44.5t108.5 -44.5t45.5 -107.5q0 -62 -45.5 -107.5t-108.5 -45.5q-62 0 -106.5 45t-44.5 108zM209 821h1128v-260h-1128v260zM621 264q0 63 44 107.5t107 44.5t108.5 -44.5t45.5 -107.5q0 -62 -45.5 -107.5t-108.5 -45.5q-62 0 -106.5 45
t-44.5 108z" />
    <glyph glyph-name="oslash" unicode="&#xf8;" horiz-adv-x="1174" 
d="M123 -12l96 114q-102 111 -102 283q0 254 173.5 431t422.5 177q131 0 223 -55l100 117l92 -82l-98 -115q105 -126 105 -287q0 -239 -168.5 -419.5t-427.5 -180.5q-134 0 -220 54l-100 -121zM418 332l354 413q-42 31 -93 31q-123 0 -198 -149t-63 -295zM834 629l-355 -416
q33 -24 79 -24q108 0 192 120.5t84 319.5z" />
    <glyph glyph-name="ugrave" unicode="&#xf9;" horiz-adv-x="1237" 
d="M1165 207l-49 -207h-428l31 127q-203 -137 -350 -137q-83 0 -144 59.5t-61 138.5q0 71 24 177l93 397h-131l49 207h428l-146 -625q-6 -25 -6 -46q0 -75 62 -75q37 0 104 32t125 81l98 426h-131l49 207h428l-176 -762h131zM732 1071l-379 361h356l184 -361h-161z" />
    <glyph glyph-name="uacute" unicode="&#xfa;" horiz-adv-x="1237" 
d="M1165 207l-49 -207h-428l31 127q-203 -137 -350 -137q-83 0 -144 59.5t-61 138.5q0 71 24 177l93 397h-131l49 207h428l-146 -625q-6 -25 -6 -46q0 -75 62 -75q37 0 104 32t125 81l98 426h-131l49 207h428l-176 -762h131zM754 1071h-162l185 361h356z" />
    <glyph glyph-name="ucircumflex" unicode="&#xfb;" horiz-adv-x="1237" 
d="M1165 207l-49 -207h-428l31 127q-203 -137 -350 -137q-83 0 -144 59.5t-61 138.5q0 71 24 177l93 397h-131l49 207h428l-146 -625q-6 -25 -6 -46q0 -75 62 -75q37 0 104 32t125 81l98 426h-131l49 207h428l-176 -762h131zM342 1063l347 373h280l148 -373h-123l-178 229
l-340 -229h-134z" />
    <glyph glyph-name="udieresis" unicode="&#xfc;" horiz-adv-x="1237" 
d="M1165 207l-49 -207h-428l31 127q-203 -137 -350 -137q-83 0 -144 59.5t-61 138.5q0 71 24 177l93 397h-131l49 207h428l-146 -625q-6 -25 -6 -46q0 -75 62 -75q37 0 104 32t125 81l98 426h-131l49 207h428l-176 -762h131zM910 1251q0 60 43 103t102 43q60 0 103 -43
t43 -103q0 -59 -43 -102t-103 -43q-59 0 -102 43t-43 102zM414 1251q0 60 43 103t103 43q59 0 102 -43t43 -103q0 -59 -43 -102t-102 -43q-60 0 -103 43t-43 102z" />
    <glyph glyph-name="yacute" unicode="&#xfd;" horiz-adv-x="1153" 
d="M31 -440l47 207h162l114 202l-147 793h-107l50 207h507l-49 -207h-116l59 -455l262 455h-117l47 207h506l-47 -207h-131l-696 -1202h-344zM711 1071h-162l185 361h356z" />
    <glyph glyph-name="thorn" unicode="&#xfe;" horiz-adv-x="1237" 
d="M-104 -440l47 207h137l328 1417h-138l47 207h435l-127 -549l4 -4q135 143 291 143q146 0 236.5 -109t90.5 -286q0 -256 -148.5 -435.5t-357.5 -179.5q-179 0 -280 160l-84 -364h158l-48 -207h-591zM795 748q-100 0 -182.5 -113t-82.5 -254q0 -77 46.5 -128.5t113.5 -51.5
q112 0 184 113.5t72 256.5q0 81 -41 129t-110 48z" />
    <glyph glyph-name="ydieresis" unicode="&#xff;" horiz-adv-x="1153" 
d="M31 -440l47 207h162l114 202l-147 793h-107l50 207h507l-49 -207h-116l59 -455l262 455h-117l47 207h506l-47 -207h-131l-696 -1202h-344zM867 1251q0 60 43 103t102 43q60 0 103 -43t43 -103q0 -59 -43 -102t-103 -43q-59 0 -102 43t-43 102zM371 1251q0 60 43 103
t103 43q59 0 102 -43t43 -103q0 -59 -43 -102t-102 -43q-60 0 -103 43t-43 102z" />
    <glyph glyph-name="Abreve" unicode="&#x102;" horiz-adv-x="1323" 
d="M-76 0l51 217h134l526 957h-135l49 217h805l-49 -217h-119l41 -957h143l-51 -217h-580l52 217h129v234h-422l-117 -234h129l-51 -217h-535zM911 649l-16 537h-14l-279 -537h309zM618 1852h217q46 -134 172 -134q138 0 176 134h215q-33 -175 -138 -272t-251 -97t-251.5 97
t-139.5 272z" />
    <glyph glyph-name="abreve" unicode="&#x103;" horiz-adv-x="1174" 
d="M1135 207l-60 -207h-446l18 78q-141 -90 -262 -90q-126 0 -208.5 76t-82.5 192q0 159 130 257.5t362 98.5q52 0 178 -28l16 80q3 12 3 23q0 52 -48.5 84t-120.5 32q-97 0 -227 -66l-147 146q206 110 419 110q198 0 308.5 -79t110.5 -217q0 -42 -11 -89l-94 -401h162z
M688 258l37 160q-72 20 -147 20q-93 0 -151 -44t-58 -111q0 -46 33.5 -77.5t80.5 -31.5q96 0 205 84zM373 1432h217q46 -134 172 -134q138 0 176 134h215q-33 -175 -138 -272t-251 -97t-251.5 97t-139.5 272z" />
    <glyph glyph-name="Aogonek" unicode="&#x104;" horiz-adv-x="1323" 
d="M-76 0l51 217h134l526 957h-135l49 217h805l-49 -217h-119l41 -957h143l-51 -217h-129q-111 -110 -111 -166q0 -36 30.5 -58t72.5 -22q62 0 127 31l-52 -225q-70 -25 -143 -25q-113 0 -181.5 53t-68.5 150q0 114 123 262h-248l52 217h129v234h-422l-117 -234h129
l-51 -217h-535zM911 649l-16 537h-14l-279 -537h309z" />
    <glyph glyph-name="aogonek" unicode="&#x105;" horiz-adv-x="1174" 
d="M629 -262q0 114 123 262h-123l18 78q-142 -90 -262 -90q-124 0 -207.5 75t-83.5 193q0 112 62 192t176.5 122t253.5 42q46 0 178 -28q18 98 18 102q0 55 -49.5 86t-118.5 31q-97 0 -227 -66l-147 146q205 110 419 110q190 0 304 -76.5t114 -220.5q0 -44 -12 -98l-92 -391
h162l-60 -207h-121q-110 -110 -110 -166q0 -38 31 -59t71 -21q62 0 127 31l-51 -225q-71 -25 -143 -25q-113 0 -181.5 53t-68.5 150zM725 418q-68 20 -147 20q-87 0 -148 -41.5t-61 -113.5q0 -45 34 -77t80 -32q95 0 205 84z" />
    <glyph glyph-name="Cacute" unicode="&#x106;" horiz-adv-x="1579" 
d="M1307 481l223 -164q-131 -162 -310 -248.5t-374 -86.5q-294 0 -486 174t-192 440q0 329 277.5 573t656.5 244q254 0 383 -156l31 134h223l-105 -453h-223q-37 229 -313 229q-223 0 -392 -176.5t-169 -408.5q0 -150 91.5 -246t233.5 -96q242 0 445 241zM1229 1495h-162
l185 361h356z" />
    <glyph glyph-name="cacute" unicode="&#x107;" horiz-adv-x="1087" 
d="M809 354l213 -104q-168 -279 -465 -279q-201 0 -322.5 118t-121.5 312q0 238 166.5 408t398.5 170q129 0 233 -74l15 64h217l-84 -363h-217q-11 139 -160 139q-110 0 -186 -100.5t-76 -249.5q0 -82 46.5 -134t119.5 -52q134 0 223 145zM735 1071h-162l185 361h356z" />
    <glyph glyph-name="Ccaron" unicode="&#x10c;" horiz-adv-x="1579" 
d="M1307 481l223 -164q-131 -162 -310 -248.5t-374 -86.5q-294 0 -486 174t-192 440q0 329 277.5 573t656.5 244q254 0 383 -156l31 134h223l-105 -453h-223q-37 229 -313 229q-223 0 -392 -176.5t-169 -408.5q0 -150 91.5 -246t233.5 -96q242 0 445 241zM1619 1868
l-346 -373h-281l-148 373h123l179 -230l339 230h134z" />
    <glyph glyph-name="ccaron" unicode="&#x10d;" horiz-adv-x="1087" 
d="M809 354l213 -104q-168 -279 -465 -279q-201 0 -322.5 118t-121.5 312q0 238 166.5 408t398.5 170q129 0 233 -74l15 64h217l-84 -363h-217q-11 139 -160 139q-110 0 -186 -100.5t-76 -249.5q0 -82 46.5 -134t119.5 -52q134 0 223 145zM1240 1440l-346 -373h-281
l-148 373h123l179 -230l339 230h134z" />
    <glyph glyph-name="Dcaron" unicode="&#x10e;" horiz-adv-x="1556" 
d="M-16 0l51 217h168l219 957h-168l51 217h574q327 0 498 -166t171 -447q0 -341 -212 -559.5t-554 -218.5h-798zM555 217h211q200 0 310 198t110 429q0 147 -89 238.5t-239 91.5h-84zM1514 1868l-346 -373h-281l-148 373h123l179 -230l339 230h134z" />
    <glyph glyph-name="dcaron" unicode="&#x10f;" horiz-adv-x="1629" 
d="M1180 207l-47 -207h-428l28 119l-4 4q-127 -137 -287 -137q-149 0 -241 109t-92 288q0 249 151 429.5t356 180.5q174 0 279 -164l82 355h-148l50 207h442l-272 -1184h131zM412 391q0 -78 42 -124t117 -46q107 0 183.5 120t76.5 228q0 88 -47.5 140.5t-121.5 52.5
q-100 0 -175 -110.5t-75 -260.5zM1735 1393l-46 -208q-24 -101 -59.5 -171.5t-101 -115.5t-166.5 -50l27 115q120 24 153 180h-114l57 250h250z" />
    <glyph glyph-name="Dcroat" unicode="&#x110;" horiz-adv-x="1556" 
d="M-16 0l51 217h168l88 383h-201l49 217h201l82 357h-168l51 217h574q327 0 498 -166t171 -447q0 -341 -212 -559.5t-554 -218.5h-798zM555 217h211q200 0 310 198t110 429q0 147 -89 238.5t-239 91.5h-84l-82 -357h258l-49 -217h-258z" />
    <glyph glyph-name="dcroat" unicode="&#x111;" horiz-adv-x="1237" 
d="M1440 1143l-43 -185h-174l-174 -751h131l-47 -207h-428l28 119l-4 4q-128 -137 -287 -137q-154 0 -243.5 112t-89.5 285q0 230 143 387.5t364 157.5q123 0 179 -45t82 -142l49 217h-340l43 185h338l10 41h-148l50 207h442l-57 -248h176zM571 221q92 0 171 83.5t79 176.5
q0 215 -159 215q-113 0 -181.5 -89.5t-68.5 -215.5q0 -78 42 -124t117 -46z" />
    <glyph glyph-name="Eogonek" unicode="&#x118;" horiz-adv-x="1300" 
d="M18 0l52 217h131l221 957h-131l49 217h1137l-103 -443h-260l51 226h-393l-80 -357h326l-51 -217h-326l-88 -383h401l52 219h251l-102 -436h-176q-111 -110 -111 -166q0 -38 31.5 -59t71.5 -21q62 0 127 31l-51 -225q-71 -25 -144 -25q-113 0 -181.5 53t-68.5 150
q0 114 123 262h-758z" />
    <glyph glyph-name="eogonek" unicode="&#x119;" horiz-adv-x="1130" 
d="M328 -262q0 111 110 246q-151 34 -233 143.5t-82 263.5q0 246 161 424t398 178q191 0 310.5 -120t119.5 -312q0 -58 -14 -137h-688q-7 -31 -7 -64q0 -86 47.5 -141t133.5 -55q124 0 198 125l219 -99q-125 -191 -372 -217q-86 -86 -86 -139q0 -38 31 -59t71 -21
q62 0 127 31l-51 -225q-71 -25 -143 -25q-113 0 -181.5 53t-68.5 150zM829 582q5 27 5 45q0 74 -45 123t-117 49q-154 0 -226 -217h383z" />
    <glyph glyph-name="Ecaron" unicode="&#x11a;" horiz-adv-x="1300" 
d="M18 0l52 217h131l221 957h-131l49 217h1137l-103 -443h-260l51 226h-393l-80 -357h326l-51 -217h-326l-88 -383h401l52 219h251l-102 -436h-1137zM1443 1868l-346 -373h-281l-148 373h123l179 -230l339 230h134z" />
    <glyph glyph-name="ecaron" unicode="&#x11b;" horiz-adv-x="1130" 
d="M782 289l219 -99q-146 -219 -436 -219q-202 0 -322 114.5t-120 305.5q0 245 161 423.5t398 178.5q184 0 307 -116.5t123 -314.5q0 -66 -14 -138h-688q-6 -33 -6 -63q0 -92 49.5 -144.5t130.5 -52.5q125 0 198 125zM446 582h383q4 22 4 44q0 78 -46.5 125.5t-114.5 47.5
q-154 0 -226 -217zM1238 1440l-346 -373h-281l-148 373h123l179 -230l339 230h134z" />
    <glyph glyph-name="dotlessi" unicode="&#x131;" 
d="M27 0l47 207h106l129 555h-131l47 207h428l-176 -762h131l-47 -207h-534z" />
    <glyph glyph-name="Lacute" unicode="&#x139;" horiz-adv-x="1237" 
d="M20 0l50 217h131l221 957h-166l51 217h649l-51 -217h-131l-219 -957h389l98 428h267l-150 -645h-1139zM971 1495h-162l185 361h356z" />
    <glyph glyph-name="lacute" unicode="&#x13a;" 
d="M20 0l48 207h106l225 977h-137l47 207h434l-272 -1184h131l-47 -207h-535zM635 1495h-162l185 361h356z" />
    <glyph glyph-name="Lcaron" unicode="&#x13d;" horiz-adv-x="1237" 
d="M20 0l50 217h131l221 957h-166l51 217h649l-51 -217h-131l-219 -957h389l98 428h267l-150 -645h-1139zM1443 1868l-346 -373h-281l-148 373h123l179 -230l339 230h134z" />
    <glyph glyph-name="lcaron" unicode="&#x13e;" horiz-adv-x="1017" 
d="M20 0l48 207h106l225 977h-137l47 207h434l-272 -1184h131l-47 -207h-535zM1117 1391l-46 -208q-24 -101 -59.5 -171.5t-101 -115.5t-166.5 -50l27 115q120 24 153 180h-114l57 250h250z" />
    <glyph glyph-name="Lslash" unicode="&#x141;" horiz-adv-x="1217" 
d="M666 696l-111 -479h389l98 428h267l-150 -645h-1139l50 217h131l67 293l-180 -96l55 241l181 97l98 422h-166l51 217h649l-51 -217h-131l-53 -236l219 115l-55 -242z" />
    <glyph glyph-name="lslash" unicode="&#x142;" 
d="M586 707l-115 -500h131l-47 -207h-535l48 207h106l72 305l-164 -106l53 233l164 106l100 439h-137l47 207h434l-104 -455l188 121l-51 -226z" />
    <glyph glyph-name="Nacute" unicode="&#x143;" horiz-adv-x="1622" 
d="M20 0l52 217h131l219 957h-131l51 217h518l318 -963l170 746h-131l51 217h501l-51 -217h-131l-272 -1186h-305l-363 1120l-203 -891h146l-51 -217h-519zM1090 1495h-162l185 361h356z" />
    <glyph glyph-name="nacute" unicode="&#x144;" horiz-adv-x="1237" 
d="M6 0l47 207h107l129 555h-146l47 207h443l-29 -121q138 85 201.5 109t132.5 24q98 0 160.5 -62.5t62.5 -165.5q0 -41 -10 -85l-107 -461h132l-48 -207h-428l142 612q7 30 7 53q0 83 -71 83q-73 0 -221 -107l-100 -434h123l-48 -207h-526zM754 1071h-162l185 361h356z" />
    <glyph glyph-name="Ncaron" unicode="&#x147;" horiz-adv-x="1622" 
d="M20 0l52 217h131l219 957h-131l51 217h518l318 -963l170 746h-131l51 217h501l-51 -217h-131l-272 -1186h-305l-363 1120l-203 -891h146l-51 -217h-519zM1504 1868l-346 -373h-281l-148 373h123l179 -230l339 230h134z" />
    <glyph glyph-name="ncaron" unicode="&#x148;" horiz-adv-x="1237" 
d="M6 0l47 207h107l129 555h-146l47 207h443l-29 -121q138 85 201.5 109t132.5 24q98 0 160.5 -62.5t62.5 -165.5q0 -41 -10 -85l-107 -461h132l-48 -207h-428l142 612q7 30 7 53q0 83 -71 83q-73 0 -221 -107l-100 -434h123l-48 -207h-526zM1256 1440l-346 -373h-281
l-148 373h123l179 -230l339 230h134z" />
    <glyph glyph-name="Ohungarumlaut" unicode="&#x150;" horiz-adv-x="1686" 
d="M782 -18q-263 0 -436.5 164t-173.5 413q0 340 257 599t630 259q288 0 458.5 -167.5t170.5 -411.5q0 -357 -263.5 -606.5t-642.5 -249.5zM1319 874q0 131 -82.5 214t-212.5 83q-213 0 -348 -203t-135 -433q0 -144 78.5 -226t216.5 -82q225 0 354 211t129 436zM1310 1495
h-162l185 361h356zM899 1495h-162l184 361h356z" />
    <glyph glyph-name="ohungarumlaut" unicode="&#x151;" horiz-adv-x="1174" 
d="M537 -29q-187 0 -303.5 112.5t-116.5 291.5q0 260 172.5 439t423.5 179q196 0 309 -124.5t113 -299.5q0 -249 -171.5 -423.5t-426.5 -174.5zM686 776q-123 0 -195.5 -131.5t-72.5 -279.5q0 -81 38 -129t103 -48q121 0 198 131t77 279q0 81 -40 129.5t-108 48.5zM995 1071
h-162l185 361h356zM584 1071h-162l184 361h356z" />
    <glyph glyph-name="OE" unicode="&#x152;" horiz-adv-x="2048" 
d="M1794 438h223l-102 -438h-1180q-255 0 -405 154.5t-150 382.5q0 339 238.5 596.5t599.5 257.5h1206l-102 -441h-221l51 224h-398l-81 -357h327l-49 -217h-328l-88 -383h410zM1202 1174h-110q-328 0 -438.5 -249t-110.5 -421q0 -142 89 -218t252 -76q47 0 99 7z" />
    <glyph glyph-name="oe" unicode="&#x153;" horiz-adv-x="2028" 
d="M1681 293l228 -105q-152 -217 -453 -217q-263 0 -428 189q-105 -99 -201 -144t-233 -45q-215 0 -343 123t-128 328q0 241 179.5 406t442.5 165q238 0 361 -166q229 170 440 170q198 0 329 -122.5t131 -328.5q0 -59 -11 -122h-791q-2 -16 -2 -32q0 -99 70 -163.5
t170 -64.5q131 0 239 129zM1747 582q7 99 -54.5 160t-158.5 61t-175 -59t-112 -162h500zM729 776q-147 0 -229 -134.5t-82 -250.5q0 -91 56 -147t149 -56q140 0 222.5 123.5t82.5 276.5q0 81 -56.5 134.5t-142.5 53.5z" />
    <glyph glyph-name="Racute" unicode="&#x154;" horiz-adv-x="1430" 
d="M16 0l52 217h137l221 957h-137l49 217h723q190 0 296.5 -110.5t106.5 -266.5q0 -135 -82.5 -245t-236.5 -130l119 -422h139l-51 -217h-355l-153 618h-195l-92 -401h133l-53 -217h-621zM690 797h150q264 0 264 219q0 74 -45 116t-121 42h-160zM1022 1495h-162l185 361h356
z" />
    <glyph glyph-name="racute" unicode="&#x155;" horiz-adv-x="854" 
d="M10 0l47 207h117l129 555h-131l47 207h393l-65 -281l4 -4q155 226 214.5 260t124.5 34q38 0 87 -9l-59 -258q-48 10 -90 10q-240 0 -310 -307l-47 -207h152l-48 -207h-565zM686 1071h-162l185 361h356z" />
    <glyph glyph-name="Rcaron" unicode="&#x158;" horiz-adv-x="1430" 
d="M16 0l52 217h137l221 957h-137l49 217h723q190 0 296.5 -110.5t106.5 -266.5q0 -135 -82.5 -245t-236.5 -130l119 -422h139l-51 -217h-355l-153 618h-195l-92 -401h133l-53 -217h-621zM690 797h150q264 0 264 219q0 74 -45 116t-121 42h-160zM1443 1868l-346 -373h-281
l-148 373h123l179 -230l339 230h134z" />
    <glyph glyph-name="rcaron" unicode="&#x159;" horiz-adv-x="854" 
d="M10 0l47 207h117l129 555h-131l47 207h393l-65 -281l4 -4q155 226 214.5 260t124.5 34q38 0 87 -9l-59 -258q-48 10 -90 10q-240 0 -310 -307l-47 -207h152l-48 -207h-565zM1131 1440l-346 -373h-281l-148 373h123l179 -230l339 230h134z" />
    <glyph glyph-name="Sacute" unicode="&#x15a;" horiz-adv-x="1044" 
d="M23 0l100 432h231q-8 -30 -8 -58q0 -67 46 -110t110 -43q77 0 128.5 50.5t51.5 125.5q0 50 -30.5 105.5t-165 176t-174.5 199.5t-40 154q0 147 101 258t286 111q174 0 273 -109l22 99h222l-86 -367h-222q3 14 3 28q0 53 -43.5 87.5t-112.5 34.5q-61 0 -97 -28t-36 -71
q0 -35 24.5 -75.5t160 -158.5t183 -217.5t47.5 -197.5q0 -197 -126.5 -324t-319.5 -127q-162 0 -272 129l-25 -104h-231zM885 1495h-162l185 361h356z" />
    <glyph glyph-name="sacute" unicode="&#x15b;" horiz-adv-x="1004" 
d="M16 0l78 334h191q33 -164 227 -164q188 0 188 104q0 36 -28.5 62t-195.5 64.5t-226.5 119t-59.5 156.5q0 131 112 217t286 86q134 0 225 -61l12 51h209l-65 -283h-199q-33 113 -178 113q-68 0 -109 -26t-41 -68q0 -28 26 -48.5t186.5 -57.5t224 -113t63.5 -175
q0 -139 -120.5 -230t-309.5 -91q-168 0 -272 65l-13 -55h-211zM701 1071h-162l185 361h356z" />
    <glyph glyph-name="Scedilla" unicode="&#x15e;" horiz-adv-x="1044" 
d="M23 0l100 432h231q-8 -30 -8 -58q0 -67 46 -110t110 -43q77 0 128.5 50.5t51.5 125.5q0 50 -30.5 105.5t-165 176t-174.5 199.5t-40 154q0 147 101 258t286 111q174 0 273 -109l22 99h222l-86 -367h-222q3 14 3 28q0 53 -43.5 87.5t-112.5 34.5q-61 0 -97 -28t-36 -71
q0 -35 24.5 -75.5t160 -158.5t183 -217.5t47.5 -197.5q0 -197 -126.5 -324t-319.5 -127q-162 0 -272 129l-25 -104h-231zM647 -84l-46 -208q-24 -101 -59.5 -171.5t-101 -115.5t-166.5 -50l27 115q120 24 153 180h-114l57 250h250z" />
    <glyph glyph-name="scedilla" unicode="&#x15f;" horiz-adv-x="1004" 
d="M16 0l78 334h191q33 -164 227 -164q188 0 188 104q0 36 -28.5 62t-195.5 64.5t-226.5 119t-59.5 156.5q0 131 112 217t286 86q134 0 225 -61l12 51h209l-65 -283h-199q-33 113 -178 113q-68 0 -109 -26t-41 -68q0 -28 26 -48.5t186.5 -57.5t224 -113t63.5 -175
q0 -139 -120.5 -230t-309.5 -91q-168 0 -272 65l-13 -55h-211zM627 -84l-46 -208q-24 -101 -59.5 -171.5t-101 -115.5t-166.5 -50l27 115q120 24 153 180h-114l57 250h250z" />
    <glyph glyph-name="Scaron" unicode="&#x160;" horiz-adv-x="1044" 
d="M23 0l100 432h231q-8 -30 -8 -58q0 -67 46 -110t110 -43q77 0 128.5 50.5t51.5 125.5q0 50 -30.5 105.5t-165 176t-174.5 199.5t-40 154q0 147 101 258t286 111q174 0 273 -109l22 99h222l-86 -367h-222q3 14 3 28q0 53 -43.5 87.5t-112.5 34.5q-61 0 -97 -28t-36 -71
q0 -35 24.5 -75.5t160 -158.5t183 -217.5t47.5 -197.5q0 -197 -126.5 -324t-319.5 -127q-162 0 -272 129l-25 -104h-231zM1324 1864l-346 -373h-281l-148 373h123l179 -230l339 230h134z" />
    <glyph glyph-name="scaron" unicode="&#x161;" horiz-adv-x="1004" 
d="M16 0l78 334h191q33 -164 227 -164q188 0 188 104q0 36 -28.5 62t-195.5 64.5t-226.5 119t-59.5 156.5q0 131 112 217t286 86q134 0 225 -61l12 51h209l-65 -283h-199q-33 113 -178 113q-68 0 -109 -26t-41 -68q0 -28 26 -48.5t186.5 -57.5t224 -113t63.5 -175
q0 -139 -120.5 -230t-309.5 -91q-168 0 -272 65l-13 -55h-211zM1170 1440l-346 -373h-281l-148 373h123l179 -230l339 230h134z" />
    <glyph glyph-name="Tcommaaccent" unicode="&#x162;" horiz-adv-x="1409" 
d="M297 0l51 217h160l219 957h-219l-74 -326h-223l125 543h1237l-125 -543h-223l75 326h-219l-219 -957h160l-51 -217h-674zM770 -84l-46 -208q-24 -101 -59.5 -171.5t-101 -115.5t-166.5 -50l27 115q120 24 153 180h-114l57 250h250z" />
    <glyph glyph-name="tcommaaccent" unicode="&#x163;" 
d="M657 254l-53 -223q-128 -60 -250 -60q-94 0 -151.5 54.5t-57.5 142.5q0 65 17 135l106 459h-114l47 207h114l33 141l354 246l-90 -387h131l-47 -207h-131l-104 -449q-8 -34 -8 -55q0 -51 61 -51q58 0 143 47zM516 -84l-46 -208q-24 -101 -59.5 -171.5t-101 -115.5
t-166.5 -50l27 115q120 24 153 180h-114l57 250h250z" />
    <glyph glyph-name="Tcaron" unicode="&#x164;" horiz-adv-x="1409" 
d="M297 0l51 217h160l219 957h-219l-74 -326h-223l125 543h1237l-125 -543h-223l75 326h-219l-219 -957h160l-51 -217h-674zM1443 1868l-346 -373h-281l-148 373h123l179 -230l339 230h134z" />
    <glyph glyph-name="tcaron" unicode="&#x165;" horiz-adv-x="1070" 
d="M657 254l-53 -223q-128 -60 -250 -60q-94 0 -151.5 54.5t-57.5 142.5q0 65 17 135l106 459h-114l47 207h114l33 141l354 246l-90 -387h131l-47 -207h-131l-104 -449q-8 -34 -8 -55q0 -51 61 -51q58 0 143 47zM1167 1391l-46 -208q-24 -101 -59.5 -171.5t-101 -115.5
t-166.5 -50l27 115q120 24 153 180h-114l57 250h250z" />
    <glyph glyph-name="Uring" unicode="&#x16e;" horiz-adv-x="1450" 
d="M325 1174l49 217h604l-49 -217h-143l-162 -693q-11 -48 -11 -88q0 -172 191 -172q107 0 175 76.5t108 249.5l145 627h-131l49 217h478l-50 -217h-106l-162 -701q-58 -250 -198.5 -373t-380.5 -123q-186 0 -326.5 90t-140.5 296q0 79 22 176l146 635h-107zM862 1692
q0 87 62 149t149 62t149 -62t62 -149t-62 -149t-149 -62t-149 62t-62 149zM1188 1692q0 47 -33.5 80.5t-81.5 33.5q-47 0 -80.5 -33.5t-33.5 -80.5q0 -48 33.5 -81.5t80.5 -33.5q48 0 81.5 33.5t33.5 81.5z" />
    <glyph glyph-name="uring" unicode="&#x16f;" horiz-adv-x="1237" 
d="M1165 207l-49 -207h-428l31 127q-203 -137 -350 -137q-83 0 -144 59.5t-61 138.5q0 71 24 177l93 397h-131l49 207h428l-146 -625q-6 -25 -6 -46q0 -75 62 -75q37 0 104 32t125 81l98 426h-131l49 207h428l-176 -762h131zM553 1268q0 87 62 149t149 62t149 -62t62 -149
t-62 -149t-149 -62t-149 62t-62 149zM879 1268q0 47 -33.5 80.5t-81.5 33.5q-47 0 -80.5 -33.5t-33.5 -80.5q0 -48 33.5 -81.5t80.5 -33.5q48 0 81.5 33.5t33.5 81.5z" />
    <glyph glyph-name="Uhungarumlaut" unicode="&#x170;" horiz-adv-x="1450" 
d="M325 1174l49 217h604l-49 -217h-143l-162 -693q-11 -48 -11 -88q0 -172 191 -172q107 0 175 76.5t108 249.5l145 627h-131l49 217h478l-50 -217h-106l-162 -701q-58 -250 -198.5 -373t-380.5 -123q-186 0 -326.5 90t-140.5 296q0 79 22 176l146 635h-107zM1265 1495h-162
l185 361h356zM854 1495h-162l184 361h356z" />
    <glyph glyph-name="uhungarumlaut" unicode="&#x171;" horiz-adv-x="1237" 
d="M1165 207l-49 -207h-428l31 127q-203 -137 -350 -137q-83 0 -144 59.5t-61 138.5q0 71 24 177l93 397h-131l49 207h428l-146 -625q-6 -25 -6 -46q0 -75 62 -75q37 0 104 32t125 81l98 426h-131l49 207h428l-176 -762h131zM938 1071h-162l185 361h356zM527 1071h-162
l184 361h356z" />
    <glyph glyph-name="Ydieresis" unicode="&#x178;" horiz-adv-x="1280" 
d="M258 0l51 217h131l88 383l-235 574h-137l51 217h577l-51 -217h-112l141 -386l328 386h-115l51 217h559l-49 -217h-131l-520 -574l-90 -383h143l-53 -217h-627zM1063 1675q0 60 43 103t102 43q60 0 103 -43t43 -103q0 -59 -43 -102t-103 -43q-59 0 -102 43t-43 102z
M567 1675q0 60 43 103t103 43q59 0 102 -43t43 -103q0 -59 -43 -102t-102 -43q-60 0 -103 43t-43 102z" />
    <glyph glyph-name="Zacute" unicode="&#x179;" horiz-adv-x="1237" 
d="M8 0l51 217l875 967h-387l-51 -219h-213l98 426h1028l-43 -187l-893 -997h445l55 231h217l-103 -438h-1079zM897 1495h-162l185 361h356z" />
    <glyph glyph-name="zacute" unicode="&#x17a;" horiz-adv-x="981" 
d="M-25 0l43 188l631 592h-239l-29 -125h-197l72 314h799l-43 -189l-631 -592h293l37 164h200l-80 -352h-856zM670 1071h-162l185 361h356z" />
    <glyph glyph-name="Zdotaccent" unicode="&#x17b;" horiz-adv-x="1237" 
d="M8 0l51 217l875 967h-387l-51 -219h-213l98 426h1028l-43 -187l-893 -997h445l55 231h217l-103 -438h-1079zM770 1675q0 60 43 103t102 43q60 0 103 -43t43 -103q0 -59 -43 -102t-103 -43q-59 0 -102 43t-43 102z" />
    <glyph glyph-name="zdotaccent" unicode="&#x17c;" horiz-adv-x="981" 
d="M-25 0l43 188l631 592h-239l-29 -125h-197l72 314h799l-43 -189l-631 -592h293l37 164h200l-80 -352h-856zM555 1251q0 60 43 103t102 43q60 0 103 -43t43 -103q0 -59 -43 -102t-103 -43q-59 0 -102 43t-43 102z" />
    <glyph glyph-name="Zcaron" unicode="&#x17d;" horiz-adv-x="1237" 
d="M8 0l51 217l875 967h-387l-51 -219h-213l98 426h1028l-43 -187l-893 -997h445l55 231h217l-103 -438h-1079zM1420 1864l-346 -373h-281l-148 373h123l179 -230l339 230h134z" />
    <glyph glyph-name="zcaron" unicode="&#x17e;" horiz-adv-x="981" 
d="M-25 0l43 188l631 592h-239l-29 -125h-197l72 314h799l-43 -189l-631 -592h293l37 164h200l-80 -352h-856zM1158 1440l-346 -373h-281l-148 373h123l179 -230l339 230h134z" />
    <glyph glyph-name="florin" unicode="&#x192;" horiz-adv-x="1130" 
d="M274 850l39 207h199l41 196q23 123 97.5 178.5t215.5 55.5q137 0 273 -41l-52 -227q-93 28 -157 28q-92 0 -111 -82l-24 -108h206l-34 -207h-205l-176 -1002q-26 -146 -99 -212t-227 -66q-153 0 -280 39l59 221q95 -23 170 -23q90 0 108 109l160 934h-203z" />
    <glyph glyph-name="circumflex" unicode="&#x2c6;" 
d="M63 1063l347 373h280l148 -373h-123l-178 229l-340 -229h-134z" />
    <glyph glyph-name="caron" unicode="&#x2c7;" 
d="M1008 1440l-346 -373h-281l-148 373h123l179 -230l339 230h134z" />
    <glyph glyph-name="macron" unicode="&#x2c9;" 
d="M53 1122l58 250h821l-58 -250h-821z" />
    <glyph glyph-name="breve" unicode="&#x2d8;" 
d="M119 1432h217q46 -134 172 -134q138 0 176 134h215q-33 -175 -138 -272t-251 -97t-251.5 97t-139.5 272z" />
    <glyph glyph-name="dotaccent" unicode="&#x2d9;" 
d="M373 1251q0 60 43 103t102 43q60 0 103 -43t43 -103q0 -59 -43 -102t-103 -43q-59 0 -102 43t-43 102z" />
    <glyph glyph-name="ring" unicode="&#x2da;" 
d="M313 1268q0 87 62 149t149 62t149 -62t62 -149t-62 -149t-149 -62t-149 62t-62 149zM639 1268q0 47 -33.5 80.5t-81.5 33.5q-47 0 -80.5 -33.5t-33.5 -80.5q0 -48 33.5 -81.5t80.5 -33.5q48 0 81.5 33.5t33.5 81.5z" />
    <glyph glyph-name="ogonek" unicode="&#x2db;" 
d="M219 0h203q-111 -111 -111 -166q0 -35 29 -57.5t74 -22.5q58 0 127 31l-52 -225q-73 -25 -143 -25q-118 0 -184 55t-66 148q0 116 123 262z" />
    <glyph glyph-name="tilde" unicode="&#x2dc;" 
d="M766 1409h145q7 -145 -62 -234.5t-173 -89.5q-55 0 -163 56.5t-155 56.5q-77 0 -77 -115h-150q0 158 69 241t162 83q61 0 172.5 -55.5t145.5 -55.5q77 0 86 113z" />
    <glyph glyph-name="hungarumlaut" unicode="&#x2dd;" 
d="M733 1071h-162l185 361h356zM322 1071h-162l184 361h356z" />
    <glyph glyph-name="endash" unicode="&#x2013;" horiz-adv-x="1024" 
d="M31 637h1048v-250h-1048v250z" />
    <glyph glyph-name="emdash" unicode="&#x2014;" horiz-adv-x="2048" 
d="M31 637h2072v-250h-2072v250z" />
    <glyph glyph-name="quoteleft" unicode="&#x2018;" 
d="M643 1024l-72 -313h-313l72 313q79 353 393 367l-33 -142q-151 -32 -192 -225h145z" />
    <glyph glyph-name="quoteright" unicode="&#x2019;" 
d="M377 1077l72 314h313l-72 -314q-79 -353 -393 -366l33 141q151 33 192 225h-145z" />
    <glyph glyph-name="quotesinglbase" unicode="&#x201a;" 
d="M123 0l72 313h313l-72 -313q-79 -353 -393 -367l33 142q151 32 192 225h-145z" />
    <glyph glyph-name="quotedblleft" unicode="&#x201c;" horiz-adv-x="1217" 
d="M1188 1024l-72 -313h-313l71 313q80 353 394 367l-33 -142q-151 -32 -193 -225h146zM668 1024l-72 -313h-313l71 313q79 353 394 367l-33 -142q-151 -32 -193 -225h146z" />
    <glyph glyph-name="quotedblright" unicode="&#x201d;" horiz-adv-x="1217" 
d="M885 1077l71 314h314l-72 -314q-79 -353 -393 -366l33 141q151 33 192 225h-145zM362 1077l72 314h314l-72 -314q-79 -353 -393 -366l32 141q151 33 193 225h-146z" />
    <glyph glyph-name="quotedblbase" unicode="&#x201e;" horiz-adv-x="1217" 
d="M647 0l72 313h313l-71 -313q-79 -353 -394 -367l33 142q151 32 193 225h-146zM127 0l72 313h313l-72 -313q-79 -353 -393 -367l33 142q151 32 192 225h-145z" />
    <glyph glyph-name="dagger" unicode="&#x2020;" horiz-adv-x="981" 
d="M262 -416l98 695l56 241q86 79 123 260q-214 0 -279 -57h-188l53 233h188q67 -48 254 -55q23 132 23 185q0 59 -21 98l47 207h261l-48 -207q-88 -103 -133 -283q51 -4 100 2.5t89 21.5l78 31h180l-53 -233h-181q-77 56 -239 57q-20 -64 -20 -130q0 -74 26 -130l-60 -258
l-223 -678h-131z" />
    <glyph glyph-name="daggerdbl" unicode="&#x2021;" horiz-adv-x="1004" 
d="M219 -420l49 213q91 100 127 244q-139 0 -229 -57h-184l55 233h180q79 -57 205 -57q17 99 17 161q0 92 -46 166q113 83 180 328q-143 13 -247 -57h-189l56 233h186q76 -58 221 -57q16 91 16 138q0 66 -26 116l47 207h258l-47 -207q-87 -89 -127 -254q160 11 229 57h183
l-56 -233h-180q-67 51 -205 57q-19 -75 -19 -142q0 -106 48 -186q-115 -82 -178 -327q144 -11 252 57h186l-55 -233h-183q-74 57 -229 57q-19 -58 -19 -115q0 -72 31 -129l-49 -213h-258z" />
    <glyph glyph-name="bullet" unicode="&#x2022;" horiz-adv-x="725" 
d="M164 698q0 118 83.5 201.5t201.5 83.5q117 0 201.5 -83.5t84.5 -201.5q0 -117 -84.5 -201.5t-201.5 -84.5q-118 0 -201.5 84t-83.5 202z" />
    <glyph glyph-name="ellipsis" unicode="&#x2026;" horiz-adv-x="2048" 
d="M856 336h336v-336h-336v336zM1538 336h336v-336h-336v336zM174 336h336v-336h-336v336z" />
    <glyph glyph-name="perthousand" unicode="&#x2030;" horiz-adv-x="2390" 
d="M371 684q-133 0 -207 75t-74 210q0 186 112 312t275 126q130 0 203.5 -74t73.5 -205q0 -187 -111.5 -315.5t-271.5 -128.5zM528 1202q0 76 -59 76q-66 0 -110 -143.5t-44 -229.5q0 -92 62 -92q65 0 108 143t43 246zM117 0l1333 1391h180l-1333 -1391h-180zM2093 -27
q-132 0 -206.5 75.5t-74.5 209.5q0 187 112 312.5t276 125.5q129 0 202.5 -73.5t73.5 -204.5q0 -187 -111.5 -316t-271.5 -129zM2251 492q0 75 -60 75q-65 0 -109 -143.5t-44 -228.5q0 -93 61 -93q66 0 109 143.5t43 246.5zM1284 -27q-132 0 -206 75.5t-74 209.5
q0 187 111.5 312.5t275.5 125.5q129 0 202.5 -73.5t73.5 -204.5q0 -187 -111.5 -316t-271.5 -129zM1442 492q0 75 -60 75q-65 0 -109 -143.5t-44 -228.5q0 -93 61 -93q66 0 109 143.5t43 246.5z" />
    <glyph glyph-name="guilsinglleft" unicode="&#x2039;" horiz-adv-x="532" 
d="M199 0l-136 489l318 480h309l-348 -520l125 -449h-268z" />
    <glyph glyph-name="guilsinglright" unicode="&#x203a;" horiz-adv-x="532" 
d="M412 969l135 -490l-318 -479h-309l348 520l-125 449h269z" />
    <glyph glyph-name="Euro" unicode="&#x20ac;" horiz-adv-x="1110" 
d="M1272 1391l-68 -412h-160q-53 225 -231 225q-198 0 -307 -295h391l-35 -149h-397q-14 -72 -16 -131h389l-35 -150h-350q30 -293 202 -293q157 0 291 234l178 -123q-88 -157 -212 -238.5t-267 -81.5q-192 0 -309 129.5t-141 372.5h-129l36 150h86q3 66 13 131h-109l37 149
h104q81 245 230.5 374.5t351.5 129.5q79 0 152 -35.5t116 -93.5l23 107h166z" />
    <glyph glyph-name="trademark" unicode="&#x2122;" horiz-adv-x="2048" 
d="M401 573v676h-254v142h666v-142h-246v-676h-166zM909 573v818h260l152 -564l147 564h261v-818h-158v656l-178 -656h-152l-174 652v-652h-158z" />
    <glyph glyph-name="uni2126" unicode="&#x2126;" horiz-adv-x="1573" 
d="M462 206q-385 162 -385 605q0 301 187 496.5t506 195.5q218 0 370 -66t261 -232.5t109 -393.5q0 -231 -106 -379.5t-276 -223.5l330 23h72v-231h-642v243q306 147 306 542q0 243 -113 371t-296 128q-188 0 -292.5 -141.5t-104.5 -351.5q0 -184 78.5 -332.5t233.5 -215.5
v-243h-645v230h98z" />
    <glyph glyph-name="partialdiff" unicode="&#x2202;" horiz-adv-x="1012" 
d="M295 1120h-45q131 303 379 303q161 0 263.5 -127t102.5 -376q0 -358 -164.5 -654.5t-427.5 -296.5q-155 0 -246 91t-91 245q0 239 166.5 420.5t383.5 181.5q222 0 312 -190h4q10 144 10 186q0 175 -92.5 276t-253.5 101q-194 0 -301 -160zM911 629q-81 225 -284 225
q-178 0 -286 -190.5t-108 -399.5q0 -108 54 -172.5t143 -64.5q136 0 279.5 162.5t201.5 439.5z" />
    <glyph glyph-name="uni2206" unicode="&#x2206;" horiz-adv-x="1259" 
d="M1229 0h-1200l628 1387zM993 82l-399 967l-440 -967h839z" />
    <glyph glyph-name="product" unicode="&#x220f;" horiz-adv-x="1686" 
d="M162 1415h1362v-1865h-193v1691h-976v-1691h-193v1865z" />
    <glyph glyph-name="summation" unicode="&#x2211;" horiz-adv-x="1460" 
d="M139 1415h1237v-164h-988l607 -747l-647 -790h1038v-164h-1264v187l620 759l-603 744v175z" />
    <glyph glyph-name="radical" unicode="&#x221a;" horiz-adv-x="1124" 
d="M1055 1868l-307 -1946l-498 1028l-197 -96l-33 68l299 147l404 -825l260 1634z" />
    <glyph glyph-name="infinity" unicode="&#x221e;" horiz-adv-x="1460" 
d="M653 668q71 169 159 222.5t212 53.5q161 0 272 -116.5t111 -301.5q0 -186 -111.5 -303t-238.5 -117q-95 0 -170.5 63t-165.5 224q-117 -233 -324 -233q-149 0 -246.5 104.5t-97.5 263.5q0 157 89 262t218 105q80 0 149 -42t144 -185zM750 465q64 -138 134.5 -201
t176.5 -63q126 0 207.5 91t81.5 234q0 140 -84 240t-199 100q-55 0 -97.5 -21.5t-74.5 -62t-64 -116.5zM614 557l11 33q-96 215 -267 215q-110 0 -179.5 -76.5t-69.5 -198.5q0 -123 66.5 -207.5t162.5 -84.5q82 0 149.5 65t126.5 254z" />
    <glyph glyph-name="integral" unicode="&#x222b;" horiz-adv-x="561" 
d="M602 1760q0 -39 -29.5 -64t-75.5 -25q-37 0 -60 25t-44 25q-18 0 -27.5 -14.5t-9.5 -43.5q0 -34 19.5 -256t19.5 -551q0 -505 -30 -709.5t-79 -282.5q-26 -41 -67.5 -62t-85.5 -21q-49 0 -86 35t-37 85q0 38 25.5 65t64.5 27q34 0 65.5 -33t44.5 -33q25 0 39.5 44.5
t14.5 153.5q0 37 -6 197t-6 562q0 481 17 638.5t41 215.5q29 70 69 104t84 34q57 0 98 -32.5t41 -83.5z" />
    <glyph glyph-name="approxequal" unicode="&#x2248;" horiz-adv-x="1124" 
d="M1022 874h51q-21 -155 -95.5 -238t-186.5 -83q-97 0 -304 117q-139 78 -211 78q-149 0 -178 -187h-47q20 154 93.5 238t181.5 84q47 0 107 -19.5t224 -107.5q118 -62 193 -62q144 0 172 180zM1022 487h51q-21 -155 -95.5 -238t-186.5 -83q-96 0 -268.5 97t-246.5 97
q-149 0 -178 -186h-47q20 153 93.5 236.5t181.5 83.5q47 0 112 -21.5t219 -103.5q118 -62 193 -62q144 0 172 180z" />
    <glyph glyph-name="notequal" unicode="&#x2260;" horiz-adv-x="1124" 
d="M1106 279h-621l-184 -330l-100 57l151 273h-321v112h385l157 285h-542v112h606l186 336l101 -57l-156 -279h338v-112h-399l-160 -285h559v-112z" />
    <glyph glyph-name="lessequal" unicode="&#x2264;" horiz-adv-x="1124" 
d="M1077 240l-1018 471v127l1018 471v-127l-887 -408l887 -407v-127zM1077 0h-1018v112h1018v-112z" />
    <glyph glyph-name="greaterequal" unicode="&#x2265;" horiz-adv-x="1124" 
d="M1077 711l-1018 -471v127l887 407l-887 408v127l1018 -471v-127zM1077 0h-1018v112h1018v-112z" />
    <glyph glyph-name="lozenge" unicode="&#x25ca;" horiz-adv-x="1012" 
d="M962 763l-397 -763h-122l-397 763l397 763h122zM839 763l-335 652l-335 -652l335 -652z" />
    <glyph glyph-name="uniF001" unicode="&#xf001;" horiz-adv-x="1260" 
d="M12 0l47 207h107l127 555h-148l50 207h147q39 237 159.5 339.5t370.5 102.5q364 0 392 -264h-289q-27 67 -133 67q-95 0 -139.5 -55.5t-63.5 -189.5h584l-176 -762h131l-48 -207h-522l47 207h95l127 555h-287l-127 -555h106l-47 -207h-510z" />
    <glyph glyph-name="uniF001" unicode="&#xfb01;" horiz-adv-x="1260" 
d="M12 0l47 207h107l127 555h-148l50 207h147q39 237 159.5 339.5t370.5 102.5q364 0 392 -264h-289q-27 67 -133 67q-95 0 -139.5 -55.5t-63.5 -189.5h584l-176 -762h131l-48 -207h-522l47 207h95l127 555h-287l-127 -555h106l-47 -207h-510z" />
    <glyph glyph-name="uniF002" unicode="&#xf002;" horiz-adv-x="1260" 
d="M12 0l49 207h107l127 555h-148l48 207h149q68 444 461 444q43 0 147 -11l82 -11h289l-272 -1184h129l-50 -207h-524l49 207h99l215 938q-28 69 -127 69q-100 0 -140 -58.5t-63 -186.5h111l-48 -207h-110l-127 -555h106l-49 -207h-510z" />
    <glyph glyph-name="uniF002" unicode="&#xfb02;" horiz-adv-x="1260" 
d="M12 0l49 207h107l127 555h-148l48 207h149q68 444 461 444q43 0 147 -11l82 -11h289l-272 -1184h129l-50 -207h-524l49 207h99l215 938q-28 69 -127 69q-100 0 -140 -58.5t-63 -186.5h111l-48 -207h-110l-127 -555h106l-49 -207h-510z" />
    <glyph glyph-name="pi" horiz-adv-x="1124" 
d="M1085 309q-5 -155 -75.5 -248.5t-167.5 -93.5q-79 0 -138.5 91.5t-59.5 281.5q0 42 2 80t5 72l35 329h-231q-60 -624 -98.5 -742.5t-130.5 -118.5q-39 0 -74 31t-35 82q0 46 72.5 128.5t80.5 150.5l60 469h-97q-40 0 -78.5 -19.5t-56.5 -45.5l-43 -64h-35
q49 152 120.5 228.5t164.5 76.5h764v-176h-258q-12 -120 -18.5 -240t-6.5 -241q0 -82 38 -133t95 -51q35 0 73.5 28.5t43.5 74.5q3 22 4.5 34.5t1.5 15.5h43z" />
    <glyph glyph-name="fraction" horiz-adv-x="598" 
d="M-367 0l1334 1391h182l-1333 -1391h-183z" />
    <glyph glyph-name="glyph210" horiz-adv-x="1618" 
 />
    <glyph glyph-name="commaaccent" 
d="M420 -84l-46 -208q-24 -101 -59.5 -171.5t-101 -115.5t-166.5 -50l27 115q120 24 153 180h-114l57 250h250z" />
    </font>
</defs>
</svg>
