<?xml version="1.0" standalone="no"?>
<!DOCTYPE svg PUBLIC "-//W3C//DTD SVG 1.1//EN" "http://www.w3.org/Graphics/SVG/1.1/DTD/svg11.dtd" >
<svg>
<metadata>
Created by FontForge 20110222 at Mon Oct 21 20:38:19 2013
 By Orthosie Webhosting
Design and data by The Monotype Corporation. (c) 1993. Portions copyright Microsoft Corporation.  All rights reserved.
</metadata>
<defs>
<font id="RockwellExtraBoldRegular" horiz-adv-x="1536" >
  <font-face 
    font-family="RockwellExtraBoldRegular"
    font-weight="800"
    font-stretch="normal"
    units-per-em="2048"
    panose-1="2 6 9 3 4 5 5 2 4 3"
    ascent="1638"
    descent="-410"
    x-height="970"
    cap-height="1391"
    bbox="-418 -553 2597 1869"
    underline-thickness="160"
    underline-position="-80"
    unicode-range="U+0020-F002"
  />
<missing-glyph 
d="M256 0v1280h1024v-1280h-1024zM288 32h960v1216h-960v-1216z" />
    <glyph glyph-name=".notdef" 
d="M256 0v1280h1024v-1280h-1024zM288 32h960v1216h-960v-1216z" />
    <glyph glyph-name=".null" horiz-adv-x="0" 
 />
    <glyph glyph-name="nonmarkingreturn" horiz-adv-x="512" 
 />
    <glyph glyph-name="space" unicode=" " horiz-adv-x="512" 
 />
    <glyph glyph-name="exclam" unicode="!" horiz-adv-x="811" 
d="M655 0h-499v364h499v-364zM575 559h-341l-70 433v399h483v-391z" />
    <glyph glyph-name="quotedbl" unicode="&#x22;" horiz-adv-x="1024" 
d="M292 691h-50l-141 444q-15 48 -15 94q0 75 51 130t130 55q86 0 134 -56q47 -58 47 -137q0 -36 -15 -86zM783 691h-50l-141 444q-15 48 -15 94q0 73 50 129t131 56q86 0 134 -56q47 -58 47 -137q0 -36 -15 -86z" />
    <glyph glyph-name="numbersign" unicode="#" horiz-adv-x="1368" 
d="M819 565l58 275h-329l-58 -275h329zM74 1056h304l78 373h216l-79 -373h329l79 373h215l-78 -373h156v-216h-201l-58 -275h259v-216h-304l-78 -372h-216l78 372h-329l-78 -372h-216l78 372h-155v216h201l57 275h-258v216z" />
    <glyph glyph-name="dollar" unicode="$" horiz-adv-x="1280" 
d="M709 501v-332q211 9 211 155q0 120 -211 177zM576 907v287q-217 -10 -217 -136q0 -40 36 -75q38 -36 181 -76zM576 182v357q-279 77 -383 185q-106 109 -106 255q0 179 131 289t358 123v54h133v-53q229 -12 359 -115t130 -258q0 -19 -1 -33h-312q0 89 -47 134
q-47 46 -129 62v-315q313 -92 413 -208q101 -119 101 -266q0 -163 -128 -285q-126 -120 -386 -128v-151h-133v156q-289 30 -401 145q-113 115 -113 238q0 11 3 39h327q-5 -180 184 -225z" />
    <glyph glyph-name="percent" unicode="%" horiz-adv-x="1985" 
d="M1497 375q0 -121 18 -159t56 -38q41 0 58 44q15 44 15 152q0 120 -18 159q-18 38 -55 38q-39 0 -56 -38q-18 -39 -18 -158zM1205 374q0 180 108 282q107 102 257 102q157 0 262 -105q104 -106 104 -279q0 -172 -104 -278q-105 -105 -261 -105q-149 0 -258 101
q-108 101 -108 282zM341 1036q0 -121 18 -159t56 -38q41 0 57 43q16 42 16 153q0 119 -18 158q-18 38 -56 38t-55 -38q-18 -37 -18 -157zM49 1035q0 174 105 279q104 105 260 105q158 0 261 -105q104 -107 104 -279t-104 -278q-103 -106 -261 -106q-149 0 -257 102
q-108 101 -108 282zM1570 1419l-937 -1441h-218l937 1441h218z" />
    <glyph glyph-name="ampersand" unicode="&#x26;" horiz-adv-x="1792" 
d="M882 314l-249 317q-128 -56 -128 -188q0 -81 56 -145q55 -64 140 -64q92 0 181 80zM1504 333h212v-333h-587l-85 106q-188 -128 -462 -128q-260 0 -387 116q-126 116 -126 298q0 165 122 293q123 129 310 178q-60 110 -60 221q0 147 114 241q112 94 367 94q93 0 216 -10
v-289q-11 1 -24 1q-133 0 -133 -95q0 -44 77 -139l144 -181q96 137 165 306h349v-359h-159q-55 -105 -147 -201z" />
    <glyph glyph-name="quotesingle" unicode="'" horiz-adv-x="569" 
d="M309 691h-50l-141 444q-15 48 -15 94q0 75 51 130t130 55q86 0 134 -56q47 -58 47 -137q0 -36 -15 -86z" />
    <glyph glyph-name="parenleft" unicode="(" horiz-adv-x="938" 
d="M858 -167v-261q-150 33 -281 105t-247 187q-229 226 -229 632q0 242 79 412q80 173 257 311t421 200v-262q-100 -26 -173 -162q-75 -136 -75 -474q0 -326 57 -475q57 -148 191 -213z" />
    <glyph glyph-name="parenright" unicode=")" horiz-adv-x="938" 
d="M81 1157v262q299 -64 529 -291q228 -226 228 -634q0 -242 -81 -415t-261 -311q-181 -139 -415 -196v261q98 27 173 164t75 473q0 327 -57 475q-56 147 -191 212z" />
    <glyph glyph-name="asterisk" unicode="*" horiz-adv-x="1280" 
d="M444 305l-254 185l104 141q58 18 148 79q86 58 127 105q-95 16 -143 16q-114 0 -185 -25l-171 59l93 297l170 -56q85 -112 263 -204q-28 179 -117 310v179h324v-179q-96 -136 -117 -310q207 115 259 204l171 52l95 -293l-168 -56q-94 24 -173 24q-96 0 -153 -18
q144 -147 276 -184l103 -141l-252 -185l-103 141q0 155 -97 315q-88 -160 -93 -315z" />
    <glyph glyph-name="plus" unicode="+" horiz-adv-x="1368" 
d="M122 578v249h438v438h248v-438h438v-249h-438v-437h-248v437h-438z" />
    <glyph glyph-name="comma" unicode="," horiz-adv-x="811" 
d="M156 -403v195q80 0 122 24q42 25 52 57q11 33 12 127h-186v364h499v-311q0 -168 -12 -229q-12 -63 -70 -122q-57 -60 -141 -83q-81 -22 -276 -22z" />
    <glyph glyph-name="hyphen" unicode="-" horiz-adv-x="918" 
d="M816 269h-714v431h714v-431z" />
    <glyph glyph-name="hyphen" unicode="&#xad;" horiz-adv-x="918" 
d="M816 269h-714v431h714v-431z" />
    <glyph glyph-name="period" unicode="." horiz-adv-x="811" 
d="M655 0h-499v364h499v-364z" />
    <glyph glyph-name="slash" unicode="/" horiz-adv-x="575" 
d="M232 -22h-232l339 1441h235z" />
    <glyph glyph-name="zero" unicode="0" horiz-adv-x="1409" 
d="M559 703q0 -261 39 -341q39 -81 108 -81q70 0 107 85q37 83 37 337q0 264 -39 343q-40 78 -107 78q-66 0 -105 -78q-40 -79 -40 -343zM106 703q0 341 177 528q177 188 421 188q254 0 427 -194q172 -194 172 -522q0 -345 -178 -530q-178 -186 -421 -186q-253 0 -426 194
q-172 193 -172 522z" />
    <glyph glyph-name="one" unicode="1" horiz-adv-x="1409" 
d="M1143 0h-832v320h198v629q-54 -14 -148 -14q-30 0 -50 3v308q12 -1 25 -1q131 0 243 51q114 52 163 123h209v-1099h192v-320z" />
    <glyph glyph-name="two" unicode="2" horiz-adv-x="1409" 
d="M962 435h288l-12 -435h-1107q-2 42 -2 43q0 194 84 348q43 79 119 157t185 157q184 136 237 196q53 62 53 125q0 61 -36 100t-108 39q-154 0 -154 -195l-358 11q11 239 159 339q149 99 376 99q248 0 402 -114q154 -115 154 -300q0 -119 -78 -220q-80 -101 -305 -216
q-182 -92 -244 -139q-63 -49 -96 -111h438z" />
    <glyph glyph-name="three" unicode="3" horiz-adv-x="1409" 
d="M92 472l360 27q9 -222 207 -222q86 0 128 47q41 47 41 114q0 170 -227 178v226q70 0 132 41q61 40 61 119q0 64 -40 103q-41 38 -108 38q-143 0 -154 -158l-376 20q12 208 162 311q149 103 407 103q275 0 412 -112q137 -113 137 -278q0 -99 -58 -176q-58 -78 -157 -108
q125 -27 195 -115t70 -213q0 -200 -166 -315t-437 -115q-273 0 -428 119q-153 118 -161 366z" />
    <glyph glyph-name="four" unicode="4" horiz-adv-x="1409" 
d="M353 705h376v380zM1288 0h-727v282h168v176h-586l-78 290l650 671h430v-714h143v-247h-143v-176h143v-282z" />
    <glyph glyph-name="five" unicode="5" horiz-adv-x="1409" 
d="M82 374l362 23q48 -114 185 -114q81 0 137 44q54 44 54 138q0 92 -54 135q-55 42 -128 42q-112 0 -188 -82l-303 107l42 724h1025v-364h-235l-33 85h-497l-12 -276q134 84 319 84q226 0 374 -121t148 -332q0 -206 -156 -343q-157 -137 -437 -137q-246 0 -407 104
q-160 103 -196 283z" />
    <glyph glyph-name="six" unicode="6" horiz-adv-x="1409" 
d="M556 581q0 -316 184 -316q144 0 144 183q0 87 -41 140q-40 52 -113 52q-85 0 -174 -59zM1287 1073l-347 -31q-50 113 -169 113q-198 0 -209 -323q121 85 288 85q186 0 318 -123q131 -125 131 -319q0 -221 -160 -354q-161 -134 -385 -134q-275 0 -453 187
q-180 186 -180 543q0 315 164 509q163 193 484 193q209 0 345 -88q135 -88 173 -258z" />
    <glyph glyph-name="seven" unicode="7" horiz-adv-x="1409" 
d="M1068 0h-803v318h180q144 429 453 792h-495v-193h-276v474h1113v-266q-304 -501 -353 -807h181v-318z" />
    <glyph glyph-name="eight" unicode="8" horiz-adv-x="1409" 
d="M519 429q0 -85 53 -132t136 -47q86 0 135 49q48 50 48 132t-48 130q-49 48 -133 48q-90 0 -140 -54q-51 -54 -51 -126zM542 1004q0 -65 42 -107q40 -43 123 -43q66 0 112 37q46 36 46 115q0 68 -42 111q-43 42 -115 42t-118 -43q-48 -43 -48 -112zM352 732
q-90 32 -152 106q-63 75 -63 182q0 178 147 289q148 110 413 110q276 0 424 -108q149 -108 149 -280q0 -210 -213 -299q109 -27 182 -112q72 -85 72 -214q0 -191 -149 -305q-148 -114 -464 -114q-308 0 -453 118q-146 117 -146 296q0 237 253 331z" />
    <glyph glyph-name="nine" unicode="9" horiz-adv-x="1409" 
d="M855 825q0 315 -185 315q-144 0 -144 -182q0 -93 43 -142q42 -51 111 -51q87 0 175 60zM123 332l348 31q48 -113 168 -113q199 0 209 324q-122 -86 -288 -86q-187 0 -317 124q-132 125 -132 318q0 228 164 359q163 130 382 130q273 0 453 -186q179 -188 179 -545
q0 -314 -164 -508q-163 -193 -484 -193q-204 0 -341 86q-138 86 -177 259z" />
    <glyph glyph-name="colon" unicode=":" horiz-adv-x="811" 
d="M655 0h-499v364h499v-364zM655 606h-499v364h499v-364z" />
    <glyph glyph-name="semicolon" unicode=";" horiz-adv-x="811" 
d="M156 -403v195q80 0 122 24q42 25 52 57q11 33 12 127h-186v364h499v-311q0 -168 -12 -229q-12 -63 -70 -122q-57 -60 -141 -83q-81 -22 -276 -22zM655 606h-499v364h499v-364z" />
    <glyph glyph-name="less" unicode="&#x3c;" horiz-adv-x="1368" 
d="M1246 389v-265l-1124 467v224l1124 466v-265l-778 -313z" />
    <glyph glyph-name="equal" unicode="=" horiz-adv-x="1368" 
d="M122 337v249h1124v-249h-1124zM122 820v248h1124v-248h-1124z" />
    <glyph glyph-name="greater" unicode="&#x3e;" horiz-adv-x="1368" 
d="M122 1016v265l1124 -466v-224l-1124 -467v265l778 314z" />
    <glyph glyph-name="question" unicode="?" horiz-adv-x="1300" 
d="M863 0h-499v364h499v-364zM745 541h-262l-26 312q51 -19 118 -19q106 0 159 53t53 128t-46 122q-46 48 -124 48q-64 0 -113 -37q-50 -38 -50 -128h-402q10 199 176 300q165 99 419 99q304 0 453 -115q149 -116 149 -285q0 -185 -141 -287q-142 -102 -343 -102z" />
    <glyph glyph-name="at" unicode="@" horiz-adv-x="1516" 
d="M491 433q0 -121 41 -185q40 -64 111 -64q127 0 185 204q58 201 58 359q0 90 -38 146q-37 55 -103 55q-124 0 -189 -177q-65 -180 -65 -338zM961 1073h198l-127 -791q-4 -23 -4 -35q0 -39 37 -39q60 0 133 60q74 59 123 174q50 117 50 258q0 256 -153 413t-403 157
q-197 0 -357 -100q-161 -101 -234 -271q-74 -172 -74 -361q0 -321 183 -509q183 -189 468 -189q273 0 505 187h210q-65 -83 -145 -145t-177 -106q-192 -85 -392 -85q-241 0 -417 110q-177 110 -280 290q-103 181 -103 438q0 124 23.5 236t71.5 211t119 185q215 258 595 258
q335 0 522 -208q186 -208 186 -511q0 -301 -169 -480q-169 -180 -345 -180q-128 0 -157 116q-66 -65 -117 -91q-50 -26 -119 -26q-149 0 -239 116t-90 310q0 249 126 444q125 195 305 195q144 0 231 -144z" />
    <glyph glyph-name="A" unicode="A" horiz-adv-x="1556" 
d="M705 1038l-131 -385h249zM574 0h-551v333h106l261 725h-112v333h1000v-333h-112l266 -725h102v-333h-726v305h122l-53 175h-356l-61 -175h114v-305z" />
    <glyph glyph-name="B" unicode="B" horiz-adv-x="1749" 
d="M749 579v-274h121q116 0 167 30q50 30 50 106q0 71 -45 105q-45 33 -174 33h-119zM749 1086v-254h119q121 0 159 35q36 35 36 92q0 49 -33 88t-181 39h-100zM877 0h-787v333h121v725h-121v333h850q250 0 387 -29q135 -30 212 -119q77 -91 77 -212q0 -118 -73 -188
q-75 -72 -182 -100q147 -44 226 -136q80 -94 80 -211q0 -140 -90 -238q-90 -97 -247 -127q-155 -31 -453 -31z" />
    <glyph glyph-name="C" unicode="C" horiz-adv-x="1642" 
d="M1195 613l361 -127q-46 -223 -211 -365q-167 -143 -460 -143q-400 0 -592 209q-193 208 -193 508q0 302 189 513t491 211q245 0 399 -121v93h334v-508h-347q-27 95 -91 150q-64 54 -146 54q-226 0 -226 -389q0 -390 234 -390q205 0 258 305z" />
    <glyph glyph-name="D" unicode="D" horiz-adv-x="1792" 
d="M752 1058v-725h51q190 0 247 101q56 101 56 254q0 92 -24 182q-25 90 -88 139q-62 49 -222 49h-20zM752 0h-647v333h109v725h-109v333h666q228 0 372 -28q145 -28 273 -115q127 -88 200 -238q36 -72 55 -154t19 -172q0 -181 -77 -330q-76 -148 -193 -227
q-114 -79 -250 -103q-135 -24 -418 -24z" />
    <glyph glyph-name="E" unicode="E" 
d="M1420 0h-1327v333h108v725h-110v333h1329v-445h-365v112h-316v-214h275v-283h-275v-228h316v112h365v-445z" />
    <glyph glyph-name="F" unicode="F" horiz-adv-x="1450" 
d="M899 0h-845v333h146v725h-151v333h1370v-458h-370v125h-311v-214h240v-283h-240v-228h161v-333z" />
    <glyph glyph-name="G" unicode="G" horiz-adv-x="1729" 
d="M1144 479h-142v264h622q0 -228 -32 -339q-31 -107 -130 -217q-97 -109 -235 -159t-296 -50q-235 0 -427 78q-193 76 -298 252q-106 173 -106 388q0 325 214 524q212 199 520 199q257 0 403 -125v97h335v-486h-335q-44 90 -114.5 136t-164.5 46q-132 0 -194 -86
q-61 -86 -61 -316q0 -229 64 -311q65 -83 189 -83q188 0 188 188z" />
    <glyph glyph-name="H" unicode="H" horiz-adv-x="1792" 
d="M824 0h-732v333h105v725h-107v333h734v-333h-89v-212h322v212h-90v333h733v-333h-105v-725h105v-333h-733v333h90v228h-322v-228h89v-333z" />
    <glyph glyph-name="I" unicode="I" horiz-adv-x="938" 
d="M865 0h-793v333h128v725h-128v333h793v-333h-127v-725h127v-333z" />
    <glyph glyph-name="J" unicode="J" horiz-adv-x="918" 
d="M41 -411v341q32 -8 59 -8q64 0 82 44q17 45 17 215v877h-128v333h785v-333h-119v-815q0 -227 -12 -320q-12 -94 -69 -179q-59 -86 -152 -129t-258 -43q-95 0 -205 17z" />
    <glyph glyph-name="K" unicode="K" horiz-adv-x="1749" 
d="M1713 0h-720v333h67l-305 396l354 329h-113v333h685v-333h-108l-284 -264l355 -461h69v-333zM848 0h-754v333h106v725h-109v333h757v-333h-110v-725h110v-333z" />
    <glyph glyph-name="L" unicode="L" horiz-adv-x="1430" 
d="M1397 0h-1324v333h125v725h-125v333h795v-333h-132v-725h329v223h332v-556z" />
    <glyph glyph-name="M" unicode="M" horiz-adv-x="2261" 
d="M628 0h-539v333h107v725h-110v333h839l205 -537l210 537h834v-333h-109v-725h112v-333h-726v333h111v777l-420 -1110h-208l-416 1100v-767h110v-333z" />
    <glyph glyph-name="N" unicode="N" horiz-adv-x="1749" 
d="M638 0h-571v333h122v725h-122v333h659l506 -727v394h-113v333h561v-333h-121v-1076h-458l-586 841v-490h123v-333z" />
    <glyph glyph-name="O" unicode="O" horiz-adv-x="1772" 
d="M706 699q0 -232 45 -313q43 -82 135 -82q91 0 136 79q45 80 45 316q0 229 -44 312q-43 82 -137 82q-90 0 -135 -79t-45 -315zM102 699q0 174 85 337q84 162 261 273q63 39 129.5 62t144.5 35.5t164 12.5q374 0 579 -219q102 -108 154 -234t52 -267q0 -291 -212 -506
t-573 -215q-349 0 -566 202q-218 201 -218 519z" />
    <glyph glyph-name="P" unicode="P" horiz-adv-x="1686" 
d="M763 1086v-261h105q110 0 160 26q48 26 48 101q0 49 -26 83q-25 33 -67 42q-40 9 -136 9h-84zM903 0h-813v333h135v725h-135v333h853q294 0 430 -57q136 -58 200 -158t64 -219q0 -147 -76 -244q-76 -98 -201 -142q-123 -43 -380 -43h-217v-195h140v-333z" />
    <glyph glyph-name="Q" unicode="Q" horiz-adv-x="1772" 
d="M706 699q0 -232 45 -313q43 -82 135 -82q91 0 136 79q45 80 45 316q0 229 -44 312q-43 82 -137 82q-90 0 -135 -79t-45 -315zM909 -21q78 -15 157 -38q176 -51 292 -51q39 0 92 8l-116 -324q-38 -2 -43 -2q-106 0 -283 82q-120 55 -186 76q-63 19 -140 19
q-113 0 -188 -51l-147 192q116 104 316 110q-226 50 -393 234q-168 183 -168 451q0 309 214 522q214 212 570 212q362 0 573 -214q212 -215 212 -506q0 -299 -216 -509q-215 -211 -546 -211z" />
    <glyph glyph-name="R" unicode="R" horiz-adv-x="1749" 
d="M741 1086v-265h60q118 0 160 7q45 7 76 40q31 31 31 85t-31 86q-31 33 -79 40q-46 7 -168 7h-49zM846 0h-756v333h113v725h-113v333h756q102 0 189 -3.5t149 -10t114 -17.5q146 -31 237 -135q92 -106 92 -250q0 -108 -56 -196q-56 -87 -147 -128l192 -318h100v-333h-501
l-303 568h-171v-235h105v-333z" />
    <glyph glyph-name="S" unicode="S" horiz-adv-x="1280" 
d="M406 0h-313v446h313q56 -182 211 -182q112 0 112 90q0 47 -39 78q-42 34 -177 94q-170 77 -250 133q-75 51 -128 141q-53 89 -53 197q0 194 126 303q125 109 308 109t310 -104v86h315v-396h-311q-57 164 -202 164q-102 0 -102 -87q0 -42 29 -63q28 -22 181 -97
q205 -102 274 -149q35 -23 71.5 -64.5t60.5 -85.5q55 -98 55 -212q0 -175 -130 -296q-130 -123 -328 -123q-184 0 -333 109v-91z" />
    <glyph glyph-name="T" unicode="T" 
d="M1160 0h-781v333h120v725h-160v-253h-261v586h1379v-586h-261v253h-159v-725h123v-333z" />
    <glyph glyph-name="U" unicode="U" horiz-adv-x="1493" 
d="M167 1058h-107v333h712v-333h-66v-469q0 -168 32 -229q32 -60 115 -60q69 0 100 51q31 50 31 205v502h-70v333h523v-333h-110v-504q0 -193 -56 -316q-56 -122 -186 -191t-320 -69q-153 0 -271 37q-120 36 -190 110q-70 73 -103 177q-34 101 -34 310v446z" />
    <glyph glyph-name="V" unicode="V" 
d="M998 -12h-433l-444 1070h-103v333h748v-333h-118l207 -593l217 593h-114v333h561v-333h-103z" />
    <glyph glyph-name="W" unicode="W" horiz-adv-x="2261" 
d="M943 -12h-438l-392 1070h-96v333h721v-333h-104l164 -599l208 599h-103v333h606v-333h-103l211 -599l166 599h-100v333h561v-333h-96l-396 -1070h-432l-188 536z" />
    <glyph glyph-name="X" unicode="X" horiz-adv-x="2048" 
d="M859 0h-806v333h156l456 356l-456 369h-148v333h926v-293h-139l234 -204l207 204h-120v293h772v-333h-208l-375 -314l497 -411h139v-333h-936v293h146l-257 232l-236 -232h148v-293z" />
    <glyph glyph-name="Y" unicode="Y" horiz-adv-x="1493" 
d="M1130 0h-760v333h112v221l-351 504h-95v333h727v-333h-83l148 -284l179 284h-85v333h535v-333h-87l-350 -504v-221h110v-333z" />
    <glyph glyph-name="Z" unicode="Z" horiz-adv-x="1493" 
d="M1432 0h-1373v318l685 768h-348v-172h-319v477h1350v-282l-720 -804h401v190h324v-495z" />
    <glyph glyph-name="bracketleft" unicode="[" horiz-adv-x="1024" 
d="M936 -410h-778v1801h783v-385h-289v-1031h284v-385z" />
    <glyph glyph-name="backslash" unicode="\" horiz-adv-x="575" 
d="M235 1419l339 -1441h-231l-343 1441h235z" />
    <glyph glyph-name="bracketright" unicode="]" horiz-adv-x="1024" 
d="M88 1391h778v-1801h-783v385h290v1031h-285v385z" />
    <glyph glyph-name="asciicircum" unicode="^" horiz-adv-x="1352" 
d="M478 692h-286l376 799h223l366 -799h-284l-198 489z" />
    <glyph glyph-name="underscore" unicode="_" horiz-adv-x="1024" 
d="M-12 -256v102h1048v-102h-1048z" />
    <glyph glyph-name="grave" unicode="`" horiz-adv-x="682" 
d="M367 1434l189 -363h-238l-414 363h463z" />
    <glyph glyph-name="a" unicode="a" 
d="M852 248v177q-67 36 -142 36q-66 0 -105 -36q-39 -37 -39 -94q0 -59 40 -96q41 -38 94 -38q94 0 152 51zM475 699l-394 40q65 143 210 201q143 58 422 58q103 0 184.5 -6.5t145.5 -19.5q133 -25 197 -77q64 -53 89 -114q26 -63 26 -196v-280h124v-305h-627v66
q-130 -84 -348 -84q-205 0 -309 90q-105 90 -105 213q0 136 129 223q128 87 334 87q188 0 299 -49v29q0 90 -13 126q-14 38 -62 65q-50 26 -116 26q-121 0 -186 -93z" />
    <glyph glyph-name="b" unicode="b" horiz-adv-x="1622" 
d="M680 489q0 -219 174 -219q165 0 165 218q0 104 -46 159q-46 54 -123 54q-82 0 -126 -59q-44 -61 -44 -153zM684 0h-630v305h127v781h-129v305h632v-483q128 80 311 80q231 0 382 -132t151 -359q0 -112 -36.5 -203t-109.5 -164q-145 -148 -364 -148q-194 0 -334 83v-65z
" />
    <glyph glyph-name="c" unicode="c" horiz-adv-x="1409" 
d="M964 398l375 -84q-47 -162 -202 -252q-157 -90 -388 -90q-306 0 -482 138t-176 370q0 223 164 366q163 142 409 142q208 0 321 -83v65h307v-414h-307q-57 166 -193 166q-92 0 -142 -71q-50 -73 -50 -177q0 -113 54 -178q53 -65 138 -65q140 0 172 167z" />
    <glyph glyph-name="d" unicode="d" horiz-adv-x="1642" 
d="M944 489q0 91 -42 152q-42 60 -125 60q-171 0 -171 -221q0 -91 42 -150q41 -60 125 -60q76 0 124 53q47 53 47 166zM1570 305v-305h-629v65q-140 -83 -324 -83q-205 0 -363 125t-158 358q0 251 146 388q146 135 391 135q180 0 308 -80v178h-124v305h627v-1086h126z" />
    <glyph glyph-name="e" unicode="e" horiz-adv-x="1430" 
d="M582 561h283q2 30 2 34q0 79 -40 131q-40 51 -106 51q-68 0 -104 -56q-36 -57 -36 -140q0 -11 1 -20zM902 307l415 -51q-28 -65 -78 -116.5t-122 -89.5q-145 -78 -347 -78q-339 0 -510 141q-171 140 -171 367q0 222 169 370q167 148 453 148q275 0 448 -140
q170 -139 181 -423h-764q3 -236 176 -236q104 0 150 108z" />
    <glyph glyph-name="f" unicode="f" horiz-adv-x="938" 
d="M858 0h-785v305h123v360h-123v305h123v23q0 152 65 244q64 90 170 136q105 46 346 46q108 0 213 -4v-271q-71 7 -125 7q-69 0 -107 -18q-39 -19 -51 -51q-13 -30 -13 -112h186v-305h-186v-360h164v-305z" />
    <glyph glyph-name="g" unicode="g" horiz-adv-x="1622" 
d="M597 479q0 -89 45 -148q45 -60 128 -60q88 0 131 61q43 59 43 149q0 98 -46 159q-47 62 -126 62q-85 0 -130 -65q-45 -64 -45 -158zM172 -359l138 246q117 -49 314 -49q130 0 203 37q74 36 95 85q20 49 20 139q-151 -76 -337 -76q-217 0 -366 124q-151 123 -151 341
q0 230 157 365q156 135 378 135q182 0 319 -80v62h622v-305h-121v-532q0 -178 -32 -274q-33 -96 -118 -164q-85 -71 -213 -102q-127 -33 -337 -33q-94 0 -167.5 6t-168.5 20q-162 26 -235 55z" />
    <glyph glyph-name="h" unicode="h" horiz-adv-x="1622" 
d="M812 0h-766v305h127v781h-127v305h630v-538q201 135 395 135q171 0 271 -99q100 -100 100 -353v-231h114v-305h-617v397q0 181 -21 227q-22 46 -92 46q-73 0 -150 -51v-314h136v-305z" />
    <glyph glyph-name="i" unicode="i" horiz-adv-x="831" 
d="M759 0h-687v305h100v360h-100v305h603v-665h84v-305zM130 1244q0 79 81 127q80 48 198 48q121 0 195 -50q73 -51 73 -124q0 -79 -76 -125q-77 -47 -194 -47q-119 0 -198 43q-79 42 -79 128z" />
    <glyph glyph-name="j" unicode="j" horiz-adv-x="831" 
d="M-10 -413v274q103 0 138 19q36 19 45 60q9 40 9 245v480h-99v305h602v-769q0 -243 -24 -343q-24 -102 -88 -164q-64 -64 -160 -90t-256 -26q-99 0 -167 9zM151 1244q0 79 80 127t198 48q122 0 196 -50q73 -51 73 -124q0 -78 -77 -125t-194 -47q-118 0 -197 43
q-79 42 -79 128z" />
    <glyph glyph-name="k" unicode="k" horiz-adv-x="1516" 
d="M677 0h-627v305h124v781h-126v305h629v-969l316 309h-177v239h620v-263h-113l-182 -178l219 -224h79v-305h-361l-401 422v-422z" />
    <glyph glyph-name="l" unicode="l" horiz-adv-x="831" 
d="M763 0h-695v305h103v781h-103v305h606v-1086h89v-305z" />
    <glyph glyph-name="m" unicode="m" horiz-adv-x="2454" 
d="M850 0h-760v305h120v360h-122v305h626v-133q72 61 189 106q116 45 222 45q247 0 331 -190q223 190 455 190q127 0 209 -54q84 -55 118 -146q35 -94 35 -264v-219h128v-305h-631v417q0 163 -25 203t-90 40q-82 0 -165 -62v-293h137v-305h-640v415q0 160 -22 203
q-22 42 -89 42q-77 0 -162 -62v-293h136v-305z" />
    <glyph glyph-name="n" unicode="n" horiz-adv-x="1642" 
d="M838 0h-768v305h125v360h-125v305h628v-123q185 141 397 141q186 0 280 -103q93 -103 93 -331v-249h115v-305h-618v431q0 141 -24 186q-26 44 -99 44q-67 0 -144 -51v-305h140v-305z" />
    <glyph glyph-name="o" unicode="o" 
d="M597 488q0 -232 166 -232q176 0 176 234q0 107 -43 166q-44 59 -124 59q-79 0 -127 -58t-48 -169zM88 490q0 214 180 361t486 147q308 0 501 -142t193 -370q0 -220 -184 -367t-486 -147q-326 0 -508 147q-182 146 -182 371z" />
    <glyph glyph-name="p" unicode="p" horiz-adv-x="1642" 
d="M692 481q0 -105 48 -158q47 -54 119 -54q171 0 171 218q0 213 -164 213q-75 0 -124 -52q-50 -53 -50 -167zM75 665v305h620v-65q160 83 329 83q216 0 371 -140q154 -141 154 -369q0 -230 -151 -363q-152 -134 -395 -134q-180 0 -308 80v-202h128v-305h-750v305h119v805
h-117z" />
    <glyph glyph-name="q" unicode="q" horiz-adv-x="1642" 
d="M941 481q0 219 -174 219q-165 0 -165 -222q0 -98 45 -154q45 -55 125 -55q83 0 126 60q43 59 43 152zM937 970h630v-305h-126v-805h128v-305h-755v305h123v204q-128 -82 -318 -82q-221 0 -373 131q-153 131 -153 360q0 234 154 375q154 140 381 140q170 0 309 -83v65z
" />
    <glyph glyph-name="r" unicode="r" horiz-adv-x="1110" 
d="M848 0h-782v305h132v360h-132v305h602v-243q34 91 105 157q68 65 138 85q67 19 197 19v-427q-17 1 -42 1q-154 0 -229 -31q-78 -32 -106 -84q-29 -54 -30 -142h147v-305z" />
    <glyph glyph-name="s" unicode="s" horiz-adv-x="1260" 
d="M432 -12h-311v308h291q112 -118 245 -118q134 0 134 55q0 28 -29 43q-30 16 -159 47q-104 28 -230 65q-109 31 -172 78q-65 47 -87 92q-24 45 -24 118q0 161 114 237q113 75 287 75q180 0 302 -68v50h307v-282h-284q-106 101 -252 101q-115 0 -115 -61q0 -29 34 -38
q29 -9 192 -43q185 -39 289 -78q103 -39 155 -103q51 -64 51 -157q0 -168 -125 -248q-124 -79 -306 -79q-181 0 -307 66v-60z" />
    <glyph glyph-name="t" unicode="t" horiz-adv-x="938" 
d="M862 354v-298q-49 -33 -142 -58q-98 -26 -188 -26q-113 0 -194 37q-83 38 -125 102q-23 37 -34 67.5t-16 68.5q-7 66 -7 255v163h-124v305h124v149l503 239v-388h203v-305h-203v-188q0 -92 17 -123q16 -31 68 -31q49 0 118 31z" />
    <glyph glyph-name="u" unicode="u" horiz-adv-x="1622" 
d="M164 665h-117v305h620v-462q0 -117 22 -157q21 -41 90 -41q84 0 156 45v310h-133v305h636v-665h117v-305h-620v123q-199 -141 -407 -141q-149 0 -256 95q-108 95 -108 358v230z" />
    <glyph glyph-name="v" unicode="v" horiz-adv-x="1386" 
d="M900 -12h-403l-363 677h-97v305h684v-305h-108l161 -369l170 369h-97v305h502v-305h-94z" />
    <glyph glyph-name="w" unicode="w" horiz-adv-x="2091" 
d="M842 -12h-398l-297 677h-104v305h654v-305h-97l114 -323l239 628h373l218 -628l124 323h-93v305h473v-305h-95l-282 -677h-399l-222 497z" />
    <glyph glyph-name="x" unicode="x" horiz-adv-x="1386" 
d="M462 0h-381v305h122l143 155l-171 205h-116v305h491l178 -261l183 261h380v-305h-136l-125 -141l184 -219h112v-305h-481l-187 265z" />
    <glyph glyph-name="y" unicode="y" horiz-adv-x="1343" 
d="M679 -445h-424v295h163l49 99l-372 716h-75v305h661v-305h-107l169 -381l156 381h-94v305h501v-305h-97z" />
    <glyph glyph-name="z" unicode="z" horiz-adv-x="1343" 
d="M1252 0h-1170v256l545 486h-331v-113h-206v341h1172v-239l-554 -497h335v115h209v-349z" />
    <glyph glyph-name="braceleft" unicode="{" horiz-adv-x="797" 
d="M56 410v240q113 1 160 64q45 60 53 141q6 78 6 171q0 166 17 245q16 75 63 125q47 48 123 72q78 23 209 23h53v-239q-133 0 -168 -27q-36 -27 -36 -118q0 -295 -37 -399q-37 -105 -151 -178q92 -50 140 -149q47 -100 47 -427q0 -71 21 -99q20 -28 56 -37q35 -9 127 -9
v-240h-52q-173 0 -262 45q-89 44 -119 130q-31 84 -31 291q0 156 -17 229q-16 69 -63 105t-139 41z" />
    <glyph glyph-name="bar" unicode="|" horiz-adv-x="1309" 
d="M530 -440v1859h249v-1859h-249z" />
    <glyph glyph-name="braceright" unicode="}" horiz-adv-x="797" 
d="M740 650v-240q-91 -4 -137 -40t-64 -106t-18 -229q0 -172 -16 -246q-17 -77 -62 -124q-46 -49 -124 -72q-76 -24 -209 -24h-53v240q127 0 165 28q39 28 39 117q0 288 37 399q38 113 150 177q-123 74 -155 190q-33 116 -33 387q0 95 -37 120t-167 25v239h53q202 0 275 -49
q72 -49 105 -116q32 -67 32 -300q0 -158 17 -229q16 -69 64 -106q47 -37 138 -41z" />
    <glyph glyph-name="asciitilde" unicode="~" horiz-adv-x="1343" 
d="M1233 897v-256q-162 -141 -319 -141q-63 0 -125 21q-57 18 -169 74q-135 65 -202 65q-151 0 -309 -151v255q163 142 328 142q99 0 270 -85q153 -75 229 -75q131 0 297 151z" />
    <glyph glyph-name="nonbreakingspace" unicode="&#xa0;" horiz-adv-x="512" 
 />
    <glyph glyph-name="exclamdown" unicode="&#xa1;" horiz-adv-x="811" 
d="M236 411h341l70 -433v-399h-483v391zM156 970h499v-364h-499v364z" />
    <glyph glyph-name="cent" unicode="&#xa2;" horiz-adv-x="1409" 
d="M655 -171v165q-274 22 -419 163q-145 139 -145 341q0 208 152 354q153 147 412 154v154h135v-165q119 -19 195 -69v62h307v-414h-307q-61 166 -194 166q-85 0 -137 -67q-54 -67 -54 -181q0 -110 53 -177q53 -66 136 -66q144 0 175 168l375 -85q-44 -156 -191 -245
q-149 -89 -358 -96v-162h-135z" />
    <glyph glyph-name="sterling" unicode="&#xa3;" horiz-adv-x="1280" 
d="M493 274q-81 92 -172 92q-47 0 -82 -31q-36 -31 -36 -85q0 -53 37 -90q36 -37 95 -37q137 0 158 151zM1046 446l235 -62q-48 -397 -367 -397q-165 0 -278 126q-124 -126 -275 -126q-117 0 -197 72q-80 71 -80 192q0 108 73 172q71 64 181 64q65 0 126 -26
q-34 106 -110 183h-254v184h154q-48 93 -48 188q0 182 140 293q140 110 392 110q254 0 378 -97t124 -262l-327 -43q-19 150 -137 150q-49 0 -84 -32q-34 -31 -34 -86q0 -33 7 -55q9 -30 71 -166h310v-184h-255q14 -58 14 -116q0 -98 -28 -173q65 -38 135 -38q104 0 134 129z
" />
    <glyph glyph-name="currency" unicode="&#xa4;" horiz-adv-x="1368" 
d="M440 1109q116 68 244 68q129 0 245 -68l131 132l163 -162l-132 -132q67 -116 67 -244q0 -129 -67 -245l132 -131l-163 -163l-131 132q-116 -67 -244 -67q-132 0 -245 67l-132 -132l-162 163l132 131q-68 114 -68 245q0 129 68 244l-132 132l162 162zM684 950
q-101 0 -174 -72t-73 -175t72.5 -175.5t174.5 -72.5t175 72.5t73 175.5t-73 175t-175 72z" />
    <glyph glyph-name="yen" unicode="&#xa5;" horiz-adv-x="1493" 
d="M482 333v75h-417v133h417v13l-116 166h-301v134h208l-142 204h-95v333h727v-333h-83l148 -284l179 284h-85v333h535v-333h-87l-142 -204h201v-134h-293l-116 -166v-13h409v-133h-409v-75h110v-333h-760v333h112z" />
    <glyph glyph-name="brokenbar" unicode="&#xa6;" horiz-adv-x="1309" 
d="M530 -440v780h249v-780h-249zM530 638v781h249v-781h-249z" />
    <glyph glyph-name="section" unicode="&#xa7;" horiz-adv-x="1386" 
d="M483 681q-59 -39 -59 -97t51 -102q51 -43 180 -87q202 -70 257 -100q59 41 59 106q0 45 -31 85t-80 64q-55 25 -167 58q-163 49 -210 73zM158 -69h333q6 -83 61 -124.5t159 -41.5q179 0 179 113q0 49 -45 81q-43 29 -219 92q-217 76 -319 128q-100 51 -157 136
q-59 86 -59 194q0 187 185 298q-122 110 -122 255q0 159 134 258t379 99q244 0 399 -101q154 -100 160 -267h-333q-42 173 -222 173q-84 0 -126 -36q-42 -37 -42 -85q0 -52 47 -85q46 -34 218 -87q195 -60 299 -116q110 -59 170 -150q59 -94 59 -204q0 -185 -186 -286
q142 -103 142 -241q0 -154 -140 -258t-403 -104q-261 0 -406 94q-146 95 -146 237q0 17 1 28z" />
    <glyph glyph-name="dieresis" unicode="&#xa8;" horiz-adv-x="682" 
d="M785 1290q0 -77 -54 -131q-55 -55 -132 -55t-131 55q-55 55 -55 131t55 131q56 54 131 54q78 0 132 -54q54 -55 54 -131zM269 1290q0 -75 -54 -131q-54 -55 -132 -55t-132 55q-54 56 -54 131q0 76 55 131q54 54 131 54t132 -54q54 -55 54 -131z" />
    <glyph glyph-name="copyright" unicode="&#xa9;" horiz-adv-x="1642" 
d="M1003 550l183 -51q-85 -274 -358 -274q-123 0 -217 58q-93 56 -139 155q-45 98 -45 214q0 192 111 310t292 118q150 0 238 -77q87 -78 113 -182l-178 -34q-41 149 -180 149q-91 0 -143 -70q-53 -71 -53 -205q0 -292 190 -292q141 0 186 181zM821 1270q-253 0 -435 -180
q-181 -181 -181 -436q0 -254 181 -435t435 -181q253 0 434 181t181 435q0 255 -181 436q-181 180 -434 180zM821 1419q191 0 373 -98q180 -97 286 -280q105 -183 105 -387q0 -317 -223 -540q-223 -225 -541 -225q-316 0 -540 225q-225 225 -225 540q0 204 105 387
q34 58 78.5 111t95 94t112.5 75q90 49 182.5 73.5t191.5 24.5z" />
    <glyph glyph-name="ordfeminine" unicode="&#xaa;" horiz-adv-x="981" 
d="M530 951v82q-45 17 -76 17q-83 0 -83 -59q0 -27 24 -44q23 -18 56 -18q34 0 79 22zM307 1208l-280 25q50 117 152 151q105 35 269 35q200 0 285 -33q85 -34 113 -85q28 -50 28 -146v-146h81v-217h-425v31q-97 -42 -212 -42q-136 0 -206 59q-70 58 -70 139q0 88 84 145
q83 56 229 56q88 0 175 -24q0 74 -34 93t-76 19q-83 0 -113 -60z" />
    <glyph glyph-name="guillemotleft" unicode="&#xab;" horiz-adv-x="1579" 
d="M321 970h453l-220 -487l220 -483h-453l-227 483zM1063 970h459l-226 -487l226 -483h-459l-227 483z" />
    <glyph glyph-name="logicalnot" unicode="&#xac;" horiz-adv-x="1368" 
d="M122 820v248h1124v-731h-248v483h-876z" />
    <glyph glyph-name="registered" unicode="&#xae;" horiz-adv-x="1642" 
d="M675 924v-213h78q115 0 161 26q45 26 45 82q0 43 -33 74q-34 31 -169 31h-82zM675 246h-184v814h265q158 0 231 -18q72 -18 118 -74q45 -57 45 -138q0 -180 -219 -228q78 -21 167 -185q2 -2 13 -21.5t39 -68.5l48 -81h-222l-34 65q-100 195 -144 230q-43 33 -92 33
q-19 0 -31 -1v-327zM821 1270q-252 0 -434 -180t-182 -436q0 -254 181 -435t435 -181t435 181t181 435q0 166 -84 311q-84 146 -228 225q-146 80 -304 80zM821 1419q191 0 373 -98q180 -97 286 -280q105 -183 105 -387q0 -317 -223 -540q-223 -225 -541 -225
q-316 0 -540 225q-225 225 -225 540q0 204 105 387q34 58 78.5 111t95 94t112.5 75q90 49 182.5 73.5t191.5 24.5z" />
    <glyph glyph-name="macron" unicode="&#xaf;" horiz-adv-x="1024" 
d="M-12 1545v102h1048v-102h-1048z" />
    <glyph glyph-name="degree" unicode="&#xb0;" horiz-adv-x="819" 
d="M256 1095q0 -63 45 -108t108 -45t108 45t45 108t-45 108q-46 44 -108 44t-108 -44q-45 -45 -45 -108zM90 1095q0 132 94 226q95 93 225 93q132 0 226 -93q93 -94 93 -226q0 -133 -93 -226q-94 -93 -226 -93q-135 0 -227 95t-92 224z" />
    <glyph glyph-name="plusminus" unicode="&#xb1;" horiz-adv-x="1368" 
d="M122 -44v248h1124v-248h-1124zM122 763v249h438v438h248v-438h438v-249h-438v-438h-248v438h-438z" />
    <glyph glyph-name="twosuperior" unicode="&#xb2;" horiz-adv-x="831" 
d="M559 920h193l-8 -259h-676l-2 40q0 105 51 187q51 83 181 165q110 69 139 97q29 27 29 53q0 49 -73 49q-79 0 -79 -74q0 -14 1 -23l-237 6q2 258 329 258q154 0 248 -62q92 -63 92 -165q0 -67 -47 -123q-49 -57 -184 -116q-142 -61 -174 -93h214z" />
    <glyph glyph-name="threesuperior" unicode="&#xb3;" horiz-adv-x="831" 
d="M40 935l237 15q2 -73 32 -92q32 -21 78 -21q88 0 88 64q0 69 -133 72v151q44 0 80 17q34 16 34 47q0 53 -76 53q-79 0 -81 -81l-245 11q8 248 351 248q175 0 255 -65q79 -64 79 -152q0 -82 -83 -141q113 -59 113 -173q0 -106 -98 -171q-97 -66 -271 -66q-357 0 -360 284z
" />
    <glyph glyph-name="acute" unicode="&#xb4;" horiz-adv-x="682" 
d="M364 1071h-238l189 363h463z" />
    <glyph glyph-name="mu" unicode="&#xb5;" horiz-adv-x="1366" 
d="M200 1062h279v-481q0 -209 48 -294.5t150 -85.5q69 0 121.5 47.5t68 118t15.5 211.5v484h284v-1062h-262v128q-82 -154 -213 -154q-66 0 -114.5 31.5t-97.5 122.5v-535h-279v1469z" />
    <glyph glyph-name="paragraph" unicode="&#xb6;" horiz-adv-x="1741" 
d="M967 1130v-1570h-240v985q-270 0 -411 114q-142 112 -142 299q0 113 53 207q53 93 140 145q87 54 169 67q39 7 119 10.5t212 3.5h626v-261h-124v-1570h-240v1570h-162z" />
    <glyph glyph-name="cedilla" unicode="&#xb8;" horiz-adv-x="682" 
d="M105 -443v114q184 0 184 80q0 53 -55 53q-26 0 -54 -11v127q101 57 207 57q102 0 172 -57t70 -145q0 -94 -93 -163q-92 -70 -264 -70q-104 0 -167 15z" />
    <glyph glyph-name="onesuperior" unicode="&#xb9;" horiz-adv-x="831" 
d="M674 661h-515v200h117v281q-28 -4 -70 -4q-21 0 -47 2v193h31q80 0 143 27q62 26 89 59h139v-558h113v-200z" />
    <glyph glyph-name="ordmasculine" unicode="&#xba;" horiz-adv-x="981" 
d="M393 1097q0 -116 94 -116q101 0 101 120q0 113 -95 113q-100 0 -100 -117zM43 1099q0 137 121 228q121 92 319 92q185 0 320 -84q135 -85 135 -236q0 -147 -125 -236q-124 -88 -320 -88q-211 0 -330 92q-120 92 -120 232z" />
    <glyph glyph-name="guillemotright" unicode="&#xbb;" horiz-adv-x="1579" 
d="M1258 0h-453l221 487l-221 483h453l227 -483zM516 0h-459l227 487l-227 483h459l227 -483z" />
    <glyph glyph-name="onequarter" unicode="&#xbc;" horiz-adv-x="1985" 
d="M1391 397h188v167zM1927 0h-453v181h105v52h-348l-53 174l396 351h268v-361h85v-164h-85v-52h85v-181zM674 661h-515v200h117v281q-28 -4 -70 -4q-21 0 -47 2v193h31q80 0 143 27q62 26 89 59h139v-558h113v-200zM1595 1419l-937 -1441h-219l937 1441h219z" />
    <glyph glyph-name="onehalf" unicode="&#xbd;" horiz-adv-x="1985" 
d="M1712 259h194l-9 -259h-675q-2 40 -2 41q0 78 41 168q41 88 191 183q111 73 138 98q29 27 29 53q0 48 -73 48q-78 0 -78 -74q0 -14 1 -23l-237 7q2 257 329 257q156 0 247 -63q92 -65 92 -164q0 -67 -47 -123q-48 -55 -184 -115q-142 -63 -173 -93h213zM674 661h-515v200
h117v281q-28 -4 -70 -4q-21 0 -47 2v193h31q80 0 143 27q62 26 89 59h139v-558h113v-200zM1570 1419l-936 -1441h-219l937 1441h218z" />
    <glyph glyph-name="threequarters" unicode="&#xbe;" horiz-adv-x="1985" 
d="M1391 397h188v167zM1927 0h-453v181h105v52h-347l-54 174l396 351h268v-361h85v-164h-85v-52h85v-181zM40 935l237 15q2 -73 32 -92q32 -21 78 -21q88 0 88 64q0 69 -133 72v151q44 0 80 17q34 16 34 47q0 53 -76 53q-79 0 -81 -81l-245 11q8 248 351 248q175 0 255 -65
q79 -64 79 -152q0 -82 -83 -141q113 -59 113 -173q0 -106 -98 -171q-97 -66 -271 -66q-357 0 -360 284zM1593 1419l-936 -1441h-219l937 1441h218z" />
    <glyph glyph-name="questiondown" unicode="&#xbf;" horiz-adv-x="1300" 
d="M556 429h262l26 -312q-51 19 -118 19q-107 0 -160 -53q-52 -52 -52 -128q0 -73 47 -122q47 -48 123 -48q64 0 114 38q49 37 49 127h402q-11 -200 -176 -299q-164 -100 -419 -100q-278 0 -440 108q-162 106 -162 292q0 163 128 276t356 113zM438 970h499v-364h-499v364z
" />
    <glyph glyph-name="Agrave" unicode="&#xc0;" horiz-adv-x="1556" 
d="M705 1038l-131 -385h249zM574 0h-551v333h106l261 725h-112v333h1000v-333h-112l266 -725h102v-333h-726v305h122l-53 175h-356l-61 -175h114v-305zM771 1838l189 -363h-238l-414 363h463z" />
    <glyph glyph-name="Aacute" unicode="&#xc1;" horiz-adv-x="1556" 
d="M705 1038l-131 -385h249zM574 0h-551v333h106l261 725h-112v333h1000v-333h-112l266 -725h102v-333h-726v305h122l-53 175h-356l-61 -175h114v-305zM846 1475h-238l189 363h463z" />
    <glyph glyph-name="Acircumflex" unicode="&#xc2;" horiz-adv-x="1556" 
d="M705 1038l-131 -385h249zM574 0h-551v333h106l261 725h-112v333h1000v-333h-112l266 -725h102v-333h-726v305h122l-53 175h-356l-61 -175h114v-305zM616 1475h-285l207 363h484l203 -363h-278l-171 140z" />
    <glyph glyph-name="Atilde" unicode="&#xc3;" horiz-adv-x="1556" 
d="M705 1038l-131 -385h249zM574 0h-551v333h106l261 725h-112v333h1000v-333h-112l266 -725h102v-333h-726v305h122l-53 175h-356l-61 -175h114v-305zM560 1478h-223q13 170 90 261q76 91 184 91q76 0 196 -55q73 -32 107 -32q65 0 84 90h222q-7 -160 -81 -258
q-75 -98 -197 -98q-80 0 -182 51q-78 39 -110 39q-73 0 -90 -89z" />
    <glyph glyph-name="Adieresis" unicode="&#xc4;" horiz-adv-x="1556" 
d="M705 1038l-131 -385h249zM574 0h-551v333h106l261 725h-112v333h1000v-333h-112l266 -725h102v-333h-726v305h122l-53 175h-356l-61 -175h114v-305zM1222 1664q0 -77 -54 -131q-55 -55 -132 -55t-131 55q-55 55 -55 131t55 131q56 54 131 54q78 0 132 -54q54 -55 54 -131
zM706 1664q0 -75 -54 -131q-54 -55 -132 -55t-132 55q-54 56 -54 131q0 76 55 131q54 54 131 54t132 -54q54 -55 54 -131z" />
    <glyph glyph-name="Aring" unicode="&#xc5;" horiz-adv-x="1556" 
d="M705 1038l-131 -385h249zM938 1551q0 64 -45 112q-46 48 -115 48q-66 0 -113 -47q-47 -49 -47 -113q0 -66 47 -113t113 -47t113 47t47 113zM278 1391h274q-51 72 -51 160q0 114 81 196q81 81 196 81t197 -81q81 -81 81 -196q0 -86 -51 -160h273v-333h-112l266 -725h102
v-333h-726v305h122l-53 175h-356l-61 -175h114v-305h-551v333h106l261 725h-112v333z" />
    <glyph glyph-name="AE" unicode="&#xc6;" horiz-adv-x="2241" 
d="M656 828h251v276h-111zM538 0h-564v333h83l387 725h-114v333h1799v-443h-371v110h-313v-214h277v-283h-277v-228h313v113h371v-446h-1333v333h111v228h-385l-113 -228h129v-333z" />
    <glyph glyph-name="Ccedilla" unicode="&#xc7;" horiz-adv-x="1642" 
d="M1179 1298v93h334v-508h-347q-27 95 -91 150q-64 54 -146 54q-226 0 -226 -387q0 -392 234 -392q205 0 258 305l361 -127q-24 -115 -77 -206.5t-135 -158.5q-163 -135 -404 -142q235 -46 235 -214q0 -105 -102 -163q-101 -58 -289 -58q-151 0 -271 21l17 134q25 -5 63 -5
q140 0 140 70q0 49 -65 49q-15 0 -38 -3l27 108q58 41 162 61q-145 0 -321 69q-176 68 -287 246q-111 179 -111 401q0 295 185 510q184 214 495 214q245 0 399 -121z" />
    <glyph glyph-name="Egrave" unicode="&#xc8;" 
d="M1420 0h-1327v333h108v725h-110v333h1329v-445h-365v112h-316v-214h275v-283h-275v-228h316v112h365v-445zM786 1838l189 -363h-238l-414 363h463z" />
    <glyph glyph-name="Eacute" unicode="&#xc9;" 
d="M1420 0h-1327v333h108v725h-110v333h1329v-445h-365v112h-316v-214h275v-283h-275v-228h316v112h365v-445zM773 1475h-238l189 363h463z" />
    <glyph glyph-name="Ecircumflex" unicode="&#xca;" 
d="M1420 0h-1327v333h108v725h-110v333h1329v-445h-365v112h-316v-214h275v-283h-275v-228h316v112h365v-445zM593 1475h-285l207 363h484l203 -363h-278l-171 140z" />
    <glyph glyph-name="Edieresis" unicode="&#xcb;" 
d="M1420 0h-1327v333h108v725h-110v333h1329v-445h-365v112h-316v-214h275v-283h-275v-228h316v112h365v-445zM1200 1664q0 -77 -54 -131q-55 -55 -132 -55t-131 55q-55 55 -55 131t55 131q56 54 131 54q78 0 132 -54q54 -55 54 -131zM684 1664q0 -75 -54 -131
q-54 -55 -132 -55t-132 55q-54 56 -54 131q0 76 55 131q54 54 131 54t132 -54q54 -55 54 -131z" />
    <glyph glyph-name="Igrave" unicode="&#xcc;" horiz-adv-x="938" 
d="M865 0h-793v333h128v725h-128v333h793v-333h-127v-725h127v-333zM426 1838l189 -363h-238l-414 363h463z" />
    <glyph glyph-name="Iacute" unicode="&#xcd;" horiz-adv-x="938" 
d="M865 0h-793v333h128v725h-128v333h793v-333h-127v-725h127v-333zM559 1475h-238l189 363h463z" />
    <glyph glyph-name="Icircumflex" unicode="&#xce;" horiz-adv-x="938" 
d="M865 0h-793v333h128v725h-128v333h793v-333h-127v-725h127v-333zM306 1475h-285l207 363h484l203 -363h-278l-171 140z" />
    <glyph glyph-name="Idieresis" unicode="&#xcf;" horiz-adv-x="938" 
d="M865 0h-793v333h128v725h-128v333h793v-333h-127v-725h127v-333zM912 1664q0 -77 -54 -131q-55 -55 -132 -55t-131 55q-55 55 -55 131t55 131q56 54 131 54q78 0 132 -54q54 -55 54 -131zM396 1664q0 -75 -54 -131q-54 -55 -132 -55t-132 55q-54 56 -54 131q0 76 55 131
q54 54 131 54t132 -54q54 -55 54 -131z" />
    <glyph glyph-name="Eth" unicode="&#xd0;" horiz-adv-x="1792" 
d="M961 603h-209v-270h51q190 0 247 101q56 101 56 254q0 145 -40 228q-41 84 -107 113q-69 29 -187 29h-20v-256h209v-199zM214 333v270h-133v199h133v256h-109v333h666q228 0 372 -28q145 -28 273 -115q127 -88 200 -238q36 -72 55 -154t19 -172q0 -181 -77 -330
q-76 -148 -193 -227q-114 -79 -250 -103q-135 -24 -418 -24h-647v333h109z" />
    <glyph glyph-name="Ntilde" unicode="&#xd1;" horiz-adv-x="1749" 
d="M638 0h-571v333h122v725h-122v333h659l506 -727v394h-113v333h561v-333h-121v-1076h-458l-586 841v-490h123v-333zM656 1478h-223q13 170 90 261q76 91 184 91q76 0 196 -55q73 -32 107 -32q65 0 84 90h222q-7 -160 -81 -258q-75 -98 -197 -98q-80 0 -182 51
q-78 39 -110 39q-73 0 -90 -89z" />
    <glyph glyph-name="Ograve" unicode="&#xd2;" horiz-adv-x="1772" 
d="M706 699q0 -232 45 -313q43 -82 135 -82q91 0 136 79q45 80 45 316q0 229 -44 312q-43 82 -137 82q-90 0 -135 -79t-45 -315zM102 699q0 174 85 337q84 162 261 273q63 39 129.5 62t144.5 35.5t164 12.5q374 0 579 -219q102 -108 154 -234t52 -267q0 -291 -212 -506
t-573 -215q-349 0 -566 202q-218 201 -218 519zM881 1838l189 -363h-238l-414 363h463z" />
    <glyph glyph-name="Oacute" unicode="&#xd3;" horiz-adv-x="1772" 
d="M706 699q0 -232 45 -313q43 -82 135 -82q91 0 136 79q45 80 45 316q0 229 -44 312q-43 82 -137 82q-90 0 -135 -79t-45 -315zM102 699q0 174 85 337q84 162 261 273q63 39 129.5 62t144.5 35.5t164 12.5q374 0 579 -219q102 -108 154 -234t52 -267q0 -291 -212 -506
t-573 -215q-349 0 -566 202q-218 201 -218 519zM940 1475h-238l189 363h463z" />
    <glyph glyph-name="Ocircumflex" unicode="&#xd4;" horiz-adv-x="1772" 
d="M706 699q0 -232 45 -313q43 -82 135 -82q91 0 136 79q45 80 45 316q0 229 -44 312q-43 82 -137 82q-90 0 -135 -79t-45 -315zM102 699q0 174 85 337q84 162 261 273q63 39 129.5 62t144.5 35.5t164 12.5q374 0 579 -219q102 -108 154 -234t52 -267q0 -291 -212 -506
t-573 -215q-349 0 -566 202q-218 201 -218 519zM724 1475h-285l207 363h484l203 -363h-278l-171 140z" />
    <glyph glyph-name="Otilde" unicode="&#xd5;" horiz-adv-x="1772" 
d="M706 699q0 -232 45 -313q43 -82 135 -82q91 0 136 79q45 80 45 316q0 229 -44 312q-43 82 -137 82q-90 0 -135 -79t-45 -315zM102 699q0 174 85 337q84 162 261 273q63 39 129.5 62t144.5 35.5t164 12.5q374 0 579 -219q102 -108 154 -234t52 -267q0 -291 -212 -506
t-573 -215q-349 0 -566 202q-218 201 -218 519zM668 1478h-223q13 170 90 261q76 91 184 91q76 0 196 -55q73 -32 107 -32q65 0 84 90h222q-7 -160 -81 -258q-75 -98 -197 -98q-80 0 -182 51q-78 39 -110 39q-73 0 -90 -89z" />
    <glyph glyph-name="Odieresis" unicode="&#xd6;" horiz-adv-x="1772" 
d="M706 699q0 -232 45 -313q43 -82 135 -82q91 0 136 79q45 80 45 316q0 229 -44 312q-43 82 -137 82q-90 0 -135 -79t-45 -315zM102 699q0 174 85 337q84 162 261 273q63 39 129.5 62t144.5 35.5t164 12.5q374 0 579 -219q102 -108 154 -234t52 -267q0 -291 -212 -506
t-573 -215q-349 0 -566 202q-218 201 -218 519zM1330 1664q0 -77 -54 -131q-55 -55 -132 -55t-131 55q-55 55 -55 131t55 131q56 54 131 54q78 0 132 -54q54 -55 54 -131zM814 1664q0 -75 -54 -131q-54 -55 -132 -55t-132 55q-54 56 -54 131q0 76 55 131q54 54 131 54
t132 -54q54 -55 54 -131z" />
    <glyph glyph-name="multiply" unicode="&#xd7;" horiz-adv-x="1368" 
d="M149 1062l176 176l359 -359l359 359l176 -176l-359 -359l359 -359l-176 -176l-359 359l-359 -359l-176 176l359 359z" />
    <glyph glyph-name="Oslash" unicode="&#xd8;" horiz-adv-x="1772" 
d="M1065 783l-323 -381q38 -98 144 -98q93 0 137 83t44 312q0 32 -2 84zM707 639l315 374q-42 80 -136 80q-93 0 -136 -82q-44 -83 -44 -312q0 -43 1 -60zM1509 1309l-71 -84q233 -216 233 -526q0 -291 -212 -506t-573 -215q-251 0 -420 97l-78 -93l-143 110l76 89
q-219 200 -219 504q0 307 213 521q212 213 571 213q233 0 403 -89l80 94z" />
    <glyph glyph-name="Ugrave" unicode="&#xd9;" horiz-adv-x="1493" 
d="M167 1058h-107v333h712v-333h-66v-469q0 -168 32 -229q32 -60 115 -60q69 0 100 51q31 50 31 205v502h-70v333h523v-333h-110v-504q0 -193 -56 -316q-56 -122 -186 -191t-320 -69q-153 0 -271 37q-120 36 -190 110q-70 73 -103 177q-34 101 -34 310v446zM811 1838
l189 -363h-238l-414 363h463z" />
    <glyph glyph-name="Uacute" unicode="&#xda;" horiz-adv-x="1493" 
d="M167 1058h-107v333h712v-333h-66v-469q0 -168 32 -229q32 -60 115 -60q69 0 100 51q31 50 31 205v502h-70v333h523v-333h-110v-504q0 -193 -56 -316q-56 -122 -186 -191t-320 -69q-153 0 -271 37q-120 36 -190 110q-70 73 -103 177q-34 101 -34 310v446zM854 1475h-238
l189 363h463z" />
    <glyph glyph-name="Ucircumflex" unicode="&#xdb;" horiz-adv-x="1493" 
d="M167 1058h-107v333h712v-333h-66v-469q0 -168 32 -229q32 -60 115 -60q69 0 100 51q31 50 31 205v502h-70v333h523v-333h-110v-504q0 -193 -56 -316q-56 -122 -186 -191t-320 -69q-153 0 -271 37q-120 36 -190 110q-70 73 -103 177q-34 101 -34 310v446zM586 1475h-285
l207 363h484l203 -363h-278l-171 140z" />
    <glyph glyph-name="Udieresis" unicode="&#xdc;" horiz-adv-x="1493" 
d="M167 1058h-107v333h712v-333h-66v-469q0 -168 32 -229q32 -60 115 -60q69 0 100 51q31 50 31 205v502h-70v333h523v-333h-110v-504q0 -193 -56 -316q-56 -122 -186 -191t-320 -69q-153 0 -271 37q-120 36 -190 110q-70 73 -103 177q-34 101 -34 310v446zM1192 1664
q0 -77 -54 -131q-55 -55 -132 -55t-131 55q-55 55 -55 131t55 131q56 54 131 54q78 0 132 -54q54 -55 54 -131zM676 1664q0 -75 -54 -131q-54 -55 -132 -55t-132 55q-54 56 -54 131q0 76 55 131q54 54 131 54t132 -54q54 -55 54 -131z" />
    <glyph glyph-name="Yacute" unicode="&#xdd;" horiz-adv-x="1493" 
d="M1130 0h-760v333h112v221l-351 504h-95v333h727v-333h-83l148 -284l179 284h-85v333h535v-333h-87l-350 -504v-221h110v-333zM852 1475h-238l189 363h463z" />
    <glyph glyph-name="Thorn" unicode="&#xde;" horiz-adv-x="1686" 
d="M763 822v-261h105q137 0 173 37q35 38 35 91q0 48 -26 82q-25 33 -67 42q-40 9 -136 9h-84zM898 0h-808v185h135v1021h-135v185h808v-185h-135v-79h180q295 0 433 -59q136 -58 199 -159q62 -101 62 -216q0 -147 -76 -244q-76 -98 -201 -142q-123 -43 -380 -43h-217v-79
h135v-185z" />
    <glyph glyph-name="germandbls" unicode="&#xdf;" horiz-adv-x="1622" 
d="M753 0h-698v305h123v517q0 188 26 278q25 87 111 167q85 78 224 115q138 37 311 37q299 0 471 -94t172 -270q0 -94 -62 -171q-62 -78 -161 -103q272 -104 272 -367q0 -181 -116 -306q-117 -126 -329 -126q-128 0 -236 40v231q18 -6 41 -6q125 0 125 179q0 122 -46 171
q-47 50 -148 56v227q153 0 153 150q0 74 -43 113t-108 39q-66 0 -105 -41q-40 -43 -44 -109q-5 -75 -5 -274v-453h72v-305z" />
    <glyph glyph-name="agrave" unicode="&#xe0;" 
d="M852 248v177q-67 36 -142 36q-66 0 -105 -36q-39 -37 -39 -94q0 -59 40 -96q41 -38 94 -38q94 0 152 51zM475 699l-394 40q65 143 210 201q143 58 422 58q103 0 184.5 -6.5t145.5 -19.5q133 -25 197 -77q64 -53 89 -114q26 -63 26 -196v-280h124v-305h-627v66
q-130 -84 -348 -84q-205 0 -309 90q-105 90 -105 213q0 136 129 223q128 87 334 87q188 0 299 -49v29q0 90 -13 126q-14 38 -62 65q-50 26 -116 26q-121 0 -186 -93zM806 1434l189 -363h-238l-414 363h463z" />
    <glyph glyph-name="aacute" unicode="&#xe1;" 
d="M852 248v177q-67 36 -142 36q-66 0 -105 -36q-39 -37 -39 -94q0 -59 40 -96q41 -38 94 -38q94 0 152 51zM475 699l-394 40q65 143 210 201q143 58 422 58q103 0 184.5 -6.5t145.5 -19.5q133 -25 197 -77q64 -53 89 -114q26 -63 26 -196v-280h124v-305h-627v66
q-130 -84 -348 -84q-205 0 -309 90q-105 90 -105 213q0 136 129 223q128 87 334 87q188 0 299 -49v29q0 90 -13 126q-14 38 -62 65q-50 26 -116 26q-121 0 -186 -93zM803 1071h-238l189 363h463z" />
    <glyph glyph-name="acircumflex" unicode="&#xe2;" 
d="M852 248v177q-67 36 -142 36q-66 0 -105 -36q-39 -37 -39 -94q0 -59 40 -96q41 -38 94 -38q94 0 152 51zM475 699l-394 40q65 143 210 201q143 58 422 58q103 0 184.5 -6.5t145.5 -19.5q133 -25 197 -77q64 -53 89 -114q26 -63 26 -196v-280h124v-305h-627v66
q-130 -84 -348 -84q-205 0 -309 90q-105 90 -105 213q0 136 129 223q128 87 334 87q188 0 299 -49v29q0 90 -13 126q-14 38 -62 65q-50 26 -116 26q-121 0 -186 -93zM618 1071h-285l207 363h484l203 -363h-278l-171 140z" />
    <glyph glyph-name="atilde" unicode="&#xe3;" 
d="M852 248v177q-67 36 -142 36q-66 0 -105 -36q-39 -37 -39 -94q0 -59 40 -96q41 -38 94 -38q94 0 152 51zM475 699l-394 40q65 143 210 201q143 58 422 58q103 0 184.5 -6.5t145.5 -19.5q133 -25 197 -77q64 -53 89 -114q26 -63 26 -196v-280h124v-305h-627v66
q-130 -84 -348 -84q-205 0 -309 90q-105 90 -105 213q0 136 129 223q128 87 334 87q188 0 299 -49v29q0 90 -13 126q-14 38 -62 65q-50 26 -116 26q-121 0 -186 -93zM562 1072h-223q13 170 90 261q76 91 184 91q76 0 196 -55q73 -32 107 -32q65 0 84 90h222
q-7 -160 -81 -258q-75 -98 -197 -98q-80 0 -182 51q-78 39 -110 39q-73 0 -90 -89z" />
    <glyph glyph-name="adieresis" unicode="&#xe4;" 
d="M852 248v177q-67 36 -142 36q-66 0 -105 -36q-39 -37 -39 -94q0 -59 40 -96q41 -38 94 -38q94 0 152 51zM475 699l-394 40q65 143 210 201q143 58 422 58q103 0 184.5 -6.5t145.5 -19.5q133 -25 197 -77q64 -53 89 -114q26 -63 26 -196v-280h124v-305h-627v66
q-130 -84 -348 -84q-205 0 -309 90q-105 90 -105 213q0 136 129 223q128 87 334 87q188 0 299 -49v29q0 90 -13 126q-14 38 -62 65q-50 26 -116 26q-121 0 -186 -93zM1224 1290q0 -77 -54 -131q-55 -55 -132 -55t-131 55q-55 55 -55 131t55 131q56 54 131 54q78 0 132 -54
q54 -55 54 -131zM708 1290q0 -75 -54 -131q-54 -55 -132 -55t-132 55q-54 56 -54 131q0 76 55 131q54 54 131 54t132 -54q54 -55 54 -131z" />
    <glyph glyph-name="aring" unicode="&#xe5;" 
d="M852 248v177q-67 36 -142 36q-66 0 -105 -36q-39 -37 -39 -94q0 -59 40 -96q41 -38 94 -38q94 0 152 51zM475 699l-394 40q65 143 210 201q143 58 422 58q103 0 184.5 -6.5t145.5 -19.5q133 -25 197 -77q64 -53 89 -114q26 -63 26 -196v-280h124v-305h-627v66
q-130 -84 -348 -84q-205 0 -309 90q-105 90 -105 213q0 136 129 223q128 87 334 87q188 0 299 -49v29q0 90 -13 126q-14 38 -62 65q-50 26 -116 26q-121 0 -186 -93zM901 1270q0 50 -35 85q-37 35 -86 35q-50 0 -85 -35q-35 -37 -35 -85q0 -50 36 -85q35 -36 84 -36
q50 0 86 36q35 35 35 85zM1000 1270q0 -92 -64 -156t-156 -64q-90 0 -155 65t-65 155q0 91 64 155q65 65 156 65q92 0 156 -64t64 -156z" />
    <glyph glyph-name="ae" unicode="&#xe6;" horiz-adv-x="2198" 
d="M856 216v171q-61 37 -146 37q-61 0 -102 -35t-41 -96q0 -57 40 -94t100 -37q82 0 149 54zM1358 561h285q0 214 -143 214q-142 0 -142 -214zM1677 310l420 -52q-49 -121 -191 -203q-143 -83 -376 -83q-374 0 -532 182q-194 -182 -478 -182q-225 0 -329 95
q-103 94 -103 206q0 135 131 222t325 87q182 0 312 -48q3 27 3 54q0 126 -55 169q-55 42 -143 42q-117 0 -180 -96l-392 36q46 127 194 193q149 66 436 66q276 0 455 -64q149 64 328 64q277 0 447 -149q168 -148 168 -414h-759q0 -236 177 -236q93 0 142 111z" />
    <glyph glyph-name="ccedilla" unicode="&#xe7;" horiz-adv-x="1409" 
d="M796 -27q92 -13 146 -70q52 -56 52 -128q0 -92 -92 -163t-268 -71q-100 0 -165 16v114q184 0 184 80q0 53 -55 53q-26 0 -54 -11v127q61 36 150 53q-94 0 -249 45q-153 43 -254 170q-100 124 -100 292q0 223 164 366q163 142 409 142q208 0 321 -83v65h307v-414h-307
q-57 166 -193 166q-92 0 -142 -71q-50 -73 -50 -177q0 -113 54 -178q53 -65 138 -65q140 0 172 167l375 -84q-93 -314 -543 -341z" />
    <glyph glyph-name="egrave" unicode="&#xe8;" horiz-adv-x="1430" 
d="M582 561h283q2 30 2 34q0 79 -40 131q-40 51 -106 51q-68 0 -104 -56q-36 -57 -36 -140q0 -11 1 -20zM902 307l415 -51q-28 -65 -78 -116.5t-122 -89.5q-145 -78 -347 -78q-339 0 -510 141q-171 140 -171 367q0 222 169 370q167 148 453 148q275 0 448 -140
q170 -139 181 -423h-764q3 -236 176 -236q104 0 150 108zM741 1434l189 -363h-238l-414 363h463z" />
    <glyph glyph-name="eacute" unicode="&#xe9;" horiz-adv-x="1430" 
d="M582 561h283q2 30 2 34q0 79 -40 131q-40 51 -106 51q-68 0 -104 -56q-36 -57 -36 -140q0 -11 1 -20zM902 307l415 -51q-28 -65 -78 -116.5t-122 -89.5q-145 -78 -347 -78q-339 0 -510 141q-171 140 -171 367q0 222 169 370q167 148 453 148q275 0 448 -140
q170 -139 181 -423h-764q3 -236 176 -236q104 0 150 108zM737 1071h-238l189 363h463z" />
    <glyph glyph-name="ecircumflex" unicode="&#xea;" horiz-adv-x="1430" 
d="M582 561h283q2 30 2 34q0 79 -40 131q-40 51 -106 51q-68 0 -104 -56q-36 -57 -36 -140q0 -11 1 -20zM902 307l415 -51q-28 -65 -78 -116.5t-122 -89.5q-145 -78 -347 -78q-339 0 -510 141q-171 140 -171 367q0 222 169 370q167 148 453 148q275 0 448 -140
q170 -139 181 -423h-764q3 -236 176 -236q104 0 150 108zM552 1071h-285l207 363h484l203 -363h-278l-171 140z" />
    <glyph glyph-name="edieresis" unicode="&#xeb;" horiz-adv-x="1430" 
d="M582 561h283q2 30 2 34q0 79 -40 131q-40 51 -106 51q-68 0 -104 -56q-36 -57 -36 -140q0 -11 1 -20zM902 307l415 -51q-28 -65 -78 -116.5t-122 -89.5q-145 -78 -347 -78q-339 0 -510 141q-171 140 -171 367q0 222 169 370q167 148 453 148q275 0 448 -140
q170 -139 181 -423h-764q3 -236 176 -236q104 0 150 108zM1158 1290q0 -77 -54 -131q-55 -55 -132 -55t-131 55q-55 55 -55 131t55 131q56 54 131 54q78 0 132 -54q54 -55 54 -131zM642 1290q0 -75 -54 -131q-54 -55 -132 -55t-132 55q-54 56 -54 131q0 76 55 131
q54 54 131 54t132 -54q54 -55 54 -131z" />
    <glyph glyph-name="igrave" unicode="&#xec;" horiz-adv-x="831" 
d="M759 0h-687v305h100v360h-100v305h603v-665h84v-305zM442 1434l189 -363h-238l-414 363h463z" />
    <glyph glyph-name="iacute" unicode="&#xed;" horiz-adv-x="831" 
d="M759 0h-687v305h100v360h-100v305h603v-665h84v-305zM439 1071h-238l189 363h463z" />
    <glyph glyph-name="icircumflex" unicode="&#xee;" horiz-adv-x="831" 
d="M759 0h-687v305h100v360h-100v305h603v-665h84v-305zM226 1071h-285l207 363h484l203 -363h-278l-171 140z" />
    <glyph glyph-name="idieresis" unicode="&#xef;" horiz-adv-x="831" 
d="M759 0h-687v305h100v360h-100v305h603v-665h84v-305zM860 1290q0 -77 -54 -131q-55 -55 -132 -55t-131 55q-55 55 -55 131t55 131q56 54 131 54q78 0 132 -54q54 -55 54 -131zM344 1290q0 -75 -54 -131q-54 -55 -132 -55t-132 55q-54 56 -54 131q0 76 55 131
q54 54 131 54t132 -54q54 -55 54 -131z" />
    <glyph glyph-name="eth" unicode="&#xf0;" horiz-adv-x="1552" 
d="M769 715q-74 0 -121 -56t-47 -182q0 -116 50 -169q49 -52 116 -52q174 0 174 240q0 107 -46 163q-47 56 -126 56zM425 1419h475q43 -33 78 -56l314 56l22 -143l-193 -37q343 -325 343 -713q0 -239 -183 -397q-184 -157 -522 -157q-315 0 -494 149t-179 359q0 193 170 351
q169 157 451 157q116 0 219 -33q-28 37 -78.5 92.5t-124.5 125.5l-455 -77l-27 143l338 56q-11 8 -51 41q-59 51 -103 83z" />
    <glyph glyph-name="ntilde" unicode="&#xf1;" horiz-adv-x="1642" 
d="M838 0h-768v305h125v360h-125v305h628v-123q185 141 397 141q186 0 280 -103q93 -103 93 -331v-249h115v-305h-618v431q0 141 -24 186q-26 44 -99 44q-67 0 -144 -51v-305h140v-305zM608 1072h-223q13 170 90 261q76 91 184 91q76 0 196 -55q73 -32 107 -32q65 0 84 90
h222q-7 -160 -81 -258q-75 -98 -197 -98q-80 0 -182 51q-78 39 -110 39q-73 0 -90 -89z" />
    <glyph glyph-name="ograve" unicode="&#xf2;" 
d="M597 488q0 -232 166 -232q176 0 176 234q0 107 -43 166q-44 59 -124 59q-79 0 -127 -58t-48 -169zM88 490q0 214 180 361t486 147q308 0 501 -142t193 -370q0 -220 -184 -367t-486 -147q-326 0 -508 147q-182 146 -182 371zM794 1434l189 -363h-238l-414 363h463z" />
    <glyph glyph-name="oacute" unicode="&#xf3;" 
d="M597 488q0 -232 166 -232q176 0 176 234q0 107 -43 166q-44 59 -124 59q-79 0 -127 -58t-48 -169zM88 490q0 214 180 361t486 147q308 0 501 -142t193 -370q0 -220 -184 -367t-486 -147q-326 0 -508 147q-182 146 -182 371zM791 1071h-238l189 363h463z" />
    <glyph glyph-name="ocircumflex" unicode="&#xf4;" 
d="M597 488q0 -232 166 -232q176 0 176 234q0 107 -43 166q-44 59 -124 59q-79 0 -127 -58t-48 -169zM88 490q0 214 180 361t486 147q308 0 501 -142t193 -370q0 -220 -184 -367t-486 -147q-326 0 -508 147q-182 146 -182 371zM606 1071h-285l207 363h484l203 -363h-278
l-171 140z" />
    <glyph glyph-name="otilde" unicode="&#xf5;" 
d="M597 488q0 -232 166 -232q176 0 176 234q0 107 -43 166q-44 59 -124 59q-79 0 -127 -58t-48 -169zM88 490q0 214 180 361t486 147q308 0 501 -142t193 -370q0 -220 -184 -367t-486 -147q-326 0 -508 147q-182 146 -182 371zM550 1072h-223q13 170 90 261q76 91 184 91
q76 0 196 -55q73 -32 107 -32q65 0 84 90h222q-7 -160 -81 -258q-75 -98 -197 -98q-80 0 -182 51q-78 39 -110 39q-73 0 -90 -89z" />
    <glyph glyph-name="odieresis" unicode="&#xf6;" 
d="M597 488q0 -232 166 -232q176 0 176 234q0 107 -43 166q-44 59 -124 59q-79 0 -127 -58t-48 -169zM88 490q0 214 180 361t486 147q308 0 501 -142t193 -370q0 -220 -184 -367t-486 -147q-326 0 -508 147q-182 146 -182 371zM1212 1290q0 -77 -54 -131q-55 -55 -132 -55
t-131 55q-55 55 -55 131t55 131q56 54 131 54q78 0 132 -54q54 -55 54 -131zM696 1290q0 -75 -54 -131q-54 -55 -132 -55t-132 55q-54 56 -54 131q0 76 55 131q54 54 131 54t132 -54q54 -55 54 -131z" />
    <glyph glyph-name="divide" unicode="&#xf7;" horiz-adv-x="1368" 
d="M684 430q59 0 103 -41q43 -42 43 -105q0 -60 -43 -103t-103 -43t-102 43q-43 42 -43 103t43 104q44 42 102 42zM122 586v234h1124v-234h-1124zM684 1267q59 0 103 -41q43 -42 43 -105q0 -60 -42 -102q-43 -43 -104 -43q-59 0 -102 43q-43 42 -43 102q0 63 44 105
q44 41 101 41z" />
    <glyph glyph-name="oslash" unicode="&#xf8;" 
d="M934 553l-266 -267q41 -30 93 -30q92 0 135 64q43 62 43 163q0 28 -5 70zM603 413l267 268q-40 34 -98 34q-76 0 -126 -56q-49 -56 -49 -177q0 -34 6 -69zM1314 934l-70 -70q204 -148 204 -379q0 -158 -98 -280q-47 -60 -110 -105t-137 -73q-149 -55 -325 -55
q-200 0 -362 62l-107 -108l-99 95l82 81q-204 149 -204 388q0 216 182 362t484 146q201 0 366 -67l95 95z" />
    <glyph glyph-name="ugrave" unicode="&#xf9;" horiz-adv-x="1622" 
d="M164 665h-117v305h620v-462q0 -117 22 -157q21 -41 90 -41q84 0 156 45v310h-133v305h636v-665h117v-305h-620v123q-199 -141 -407 -141q-149 0 -256 95q-108 95 -108 358v230zM827 1434l189 -363h-238l-414 363h463z" />
    <glyph glyph-name="uacute" unicode="&#xfa;" horiz-adv-x="1622" 
d="M164 665h-117v305h620v-462q0 -117 22 -157q21 -41 90 -41q84 0 156 45v310h-133v305h636v-665h117v-305h-620v123q-199 -141 -407 -141q-149 0 -256 95q-108 95 -108 358v230zM824 1071h-238l189 363h463z" />
    <glyph glyph-name="ucircumflex" unicode="&#xfb;" horiz-adv-x="1622" 
d="M164 665h-117v305h620v-462q0 -117 22 -157q21 -41 90 -41q84 0 156 45v310h-133v305h636v-665h117v-305h-620v123q-199 -141 -407 -141q-149 0 -256 95q-108 95 -108 358v230zM639 1071h-285l207 363h484l203 -363h-278l-171 140z" />
    <glyph glyph-name="udieresis" unicode="&#xfc;" horiz-adv-x="1622" 
d="M164 665h-117v305h620v-462q0 -117 22 -157q21 -41 90 -41q84 0 156 45v310h-133v305h636v-665h117v-305h-620v123q-199 -141 -407 -141q-149 0 -256 95q-108 95 -108 358v230zM1245 1290q0 -77 -54 -131q-55 -55 -132 -55t-131 55q-55 55 -55 131t55 131q56 54 131 54
q78 0 132 -54q54 -55 54 -131zM729 1290q0 -75 -54 -131q-54 -55 -132 -55t-132 55q-54 56 -54 131q0 76 55 131q54 54 131 54t132 -54q54 -55 54 -131z" />
    <glyph glyph-name="yacute" unicode="&#xfd;" horiz-adv-x="1343" 
d="M679 -445h-424v295h163l49 99l-372 716h-75v305h661v-305h-107l169 -381l156 381h-94v305h501v-305h-97zM743 1071h-238l189 363h463z" />
    <glyph glyph-name="thorn" unicode="&#xfe;" horiz-adv-x="1642" 
d="M692 481q0 -105 48 -158q47 -54 119 -54q171 0 171 218q0 213 -164 213q-75 0 -124 -52q-50 -53 -50 -167zM75 1086v305h620v-486q160 83 329 83q216 0 371 -140q154 -141 154 -369q0 -230 -151 -363q-152 -134 -395 -134q-180 0 -308 80v-202h128v-305h-750v305h119
v1226h-117z" />
    <glyph glyph-name="ydieresis" unicode="&#xff;" horiz-adv-x="1343" 
d="M679 -445h-424v295h163l49 99l-372 716h-75v305h661v-305h-107l169 -381l156 381h-94v305h501v-305h-97zM1107 1290q0 -77 -54 -131q-55 -55 -132 -55t-131 55q-55 55 -55 131t55 131q56 54 131 54q78 0 132 -54q54 -55 54 -131zM591 1290q0 -75 -54 -131
q-54 -55 -132 -55t-132 55q-54 56 -54 131q0 76 55 131q54 54 131 54t132 -54q54 -55 54 -131z" />
    <glyph glyph-name="dotlessi" unicode="&#x131;" horiz-adv-x="831" 
d="M759 0h-687v305h100v360h-100v305h603v-665h84v-305z" />
    <glyph glyph-name="OE" unicode="&#x152;" horiz-adv-x="2367" 
d="M1026 333v725h-71q-105 0 -167 -36q-63 -39 -94 -122q-33 -85 -33 -220q0 -126 35 -205q35 -78 95 -110q59 -32 162 -32h73zM1884 446h367v-446h-1297q-288 0 -465 69q-178 68 -281 240q-104 173 -104 389q0 178 71 325q70 145 192 232q120 85 257 111q134 25 336 25
h1291v-445h-367v112h-320v-214h277v-283h-277v-228h320v113z" />
    <glyph glyph-name="oe" unicode="&#x153;" horiz-adv-x="2284" 
d="M595 485q0 -112 47 -171t128 -59q170 0 170 234q0 107 -46 166q-46 60 -122 60q-78 0 -127 -58q-50 -59 -50 -172zM1440 561h287q0 102 -39 159q-41 56 -104 56q-133 0 -144 -215zM1765 308l411 -55q-43 -110 -188 -196q-145 -85 -373 -85q-257 0 -425 93
q-145 -93 -439 -93q-328 0 -497 155q-168 155 -168 366q0 220 182 363q181 142 495 142q276 0 427 -96q158 96 394 96q137 0 247.5 -36.5t195.5 -109.5q170 -147 173 -417h-759v-28q0 -104 49 -156q50 -53 123 -53q93 0 152 110z" />
    <glyph glyph-name="Scaron" unicode="&#x160;" horiz-adv-x="1280" 
d="M406 0h-313v446h313q56 -182 211 -182q112 0 112 90q0 47 -39 78q-42 34 -177 94q-170 77 -250 133q-75 51 -128 141q-53 89 -53 197q0 194 126 303q125 109 308 109t310 -104v86h315v-396h-311q-57 164 -202 164q-102 0 -102 -87q0 -42 29 -63q28 -22 181 -97
q205 -102 274 -149q35 -23 71.5 -64.5t60.5 -85.5q55 -98 55 -212q0 -175 -130 -296q-130 -123 -328 -123q-184 0 -333 109v-91zM400 1475l-207 363h285l160 -139l171 139h278l-203 -363h-484z" />
    <glyph glyph-name="scaron" unicode="&#x161;" horiz-adv-x="1260" 
d="M432 -12h-311v308h291q112 -118 245 -118q134 0 134 55q0 28 -29 43q-30 16 -159 47q-104 28 -230 65q-109 31 -172 78q-65 47 -87 92q-24 45 -24 118q0 161 114 237q113 75 287 75q180 0 302 -68v50h307v-282h-284q-106 101 -252 101q-115 0 -115 -61q0 -29 34 -38
q29 -9 192 -43q185 -39 289 -78q103 -39 155 -103q51 -64 51 -157q0 -168 -125 -248q-124 -79 -306 -79q-181 0 -307 66v-60zM390 1071l-207 363h285l160 -139l171 139h278l-203 -363h-484z" />
    <glyph glyph-name="Ydieresis" unicode="&#x178;" horiz-adv-x="1493" 
d="M1130 0h-760v333h112v221l-351 504h-95v333h727v-333h-83l148 -284l179 284h-85v333h535v-333h-87l-350 -504v-221h110v-333zM1191 1664q0 -77 -54 -131q-55 -55 -132 -55t-131 55q-55 55 -55 131t55 131q56 54 131 54q78 0 132 -54q54 -55 54 -131zM675 1664
q0 -75 -54 -131q-54 -55 -132 -55t-132 55q-54 56 -54 131q0 76 55 131q54 54 131 54t132 -54q54 -55 54 -131z" />
    <glyph glyph-name="florin" unicode="&#x192;" horiz-adv-x="1130" 
d="M851 1005h131l-69 -316h-132l-165 -764q-24 -115 -62 -193t-86 -114q-98 -76 -209 -76h-235l59 276q73 3 99 44q23 39 40 117l154 710h-127l68 316h129l29 141q22 104 87 193q65 88 143 107q80 20 117 20h286l-58 -271q-32 2 -36 2q-74 0 -103 -26q-28 -27 -45 -99z" />
    <glyph glyph-name="circumflex" unicode="&#x2c6;" horiz-adv-x="682" 
d="M179 1071h-285l207 363h484l203 -363h-278l-171 140z" />
    <glyph glyph-name="caron" unicode="&#x2c7;" horiz-adv-x="682" 
d="M101 1071l-207 363h285l160 -139l171 139h278l-203 -363h-484z" />
    <glyph glyph-name="uni02C9" unicode="&#x2c9;" horiz-adv-x="682" 
d="M-170 1149v217h1024v-217h-1024z" />
    <glyph glyph-name="breve" unicode="&#x2d8;" horiz-adv-x="682" 
d="M-107 1420h230q39 -111 225 -111q170 0 209 111h233q-5 -155 -131 -252q-127 -97 -328 -97q-190 0 -306 95t-132 254z" />
    <glyph glyph-name="dotaccent" unicode="&#x2d9;" horiz-adv-x="682" 
d="M527 1290q0 -75 -54 -131q-54 -55 -132 -55t-132 55q-54 56 -54 131q0 76 55 131q54 54 131 54t132 -54q54 -55 54 -131z" />
    <glyph glyph-name="ring" unicode="&#x2da;" horiz-adv-x="682" 
d="M462 1270q0 50 -35 85q-37 35 -86 35q-50 0 -85 -35q-35 -37 -35 -85q0 -50 36 -85q35 -36 84 -36q50 0 86 36q35 35 35 85zM561 1270q0 -92 -64 -156t-156 -64q-90 0 -155 65t-65 155q0 91 64 155q65 65 156 65q92 0 156 -64t64 -156z" />
    <glyph glyph-name="ogonek" unicode="&#x2db;" horiz-adv-x="682" 
d="M115 26h211q-24 -83 -24 -144q0 -154 174 -154q58 0 160 26v-155q-145 -46 -264 -46q-159 0 -238 67t-79 167q0 93 60 239z" />
    <glyph glyph-name="tilde" unicode="&#x2dc;" horiz-adv-x="682" 
d="M123 1072h-223q13 170 90 261q76 91 184 91q76 0 196 -55q73 -32 107 -32q65 0 84 90h222q-7 -160 -81 -258q-75 -98 -197 -98q-80 0 -182 51q-78 39 -110 39q-73 0 -90 -89z" />
    <glyph glyph-name="hungarumlaut" unicode="&#x2dd;" horiz-adv-x="682" 
d="M702 1071h-238l189 363h463zM159 1071h-238l189 363h463z" />
    <glyph glyph-name="pi" unicode="&#x3c0;" horiz-adv-x="1408" 
d="M38 1063h1331v-202h-169v-861h-288v861h-415v-861h-292v861h-167v202z" />
    <glyph glyph-name="endash" unicode="&#x2013;" horiz-adv-x="1024" 
d="M-12 290v388h1048v-388h-1048z" />
    <glyph glyph-name="emdash" unicode="&#x2014;" horiz-adv-x="2048" 
d="M-12 290v388h2072v-388h-2072z" />
    <glyph glyph-name="quoteleft" unicode="&#x2018;" horiz-adv-x="811" 
d="M655 1391v-196q-81 0 -122 -23q-42 -25 -52 -57q-11 -32 -13 -127h187v-365h-499v311q0 169 12 230q12 62 70 123q58 59 141 82q81 22 276 22z" />
    <glyph glyph-name="quoteright" unicode="&#x2019;" horiz-adv-x="811" 
d="M156 623v196q80 0 122 24q42 25 52 57q11 33 12 127h-186v364h499v-311q0 -167 -12 -229q-12 -63 -70 -122q-57 -60 -141 -83t-276 -23z" />
    <glyph glyph-name="quotesinglbase" unicode="&#x201a;" horiz-adv-x="811" 
d="M156 -403v195q80 0 122 24q42 25 52 57q11 33 12 127h-186v364h499v-311q0 -168 -12 -229q-12 -63 -70 -122q-57 -60 -141 -83q-81 -22 -276 -22z" />
    <glyph glyph-name="quotedblleft" unicode="&#x201c;" horiz-adv-x="1473" 
d="M648 1391v-196q-81 0 -122 -23q-42 -25 -52 -57q-11 -32 -13 -127h187v-365h-499v311q0 169 12 230q12 62 70 123q58 59 141 82q81 22 276 22zM1323 1391v-196q-80 0 -121 -23q-43 -24 -53 -57q-11 -33 -12 -127h186v-365h-498v311q0 169 12 230q12 62 70 123
q58 59 141 82q81 22 275 22z" />
    <glyph glyph-name="quotedblright" unicode="&#x201d;" horiz-adv-x="1473" 
d="M825 623v196q81 0 121 24q41 24 53 57q11 33 12 127h-186v364h498v-311q0 -167 -12 -229q-12 -63 -70 -122q-58 -61 -140 -83q-84 -23 -276 -23zM149 623v196q80 0 122 24q42 25 52 57q11 33 12 127h-186v364h499v-311q0 -167 -12 -229q-12 -63 -70 -122
q-57 -60 -141 -83t-276 -23z" />
    <glyph glyph-name="quotedblbase" unicode="&#x201e;" horiz-adv-x="1473" 
d="M825 -403v195q81 0 121 24q41 24 53 57q11 33 12 127h-186v364h498v-311q0 -168 -12 -229q-12 -63 -70 -122q-58 -61 -140 -83q-81 -22 -276 -22zM149 -403v195q80 0 122 24q42 25 52 57q11 33 12 127h-186v364h499v-311q0 -168 -12 -229q-12 -63 -70 -122
q-57 -60 -141 -83q-81 -22 -276 -22z" />
    <glyph glyph-name="dagger" unicode="&#x2020;" horiz-adv-x="1386" 
d="M814 -426h-240l-110 696v229q102 85 113 266q-168 -19 -294 -109h-222v342h222q113 -82 291 -103q-4 166 -110 240v256h460v-259q-105 -92 -112 -237q202 18 291 103h223v-342h-223q-121 91 -293 109q5 -175 114 -266v-229z" />
    <glyph glyph-name="daggerdbl" unicode="&#x2021;" horiz-adv-x="1323" 
d="M887 -426h-456v260q89 74 105 230q-146 -17 -239 -101h-220v342h220q98 -89 239 -99q-7 182 -138 274q136 91 141 281q-147 -18 -242 -107h-220v343h220q82 -88 239 -103q-10 162 -107 234v263h458v-263q-97 -72 -108 -234q164 15 243 103h224v-343h-228q-95 89 -242 107
q5 -184 145 -281q-73 -38 -104 -96q-32 -59 -38 -178q141 10 239 99h228v-342h-224q-110 101 -243 101q14 -157 108 -230v-260z" />
    <glyph glyph-name="bullet" unicode="&#x2022;" horiz-adv-x="1024" 
d="M512 1005q123 0 217 -87t94 -224q0 -125 -90 -217t-222 -92q-126 0 -217 91q-92 92 -92 219q0 130 92 220t218 90z" />
    <glyph glyph-name="ellipsis" unicode="&#x2026;" horiz-adv-x="2048" 
d="M1956 0h-498v364h498v-364zM591 0h-499v364h499v-364zM1273 0h-498v364h498v-364z" />
    <glyph glyph-name="perthousand" unicode="&#x2030;" horiz-adv-x="2646" 
d="M2158 375q0 -121 18 -159t56 -38q39 0 56 41q17 42 17 155q0 120 -18 159q-18 38 -55 38q-40 0 -57 -39q-17 -42 -17 -157zM1866 374q0 175 105 280q106 104 260 104q157 0 262 -105q104 -106 104 -279q0 -172 -104 -278q-105 -105 -262 -105q-148 0 -257 101
q-108 101 -108 282zM1327 375q0 -121 18 -159t57 -38q40 0 57 44q15 44 15 152q0 119 -17 159q-18 38 -56 38q-40 0 -57 -39q-17 -42 -17 -157zM1035 374q0 180 108 282q107 102 258 102q156 0 261 -105q104 -106 104 -279q0 -180 -107 -281q-108 -102 -258 -102
q-149 0 -258 101q-108 101 -108 282zM341 1036q0 -121 18 -159t56 -38q41 0 57 43q16 42 16 153q0 119 -18 158q-18 38 -56 38t-55 -38q-18 -37 -18 -157zM49 1035q0 174 105 279q104 105 260 105q158 0 261 -105q104 -107 104 -279t-104 -278q-103 -106 -261 -106
q-149 0 -257 102q-108 101 -108 282zM1485 1419l-937 -1441h-218l937 1441h218z" />
    <glyph glyph-name="guilsinglleft" unicode="&#x2039;" horiz-adv-x="831" 
d="M303 970h453l-220 -487l220 -483h-453l-227 483z" />
    <glyph glyph-name="guilsinglright" unicode="&#x203a;" horiz-adv-x="831" 
d="M529 0h-453l221 487l-221 483h453l227 -483z" />
    <glyph glyph-name="Euro" unicode="&#x20ac;" horiz-adv-x="1409" 
d="M1321 408q-104 -426 -563 -426q-505 0 -615 495h-118v160h98q-2 19 -2 59q0 47 2 68h-98v160h120q54 234 196 364.5t333 130.5q204 0 332 -100v72h280v-441h-291q-68 172 -198 172q-63 0 -113.5 -50.5t-79.5 -147.5h254v-160h-278q-2 -19 -2 -66q0 -42 2 -61h278v-160
h-254q58 -201 199 -201q158 0 215 226z" />
    <glyph glyph-name="trademark" unicode="&#x2122;" horiz-adv-x="1942" 
d="M918 576v815h357l113 -445l119 445h346v-815h-221v576l-153 -576h-185l-151 576v-576h-225zM24 1197v194h801v-194h-285v-621h-235v621h-281z" />
    <glyph glyph-name="Omega" unicode="&#x2126;" horiz-adv-x="1749" 
d="M551 206q-385 162 -385 605q0 301 187 496.5t506 195.5q218 0 370 -66t261 -232.5t109 -393.5q0 -231 -106 -379.5t-276 -223.5l330 23h72v-231h-642v243q306 147 306 542q0 243 -113 371t-296 128q-188 0 -292.5 -141.5t-104.5 -351.5q0 -184 78.5 -332.5t233.5 -215.5
v-243h-645v230h98z" />
    <glyph glyph-name="partialdiff" unicode="&#x2202;" horiz-adv-x="1024" 
d="M383 1123l-137 84q51 147 154 215.5t216 68.5q156 0 260.5 -132t104.5 -417q0 -247 -77.5 -488.5t-222.5 -360t-321 -118.5q-142 0 -227 94t-85 259q0 260 204 437.5t539 177.5q12 0 39 -1q0 179 -58.5 273t-160.5 94q-137 0 -228 -186zM818 758q-29 1 -40 1
q-229 0 -365 -124.5t-136 -296.5q0 -70 39.5 -121.5t101.5 -51.5q137 0 251 160t149 433z" />
    <glyph glyph-name="Delta" unicode="&#x2206;" horiz-adv-x="1259" 
d="M1229 0h-1200l628 1387zM993 82l-399 967l-440 -967h839z" />
    <glyph glyph-name="product" unicode="&#x220f;" horiz-adv-x="1686" 
d="M162 1419h1362v-1859h-193v1685h-976v-1685h-193v1859z" />
    <glyph glyph-name="summation" unicode="&#x2211;" horiz-adv-x="1460" 
d="M139 1419h1237v-164h-988l607 -744l-647 -788h1038v-163h-1264v186l620 758l-603 739v176z" />
    <glyph glyph-name="fraction" unicode="&#x2215;" horiz-adv-x="319" 
d="M737 1419l-936 -1441h-219l937 1441h218z" />
    <glyph glyph-name="periodcentered" unicode="&#x2219;" horiz-adv-x="811" 
d="M655 521h-499v364h499v-364z" />
    <glyph glyph-name="radical" unicode="&#x221a;" horiz-adv-x="1131" 
d="M1053 1869h74l-312 -1947l-496 1021l-198 -91l-34 64l301 151l405 -823z" />
    <glyph glyph-name="infinity" unicode="&#x221e;" horiz-adv-x="1195" 
d="M547 798q134 229 323 229q129 0 218 -92t89 -257q0 -166 -89 -257.5t-218 -91.5q-189 0 -323 228q-49 -74 -129.5 -123t-157.5 -49q-107 0 -174.5 83.5t-67.5 209.5q0 125 66.5 208.5t175.5 83.5q77 0 157.5 -48.5t129.5 -123.5zM640 680q84 -129 127.5 -166.5
t105.5 -37.5q73 0 115.5 55t42.5 150q0 97 -44.5 148t-110.5 51q-112 0 -236 -200zM461 682q-96 140 -190 140q-48 0 -80.5 -36t-32.5 -100q0 -62 29.5 -104.5t83.5 -42.5q80 0 190 143z" />
    <glyph glyph-name="integral" unicode="&#x222b;" horiz-adv-x="555" 
d="M198 616l13 422q6 196 26.5 273.5t40.5 118.5t65 71t89 30q43 0 84 -30.5t41 -77.5q0 -44 -25.5 -73.5t-66.5 -29.5q-35 0 -76 35q-23 20 -40 20q-40 0 -40 -63q0 -42 9 -146q37 -409 37 -682q0 -51 -12 -453t-77.5 -493t-149.5 -91q-57 0 -88 36t-31 85q0 45 25.5 72
t64.5 27q40 0 70 -33q28 -30 48 -30q39 0 39 61q0 42 -9 120q-37 314 -37 831z" />
    <glyph glyph-name="approxequal" unicode="&#x2248;" horiz-adv-x="1368" 
d="M1246 655v-255q-83 -72 -162.5 -107t-156.5 -35q-71 0 -136 25q-73 28 -158 70q-133 66 -202 66q-151 0 -309 -151v255q163 142 328 142q99 0 270 -85q152 -76 229 -76q131 0 297 151zM1246 1138v-255q-83 -72 -162.5 -107t-156.5 -35q-63 0 -125 21q-56 19 -169 74
q-135 65 -202 65q-151 0 -309 -151v256q164 141 328 141q99 0 270 -85q153 -75 229 -75q131 0 297 151z" />
    <glyph glyph-name="notequal" unicode="&#x2260;" horiz-adv-x="1368" 
d="M1137 1589l-204 -521h313v-248h-411l-92 -234h503v-249h-600l-204 -520h-211l205 520h-314v249h411l92 234h-503v248h600l205 521h210z" />
    <glyph glyph-name="lessequal" unicode="&#x2264;" horiz-adv-x="1368" 
d="M122 -76v249h1124v-249h-1124zM1246 589v-265l-1124 466v225l1124 466v-265l-778 -314z" />
    <glyph glyph-name="greaterequal" unicode="&#x2265;" horiz-adv-x="1368" 
d="M122 -76v249h1124v-249h-1124zM122 1216v265l1124 -466v-225l-1124 -466v265l778 313z" />
    <glyph glyph-name="lozenge" unicode="&#x25ca;" horiz-adv-x="1012" 
d="M548 1422l418 -713l-418 -709h-111l-391 709l391 713h111zM494 1325l-340 -616l340 -615l359 615z" />
    <glyph glyph-name="fi" unicode="&#xf001;" horiz-adv-x="1622" 
d="M776 0h-706v305h122v360h-122v305h122q2 158 54 246q51 89 197 146t376 57q537 0 634 -274l-490 -59q-6 44 -44 74q-37 30 -91 30q-76 0 -104 -49q-29 -50 -29 -171h767v-665h110v-305h-690v305h77v360h-264v-360h81v-305z" />
    <glyph glyph-name="fl" unicode="&#xf002;" horiz-adv-x="1622" 
d="M776 0h-706v305h122v360h-122v305h122q-1 15 -1 34q0 204 157 310q158 105 460 105q116 0 283 -28h373v-1086h108v-305h-690v305h79v777q-4 40 -40 73q-34 30 -88 30q-55 0 -87 -24q-33 -26 -42 -62q-9 -37 -9 -129h131v-305h-131v-360h81v-305z" />
    </font>
</defs>
</svg>
