<?xml version="1.0" standalone="no"?>
<!DOCTYPE svg PUBLIC "-//W3C//DTD SVG 1.1//EN" "http://www.w3.org/Graphics/SVG/1.1/DTD/svg11.dtd" >
<svg>
<metadata>
Created by FontForge 20110222 at Mon Oct 21 20:41:19 2013
 By Orthosie Webhosting
Digitized data copyright (C) 1992 - 1997 The Monotype Corporation. Portions copyright Microsoft corporation.  All rights reserved.
</metadata>
<defs>
<font id="RockwellItalic" horiz-adv-x="575" >
  <font-face 
    font-family="RockwellItalic"
    font-weight="400"
    font-style="italic"
    font-stretch="normal"
    units-per-em="2048"
    panose-1="2 6 6 3 3 5 5 9 4 3"
    ascent="1638"
    descent="-410"
    x-height="968"
    cap-height="1391"
    bbox="-407 -562 2275 1869"
    underline-thickness="102"
    underline-position="-109"
    slope="-13"
    unicode-range="U+0020-F002"
  />
<missing-glyph horiz-adv-x="1536" 
d="M256 0v1280h1024v-1280h-1024zM288 32h960v1216h-960v-1216z" />
    <glyph glyph-name=".notdef" horiz-adv-x="1536" 
d="M256 0v1280h1024v-1280h-1024zM288 32h960v1216h-960v-1216z" />
    <glyph glyph-name=".null" horiz-adv-x="0" 
 />
    <glyph glyph-name="nonmarkingreturn" horiz-adv-x="512" 
 />
    <glyph glyph-name="space" unicode=" " horiz-adv-x="512" 
 />
    <glyph glyph-name="exclam" unicode="!" 
d="M309 370h-100l91 588l101 433h193l-93 -401zM105 235h241l-56 -235h-241z" />
    <glyph glyph-name="quotedbl" unicode="&#x22;" horiz-adv-x="854" 
d="M646 831l31 296q12 120 26 172t48.5 84t82.5 32q78 0 78 -71q0 -41 -83 -218l-139 -295h-44zM276 831l31 296q12 120 26 172t48.5 84t81.5 32q79 0 79 -71q0 -41 -84 -218l-138 -295h-44z" />
    <glyph glyph-name="numbersign" unicode="#" horiz-adv-x="1366" 
d="M596 1021h396l81 391h147l-81 -391h185v-147h-216l-73 -353h289v-147h-320l-81 -391h-147l81 391h-396l-81 -391h-147l81 391h-185v147h216l73 353h-289v147h320l81 391h147zM565 874l-73 -353h396l73 353h-396z" />
    <glyph glyph-name="dollar" unicode="$" horiz-adv-x="981" 
d="M308 0q-111 29 -185 119t-74 195q0 37 8 98h175q-8 -44 -8 -70q0 -139 119 -195l117 498q-215 143 -215 351q0 141 94 259t294 126l8 34h138l-12 -48q112 -28 172 -104.5t60 -169.5q0 -52 -19 -122h-160q15 52 15 106q0 117 -101 151l-111 -477q8 -6 19 -13
q238 -147 238 -356q0 -164 -118.5 -281.5t-318.5 -117.5l-38 -159h-138zM505 836l94 399q-97 -11 -143 -74.5t-46 -137.5q0 -107 95 -187zM579 563l-102 -434q106 13 167 83t61 155q0 114 -126 196z" />
    <glyph glyph-name="percent" unicode="%" horiz-adv-x="2048" 
d="M294 957q0 101 45.5 217t132.5 178.5t197 62.5q128 0 192.5 -76t64.5 -210q0 -177 -98.5 -314.5t-271.5 -137.5q-130 0 -196 77t-66 203zM445 953q0 -81 37.5 -121t87.5 -40q90 0 151 114.5t61 248.5q0 59 -31 102t-94 43q-87 0 -149.5 -114.5t-62.5 -232.5zM290 0
l1428 1391h133l-1428 -1391h-133zM1227 258q0 183 103 319t274 136q126 0 190 -75.5t64 -208.5q0 -172 -96 -311t-273 -139q-130 0 -196 77t-66 202zM1378 254q0 -83 37.5 -122.5t87.5 -39.5q90 0 150.5 114.5t60.5 248.5q0 60 -30.5 102.5t-93.5 42.5q-100 0 -156 -126.5
t-56 -219.5z" />
    <glyph glyph-name="ampersand" unicode="&#x26;" horiz-adv-x="1280" 
d="M1043 715h261l-37 -158h-118q-92 -205 -213 -324l35 -70h198l-39 -163h-268l-56 110q-163 -132 -358 -132q-194 0 -298.5 115.5t-104.5 280.5q0 319 395 501q-58 142 -58 230q0 126 90 217t229 91q131 0 209 -70t78 -181q0 -216 -326 -363l200 -412q104 124 181 328z
M599 939q212 91 212 219q0 55 -32.5 83t-78.5 28q-52 0 -97 -40t-45 -125q0 -66 41 -165zM511 726q-265 -124 -265 -330q0 -106 70 -179.5t177 -73.5q127 0 244 110z" />
    <glyph glyph-name="quotesingle" unicode="'" horiz-adv-x="449" 
d="M259 831l31 296q12 120 26 172t48.5 84t81.5 32q79 0 79 -71q0 -41 -84 -218l-138 -295h-44z" />
    <glyph glyph-name="parenleft" unicode="(" horiz-adv-x="768" 
d="M919 1413l-30 -131q-324 -123 -451 -440t-127 -621q0 -305 206 -525l-32 -139q-159 101 -255 303t-96 457q0 376 189.5 675.5t595.5 420.5z" />
    <glyph glyph-name="parenright" unicode=")" horiz-adv-x="768" 
d="M-147 -443l31 131q325 123 451.5 440.5t126.5 619.5q0 306 -206 526l32 139q156 -99 253.5 -301.5t97.5 -458.5q0 -376 -190 -676t-596 -420z" />
    <glyph glyph-name="asterisk" unicode="*" horiz-adv-x="1067" 
d="M837 1374l-37 -165q-86 -108 -114 -228q143 19 239 87l175 15l15 -185l-172 -18q-97 38 -216 38q-11 0 -27 -1q68 -136 148 -194l69 -159l-168 -72l-72 160q3 26 3 47q0 106 -42 199q-98 -87 -138 -207l-133 -115l-122 137l129 115q97 18 217 113q-115 63 -236 70
l-148 89l92 161l152 -88q59 -103 180 -180q10 44 10 113q0 68 -17 142l36 165z" />
    <glyph glyph-name="plus" unicode="+" horiz-adv-x="1366" 
d="M181 776h470v469h156v-469h470v-157h-470v-470h-156v470h-470v157z" />
    <glyph glyph-name="comma" unicode="," 
d="M109 235h241l-48 -205q-34 -144 -108 -221.5t-217 -86.5l20 86q148 19 186 192h-130z" />
    <glyph glyph-name="hyphen" unicode="-" horiz-adv-x="788" 
d="M118 573h577l-42 -177h-577z" />
    <glyph glyph-name="hyphen" unicode="&#xad;" horiz-adv-x="788" 
d="M118 573h577l-42 -177h-577z" />
    <glyph glyph-name="period" unicode="." 
d="M108 235h241l-56 -235h-241z" />
    <glyph glyph-name="slash" unicode="/" horiz-adv-x="897" 
d="M932 1415h179l-1042 -1437h-179z" />
    <glyph glyph-name="zero" unicode="0" horiz-adv-x="1087" 
d="M110 401q0 262 96.5 512t224.5 376t297 126q165 0 253 -121t88 -320q0 -159 -45.5 -339t-135 -344t-202.5 -238t-227 -74q-147 0 -248 113t-101 309zM288 366q0 -113 46.5 -176.5t128.5 -63.5q181 0 306.5 326.5t125.5 575.5q0 241 -179 241q-189 0 -308.5 -340
t-119.5 -563z" />
    <glyph glyph-name="one" unicode="1" horiz-adv-x="1087" 
d="M387 163l250 1065h-160l38 163h341l-288 -1228h146l-38 -163h-487l38 163h160z" />
    <glyph glyph-name="two" unicode="2" horiz-adv-x="1087" 
d="M744 479h166l-113 -479h-768q19 128 85.5 257.5t170 231t274.5 230.5q157 118 220.5 202.5t63.5 185.5q0 72 -46.5 117t-114.5 45q-113 0 -194 -116.5t-110 -277.5h-174q46 255 171.5 397.5t316.5 142.5q140 0 236 -84t96 -234q0 -97 -41 -185.5t-108.5 -153
t-200.5 -160.5q-186 -133 -280 -230t-141 -205h417z" />
    <glyph glyph-name="three" unicode="3" horiz-adv-x="1087" 
d="M99 459h175q-7 -57 -7 -82q0 -102 54 -175.5t169 -73.5q136 0 210 96t74 207q0 108 -75.5 165t-178.5 57q-24 0 -60 -3l36 152q188 0 289 74.5t101 212.5q0 90 -53.5 135.5t-133.5 45.5q-182 0 -256 -252h-169q35 174 147 285.5t286 111.5q157 0 258 -90.5t101 -236.5
q0 -130 -79 -233t-227 -137q202 -84 202 -294q0 -184 -127 -314.5t-344 -130.5q-192 0 -296.5 112t-104.5 276q0 46 9 92z" />
    <glyph glyph-name="four" unicode="4" horiz-adv-x="1087" 
d="M586 382h-474q-5 87 -57 162l799 858h153l-208 -884h208l-31 -136h-209l-51 -219h132l-39 -163h-441l38 163h129zM618 518l137 584l-543 -584h406z" />
    <glyph glyph-name="five" unicode="5" horiz-adv-x="1087" 
d="M113 443h175q-12 -55 -12 -102q0 -102 51 -158t137 -56q138 0 229 141.5t91 283.5q0 83 -50 139.5t-136 56.5q-119 0 -215 -109q-49 54 -118 91l166 661h683l-83 -353h-166l43 184h-368l-95 -381q91 60 191 60q141 0 237 -102t96 -269q0 -206 -137 -378.5t-368 -172.5
q-180 0 -271.5 108.5t-91.5 248.5q0 47 12 107z" />
    <glyph glyph-name="six" unicode="6" horiz-adv-x="1087" 
d="M1094 995h-155q9 54 9 95q0 74 -42 127t-129 53q-246 0 -362 -486q88 86 208 86q151 0 247 -109t96 -275q0 -122 -56.5 -249t-163.5 -192.5t-225 -65.5q-163 0 -259.5 119.5t-96.5 298.5q0 220 87.5 491.5t218 399t303.5 127.5q140 0 234.5 -85t94.5 -240q0 -50 -9 -95z
M363 560q-18 -94 -18 -184q0 -114 47.5 -181.5t139.5 -67.5q119 0 191.5 114t72.5 249q0 91 -55.5 159.5t-150.5 68.5q-138 0 -227 -158z" />
    <glyph glyph-name="seven" unicode="7" horiz-adv-x="1087" 
d="M524 163h143l-38 -163h-476l38 163h138q97 324 277 619t306 440h-499l-42 -181h-166l82 350h864l-36 -150q-185 -218 -354.5 -529.5t-236.5 -548.5z" />
    <glyph glyph-name="eight" unicode="8" horiz-adv-x="1087" 
d="M402 754q-119 89 -119 242q0 161 109.5 290t309.5 129q160 0 255.5 -90.5t95.5 -243.5q0 -142 -71 -240t-192 -137q145 -83 145 -270q0 -185 -131.5 -320t-337.5 -135q-155 0 -264 90.5t-109 261.5q0 150 82.5 261.5t226.5 161.5zM452 989q0 -88 46.5 -140t133.5 -52
q112 0 181.5 90.5t69.5 194.5q0 88 -50 137.5t-134 49.5q-113 0 -180 -85.5t-67 -194.5zM280 329q0 -98 53.5 -150.5t141.5 -52.5q123 0 199.5 100t76.5 224q0 92 -56.5 145.5t-149.5 53.5q-124 0 -194.5 -100t-70.5 -220z" />
    <glyph glyph-name="nine" unicode="9" horiz-adv-x="1087" 
d="M111 401h161q-9 -40 -9 -82q0 -195 166 -195q237 0 365 484q-99 -83 -213 -83q-151 0 -244 111t-93 275q0 200 125 352t313 152q168 0 264 -116.5t96 -309.5q0 -219 -91.5 -499t-225 -395.5t-291.5 -115.5q-126 0 -229 80.5t-103 242.5q0 47 9 99zM849 841q18 84 18 171
q0 136 -55 196t-142 60q-121 0 -190.5 -112t-69.5 -246q0 -112 58 -173.5t143 -61.5q152 0 238 166z" />
    <glyph glyph-name="colon" unicode=":" 
d="M277 968h242l-56 -236h-241zM106 235h241l-56 -235h-241z" />
    <glyph glyph-name="semicolon" unicode=";" 
d="M278 968h241l-56 -236h-241zM106 235h241l-48 -205q-34 -144 -108 -221.5t-217 -86.5l20 86q148 19 186 192h-130z" />
    <glyph glyph-name="less" unicode="&#x3c;" horiz-adv-x="1366" 
d="M1277 167l-1096 459v142l1096 460v-170l-882 -361l882 -360v-170z" />
    <glyph glyph-name="equal" unicode="=" horiz-adv-x="1366" 
d="M181 1011h1096v-157h-1096v157zM181 540h1096v-156h-1096v156z" />
    <glyph glyph-name="greater" unicode="&#x3e;" horiz-adv-x="1366" 
d="M181 1228l1096 -460v-142l-1096 -459v170l882 360l-882 361v170z" />
    <glyph glyph-name="question" unicode="?" horiz-adv-x="938" 
d="M426 367h-96l83 429q59 -14 109 -14q131 0 210 93t79 211q0 73 -43.5 124t-130.5 51q-178 0 -241 -201h-153q44 187 158.5 270t261.5 83q159 0 244.5 -90t85.5 -234q0 -190 -127 -319.5t-296 -129.5q-19 0 -54 3zM231 235h242l-56 -235h-241z" />
    <glyph glyph-name="at" unicode="@" horiz-adv-x="2068" 
d="M1206 138q-145 -166 -307 -166q-147 0 -254.5 124t-107.5 324q0 148 73 301.5t195 245.5t251 92q190 0 302 -184l34 155h179l-144 -671q-30 -140 -30 -156q0 -28 22 -46.5t46 -18.5q53 0 150.5 67t167.5 201t70 285q0 277 -206 454t-509 177q-370 0 -602 -250.5
t-232 -609.5q0 -372 230 -571t631 -199q235 0 419.5 79t284.5 223h181q-79 -166 -306 -308t-577 -142q-488 0 -749.5 247.5t-261.5 652.5q0 277 131 529.5t353 373.5t507 121q384 0 619 -228t235 -552q0 -278 -188 -497.5t-415 -219.5q-186 0 -192 167zM722 403
q0 -125 63 -204t150 -79q137 0 251.5 151t114.5 353q0 131 -65.5 208.5t-166.5 77.5q-152 0 -249.5 -166.5t-97.5 -340.5z" />
    <glyph glyph-name="A" unicode="A" horiz-adv-x="1323" 
d="M917 487h-488l-172 -324h151l-38 -163h-495l38 163h128l600 1065h-154l38 163h679l-38 -163h-144l124 -1065h129l-38 -163h-492l39 163h164zM902 650l-52 578h-34l-299 -578h385z" />
    <glyph glyph-name="B" unicode="B" horiz-adv-x="1153" 
d="M132 163l250 1065h-134l39 163h344q196 0 292.5 -23.5t159 -104t62.5 -196.5q0 -134 -80 -226.5t-231 -126.5q96 -36 152 -120.5t56 -188.5q0 -101 -52.5 -192.5t-130 -137.5t-172 -60.5t-282.5 -14.5h-427l38 163h116zM485 806h86q149 0 218 18.5t115.5 79t46.5 145.5
q0 69 -33 113t-83 55t-171 11h-80zM334 163h111q139 0 190 6.5t98.5 35.5t79 89.5t31.5 135.5q0 84 -39.5 137.5t-95.5 65.5t-191 12h-73z" />
    <glyph glyph-name="C" unicode="C" horiz-adv-x="1473" 
d="M1230 413l133 -120q-253 -315 -638 -315q-179 0 -314 72.5t-211.5 214t-76.5 311.5q0 200 106 391.5t308 318.5t470 127q257 0 401 -141l28 119h164l-89 -383h-164q-53 236 -356 236q-184 0 -335 -99t-236.5 -264.5t-85.5 -330.5q0 -173 115 -289t292 -116q261 0 489 268
z" />
    <glyph glyph-name="D" unicode="D" horiz-adv-x="1450" 
d="M130 163l250 1065h-141l38 163h332q216 0 331 -16t228 -88.5t178 -197t65 -271.5q0 -206 -84 -377t-208 -270t-289.5 -135t-497.5 -36h-358l38 163h118zM332 163h86q272 0 422 52.5t254.5 234t104.5 378.5q0 140 -71.5 241t-176.5 130t-294 29h-75z" />
    <glyph glyph-name="E" unicode="E" horiz-adv-x="1174" 
d="M127 163l249 1065h-132l38 163h1003l-98 -419h-165l60 256h-504l-100 -427h433l-36 -163h-435l-111 -475h517l65 266h163l-100 -429h-1012l38 163h127z" />
    <glyph glyph-name="F" unicode="F" horiz-adv-x="1067" 
d="M112 163l250 1065h-136l38 163h998l-98 -419h-165l60 256h-495l-100 -425h424l-38 -163h-424l-111 -477h149l-38 -163h-477l38 163h125z" />
    <glyph glyph-name="G" unicode="G" horiz-adv-x="1599" 
d="M981 507l38 163h517q-77 -348 -290 -520t-495 -172q-281 0 -450.5 172t-169.5 423q0 170 98 370.5t312.5 335t498.5 134.5q286 0 434 -157l32 135h160l-88 -375h-160q-92 232 -393 232q-284 0 -483 -202t-199 -483q0 -201 118.5 -306.5t303.5 -105.5q176 0 315.5 97
t199.5 259h-299z" />
    <glyph glyph-name="H" unicode="H" horiz-adv-x="1386" 
d="M125 163l249 1065h-135l38 163h465l-39 -163h-127l-97 -416h579l97 416h-135l38 163h435l-38 -163h-98l-250 -1065h133l-38 -163h-460l38 163h125l115 486h-579l-114 -486h131l-39 -163h-453l38 163h121z" />
    <glyph glyph-name="I" unicode="I" horiz-adv-x="598" 
d="M128 163l250 1065h-116l38 163h422l-38 -163h-105l-249 -1065h126l-38 -163h-438l38 163h110z" />
    <glyph glyph-name="J" unicode="J" horiz-adv-x="598" 
d="M-267 -437l44 187q153 0 224.5 84.5t128.5 328.5l249 1065h-119l38 163h429l-38 -163h-108l-243 -1039q-88 -375 -226 -502.5t-379 -123.5z" />
    <glyph glyph-name="K" unicode="K" horiz-adv-x="1217" 
d="M124 163l250 1065h-131l38 163h466l-38 -163h-133l-250 -1065h124l-38 -163h-446l38 163h120zM471 724l578 504h-149l38 163h476l-39 -163h-92l-586 -514l338 -551h120l-39 -163h-468l38 163h129z" />
    <glyph glyph-name="L" unicode="L" horiz-adv-x="1004" 
d="M125 163l250 1065h-146l38 163h495l-39 -163h-146l-250 -1065h459l97 412h165l-135 -575h-964l38 163h138z" />
    <glyph glyph-name="M" unicode="M" horiz-adv-x="1706" 
d="M124 163l250 1065h-127l38 163h417l129 -964l581 964h429l-38 -163h-125l-250 -1065h139l-38 -163h-434l38 163h130l244 1065l-751 -1235h-41l-170 1235l-254 -1065h123l-40 -163h-406l38 163h118z" />
    <glyph glyph-name="N" unicode="N" horiz-adv-x="1430" 
d="M128 163l249 1065h-154l39 163h403l361 -1105l221 942h-142l38 163h441l-38 -163h-134l-291 -1240h-199l-388 1202l-241 -1027h135l-39 -163h-435l38 163h136z" />
    <glyph glyph-name="O" unicode="O" horiz-adv-x="1599" 
d="M133 540q0 186 88.5 386.5t285.5 343.5t465 143q278 0 433 -156t155 -407q0 -195 -97.5 -396.5t-289 -338.5t-456.5 -137q-296 0 -440 168t-144 394zM345 531q0 -146 95 -263.5t286 -117.5q184 0 324 109t217.5 280.5t77.5 324.5q0 155 -102 267.5t-280 112.5
q-175 0 -325.5 -112t-221.5 -279t-71 -322z" />
    <glyph glyph-name="P" unicode="P" horiz-adv-x="1110" 
d="M129 163l250 1065h-134l38 163h375q137 0 209.5 -11.5t147.5 -59.5t118.5 -131.5t43.5 -184.5q0 -149 -78 -269t-208.5 -162t-350.5 -42h-123l-86 -368h159l-35 -163h-492l38 163h128zM455 693h109q149 0 226.5 22.5t132 101t54.5 192.5q0 84 -41.5 137.5t-99 67.5
t-173.5 14h-82z" />
    <glyph glyph-name="Q" unicode="Q" horiz-adv-x="1599" 
d="M852 -12q31 -11 113 -42q124 -48 206 -48q40 0 87 7l-122 -167q-36 -3 -55 -3q-100 0 -270 96q-99 57 -160.5 79t-132.5 22q-104 0 -175 -53l-45 69q55 58 149 78q-314 154 -314 523q0 196 99 397t288 334t452 133q289 0 438.5 -161.5t149.5 -401.5q0 -288 -193 -548.5
t-515 -313.5zM345 531q0 -146 95 -263.5t286 -117.5q270 0 444.5 232t174.5 482q0 155 -102 267.5t-281 112.5q-175 0 -325 -112.5t-221 -279.5t-71 -321z" />
    <glyph glyph-name="R" unicode="R" horiz-adv-x="1194" 
d="M125 163l250 1065h-134l38 163h408q173 0 236.5 -7.5t132 -46.5t107 -110t38.5 -167q0 -155 -97 -260.5t-274 -130.5l120 -506h151l-39 -163h-267l-148 658h-204l-116 -495h131l-38 -163h-449l38 163h116zM481 821h107q169 0 241.5 16t119 73t46.5 141q0 72 -36.5 115.5
t-89 52.5t-201.5 9h-91z" />
    <glyph glyph-name="S" unicode="S" horiz-adv-x="1067" 
d="M0 0l89 382h169l-29 -125q106 -120 262 -120q108 0 181 62.5t73 152.5q0 79 -49 137.5t-192 154.5q-151 103 -210.5 191.5t-59.5 205.5q0 167 116.5 269.5t298.5 102.5q180 0 294 -117l21 95h168l-88 -377h-168l25 106q-39 61 -110.5 99t-147.5 38q-97 0 -162 -53
t-65 -141q0 -65 42 -121.5t164 -138.5q126 -84 182.5 -134.5t91.5 -123t35 -163.5q0 -183 -129.5 -293.5t-332.5 -110.5q-164 0 -283 96l-17 -74h-169z" />
    <glyph glyph-name="T" unicode="T" horiz-adv-x="1194" 
d="M415 163l250 1065h-296l-80 -352h-169l121 515h1128l-121 -515h-165l82 352h-298l-250 -1065h130l-38 -163h-456l36 163h126z" />
    <glyph glyph-name="U" unicode="U" horiz-adv-x="1300" 
d="M274 1391h448l-39 -163h-121l-167 -713q-34 -144 -34 -189q0 -88 66 -138t161 -50q108 0 173.5 43t101 121t71.5 230l163 696h-122l38 163h441l-38 -163h-117l-167 -713q-50 -212 -108 -316.5t-173 -162.5t-275 -58q-210 0 -312 92t-102 234q0 78 37 234l161 690h-124z
" />
    <glyph glyph-name="V" unicode="V" horiz-adv-x="1386" 
d="M374 -14l-60 1242h-156l38 163h471l-38 -163h-122l46 -918l637 918h-174l38 163h500l-39 -163h-120l-859 -1242h-162z" />
    <glyph glyph-name="W" unicode="W" horiz-adv-x="2028" 
d="M328 -14l-26 1242h-151l38 163h475l-39 -163h-132l20 -883l518 883h-157l38 163h555l-38 -163h-130l19 -883l515 883h-137l38 163h427l-39 -163h-96l-718 -1242h-172l-25 1046l-606 -1046h-177z" />
    <glyph glyph-name="X" unicode="X" horiz-adv-x="1300" 
d="M588 718l-184 510h-138l38 163h427l-38 -163h-105l131 -371l354 371h-142l38 163h436l-38 -163h-93l-496 -524l202 -541h118l-39 -163h-435l39 163h132l-147 401l-379 -401h134l-38 -163h-434l38 163h93z" />
    <glyph glyph-name="Y" unicode="Y" horiz-adv-x="1174" 
d="M488 626l-209 602h-145l38 163h459l-39 -163h-130l162 -459l425 459h-168l39 163h480l-38 -163h-116l-556 -602l-109 -463h141l-38 -163h-477l39 163h133z" />
    <glyph glyph-name="Z" unicode="Z" horiz-adv-x="1153" 
d="M-18 0l39 163l905 1065h-461l-60 -256h-166l98 419h878l-38 -163l-908 -1065h521l66 280h165l-104 -443h-935z" />
    <glyph glyph-name="bracketleft" unicode="[" horiz-adv-x="641" 
d="M395 -273l-34 -136h-424l424 1800h424l-32 -136h-246l-358 -1528h246z" />
    <glyph glyph-name="backslash" unicode="\" horiz-adv-x="897" 
d="M377 1415l378 -1437h-153l-378 1437h153z" />
    <glyph glyph-name="bracketright" unicode="]" horiz-adv-x="641" 
d="M-120 -273h246l358 1528h-246l34 136h424l-424 -1800h-424z" />
    <glyph glyph-name="asciicircum" unicode="^" horiz-adv-x="874" 
d="M240 590h-185l353 801h145l355 -801h-181l-247 597z" />
    <glyph glyph-name="underscore" unicode="_" horiz-adv-x="1024" 
d="M-52 -154h1048v-102h-1048v102z" />
    <glyph glyph-name="grave" unicode="`" horiz-adv-x="682" 
d="M670 1125h-140l-380 286h357z" />
    <glyph glyph-name="a" unicode="a" horiz-adv-x="1087" 
d="M846 163h121l-35 -163h-295l31 135q-139 -151 -313 -151q-113 0 -202.5 77t-89.5 205q0 146 118 241.5t292 95.5q135 0 270 -71l25 108q13 56 13 80q0 63 -50 96.5t-122 33.5q-142 0 -238 -138l-152 69q59 91 173 152.5t249 61.5q152 0 236 -66t84 -171q0 -65 -22 -165z
M714 400l-43 20q-100 44 -184 44q-110 0 -177 -56.5t-67 -135.5q0 -67 46.5 -105.5t122.5 -38.5q118 0 266 127z" />
    <glyph glyph-name="b" unicode="b" horiz-adv-x="1260" 
d="M121 163l250 1065h-136l39 163h316l-126 -539q144 143 331 143q168 0 277.5 -113t109.5 -301q0 -251 -153 -424t-385 -173q-212 0 -342 179l-38 -163h-291l38 163h110zM370 403q0 -122 69.5 -191.5t178.5 -69.5q162 0 271.5 130t109.5 298q0 126 -71 193.5t-181 67.5
q-163 0 -270 -137t-107 -291z" />
    <glyph glyph-name="c" unicode="c" horiz-adv-x="1024" 
d="M767 293l133 -97q-168 -224 -426 -224q-183 0 -297.5 116t-114.5 285q0 237 159 429.5t377 192.5q168 0 268 -109l20 82h160l-69 -291h-160q-16 81 -77.5 124t-138.5 43q-140 0 -242 -135.5t-102 -314.5q0 -121 63 -195.5t180 -74.5q149 0 267 169z" />
    <glyph glyph-name="d" unicode="d" horiz-adv-x="1237" 
d="M974 163h135l-39 -163h-315l28 119q-138 -135 -324 -135q-179 0 -285 121.5t-106 310.5q0 229 160.5 404t374.5 175q207 0 345 -173l96 406h-151l38 163h331zM255 419q0 -123 69.5 -198.5t182.5 -75.5q152 0 262.5 130.5t110.5 303.5q0 126 -76.5 190.5t-181.5 64.5
q-150 0 -258.5 -129t-108.5 -286z" />
    <glyph glyph-name="e" unicode="e" horiz-adv-x="1130" 
d="M1044 440h-760q-7 -29 -7 -55q0 -120 69 -187t173 -67q145 0 246 138l189 -81q-57 -95 -177 -155.5t-256 -60.5q-209 0 -325 121t-116 310q0 151 76.5 286t204.5 220.5t280 85.5q184 0 300.5 -120.5t116.5 -314.5q0 -63 -14 -120zM873 576q3 31 3 50q0 80 -63.5 145.5
t-168.5 65.5q-107 0 -193.5 -70.5t-130.5 -190.5h553z" />
    <glyph glyph-name="f" unicode="f" 
d="M302 163h139l-38 -163h-428l38 163h108l150 642h-143l39 162h143l16 69q48 206 127 292.5t200 86.5q97 0 195 -62l-73 -125q-57 37 -104 37q-61 0 -96.5 -46t-73.5 -206l-11 -46h127l-38 -162h-127z" />
    <glyph glyph-name="g" unicode="g" horiz-adv-x="1237" 
d="M992 968h316l-39 -163h-134l-162 -693q-49 -209 -107 -319.5t-174 -179.5t-295 -69q-279 0 -427 163l97 135q145 -152 340 -152q157 0 245 97t140 325q-146 -140 -323 -140q-174 0 -284.5 120t-110.5 311q0 220 160.5 400t379.5 180q215 0 340 -178zM261 410
q0 -121 69 -198.5t184 -77.5q167 0 272 142t105 300q0 97 -69 171.5t-188 74.5q-158 0 -265.5 -125t-107.5 -287z" />
    <glyph glyph-name="h" unicode="h" horiz-adv-x="1130" 
d="M875 163h144l-38 -163h-326l127 537q33 144 33 175q0 100 -104 100q-98 0 -291 -130l-122 -519h144l-38 -163h-441l38 163h116l250 1065h-128l38 163h309l-126 -537q184 129 317 129q108 0 165.5 -69t57.5 -155q0 -65 -41 -239z" />
    <glyph glyph-name="i" unicode="i" 
d="M376 1301q0 47 33 80.5t79 33.5q48 0 80 -34t32 -80q0 -47 -32.5 -80.5t-79.5 -33.5q-45 0 -78.5 33.5t-33.5 80.5zM139 163l151 642h-133l38 163h314l-189 -805h141l-38 -163h-429l38 163h107z" />
    <glyph glyph-name="j" unicode="j" 
d="M370 1301q0 47 32.5 80.5t79.5 33.5t79.5 -33.5t32.5 -80.5t-33 -80.5t-79 -33.5q-47 0 -79.5 34t-32.5 80zM200 968h314l-195 -834q-62 -264 -100.5 -357.5t-117.5 -147.5t-199 -54q-50 0 -94 12l35 149l18 -2q17 -1 25 -1q63 0 114 41.5t72.5 107t70.5 273.5l152 650
h-133z" />
    <glyph glyph-name="k" unicode="k" horiz-adv-x="1067" 
d="M127 163l250 1065h-140l39 163h318l-206 -875l424 307h-153l34 145h484l-34 -145h-97l-452 -330l218 -330h156l-38 -163h-218l-324 493l-80 -330h148l-39 -163h-443l38 163h115z" />
    <glyph glyph-name="l" unicode="l" 
d="M132 163l250 1065h-130l38 163h311l-288 -1228h132l-39 -163h-423l38 163h111z" />
    <glyph glyph-name="m" unicode="m" horiz-adv-x="1729" 
d="M198 968h307l-28 -118q189 133 331 133q76 0 133 -45t78 -116q202 161 359 161q112 0 169.5 -70.5t57.5 -152.5q0 -64 -32 -199l-93 -398h143l-38 -163h-324l136 583q21 88 21 126q0 103 -101 103q-108 0 -298 -133l-120 -516h146l-38 -163h-327l139 594q21 87 21 115
q0 45 -30 73.5t-70 28.5q-106 0 -303 -132l-121 -516h145l-39 -163h-438l38 163h113l150 642h-125z" />
    <glyph glyph-name="n" unicode="n" horiz-adv-x="1130" 
d="M187 968h308l-26 -113q181 128 315 128q107 0 164.5 -70t57.5 -150q0 -67 -27 -182l-98 -418h143l-39 -163h-323l139 593q22 95 22 119q0 44 -29 72.5t-71 28.5q-111 0 -294 -128l-123 -522h145l-38 -163h-441l38 163h115l151 642h-127z" />
    <glyph glyph-name="o" unicode="o" horiz-adv-x="1153" 
d="M70 390q0 149 70 286.5t209.5 228t313.5 90.5q202 0 311 -118t109 -298q0 -142 -69.5 -291t-213.5 -232.5t-305 -83.5q-186 0 -305.5 110.5t-119.5 307.5zM272 408q0 -262 243 -262q170 0 273 130.5t103 301.5q0 110 -70.5 176.5t-186.5 66.5q-164 0 -263 -126t-99 -287z
" />
    <glyph glyph-name="p" unicode="p" horiz-adv-x="1237" 
d="M182 -274h152l-39 -163h-448l38 163h116l253 1079h-139l38 163h320l-28 -123q148 138 326 138q165 0 276.5 -121t111.5 -314q0 -231 -155.5 -403.5t-379.5 -172.5q-215 0 -345 168zM345 391q0 -123 71.5 -192t181.5 -69q164 0 269 127.5t105 295.5q0 126 -71.5 195.5
t-183.5 69.5q-162 0 -267 -138t-105 -289z" />
    <glyph glyph-name="q" unicode="q" horiz-adv-x="1237" 
d="M879 -274h124l-38 -163h-429l38 163h124l91 387q-141 -141 -329 -141q-171 0 -284 119.5t-113 312.5q0 229 165.5 404t375.5 175q211 0 347 -178l38 163h305l-38 -163h-124zM257 399q0 -122 68.5 -195t180.5 -73q159 0 268 138.5t109 305.5q0 106 -73.5 175.5
t-184.5 69.5q-149 0 -258.5 -122.5t-109.5 -298.5z" />
    <glyph glyph-name="r" unicode="r" horiz-adv-x="811" 
d="M307 163h160l-39 -163h-469l38 163h127l149 642h-150l40 163h314l-64 -274q91 152 194.5 220.5t243.5 68.5h43l-42 -178q-27 3 -46 3q-127 0 -220 -58.5t-148 -158.5t-91 -254z" />
    <glyph glyph-name="s" unicode="s" horiz-adv-x="874" 
d="M20 270h164q0 -68 60 -105t157 -37q89 0 137.5 36t48.5 88q0 49 -42 85.5t-148 77.5q-107 42 -162 75t-91 91t-36 123q0 112 93 195.5t256 83.5q152 0 250 -84l20 69h161l-63 -269h-162q-2 74 -67 105t-142 31q-80 0 -125.5 -32t-45.5 -80q0 -39 27 -64.5t103 -54.5
q216 -83 285 -158t69 -181q0 -126 -97.5 -203.5t-286.5 -77.5q-176 0 -249 79l-14 -63h-164z" />
    <glyph glyph-name="t" unicode="t" horiz-adv-x="598" 
d="M472 968h137l-38 -163h-137l-107 -456q-29 -124 -29 -154q0 -68 72 -68q50 0 151 56l-39 -166q-92 -45 -179 -45q-82 0 -133 53t-51 149q0 65 54 288l80 343h-110l38 163h110l46 192l221 172z" />
    <glyph glyph-name="u" unicode="u" horiz-adv-x="1130" 
d="M859 163h122l-38 -163h-304l27 112q-179 -128 -318 -128q-104 0 -165 68t-61 146q0 59 33 198l95 409h-120l39 163h301l-124 -525q-37 -159 -37 -196q0 -43 29.5 -70t73.5 -27q106 0 296 141l120 514h-144l38 163h325z" />
    <glyph glyph-name="v" unicode="v" horiz-adv-x="981" 
d="M246 -16l-51 821h-112l38 163h379l-38 -163h-95l34 -579l391 579h-128l38 163h389l-39 -163h-85l-558 -821h-163z" />
    <glyph glyph-name="w" unicode="w" horiz-adv-x="1516" 
d="M226 -16l-30 821h-114l38 163h357l-38 -163h-88l22 -570l365 570h-123l38 163h424l-39 -163h-104l21 -570l368 570h-116l38 163h361l-38 -163h-80l-520 -821h-158l-23 639l-406 -639h-155z" />
    <glyph glyph-name="x" unicode="x" horiz-adv-x="1044" 
d="M436 505l-169 306h-100l38 157h364l-39 -145h-94l120 -215l247 215h-123l38 145h399l-38 -157h-81l-375 -327l180 -327h86l-38 -157h-364l38 145h109l-128 233l-263 -233h133l-39 -145h-411l38 157h86z" />
    <glyph glyph-name="y" unicode="y" horiz-adv-x="1044" 
d="M81 -274l192 280l-45 799h-111l39 163h380l-38 -163h-101l34 -568l393 568h-133l38 163h396l-38 -163h-91l-850 -1242h-287l38 163h184z" />
    <glyph glyph-name="z" unicode="z" horiz-adv-x="854" 
d="M-53 0l38 163l665 662h-330l-48 -202h-155l80 345h703l-38 -166l-665 -655h364l49 208h154l-84 -355h-733z" />
    <glyph glyph-name="braceleft" unicode="{" horiz-adv-x="682" 
d="M100 556q72 2 120 36t67.5 99t19.5 233q0 215 24 299t92 126t200 42h56v-149h-31q-100 0 -136 -33.5t-36 -159.5q0 -222 -10 -311t-55 -152t-144 -108q105 -40 157 -129.5t52 -293.5q0 -188 5.5 -238t38 -76t128.5 -26h31v-149h-56q-98 0 -154 19t-97.5 71.5t-53 130
t-11.5 246.5q0 168 -19.5 233t-68 99t-119.5 36v155z" />
    <glyph glyph-name="bar" unicode="|" horiz-adv-x="1079" 
d="M507 1415h157v-1871h-157v1871z" />
    <glyph glyph-name="braceright" unicode="}" horiz-adv-x="682" 
d="M666 401q-72 -2 -120 -36t-67.5 -99.5t-19.5 -232.5q0 -215 -24 -299.5t-92 -126t-200 -41.5h-56v148h31q100 0 136 33.5t36 159.5q0 223 10 312t55 151.5t144 107.5q-105 40 -157 130t-52 293q0 188 -6 238.5t-38.5 76.5t-127.5 26h-31v149h56q98 0 154 -19t97.5 -71.5
t53 -130t11.5 -246.5q0 -168 19 -233t68 -99.5t120 -35.5v-155z" />
    <glyph glyph-name="asciitilde" unicode="~" horiz-adv-x="1194" 
d="M1191 668q-155 -128 -293 -128q-63 0 -121.5 18.5t-190.5 79.5q-127 60 -193 60q-135 0 -298 -140v169q157 128 305 128q93 0 293 -94q136 -63 204 -63q129 0 294 139v-169z" />
    <glyph glyph-name="uni00A0" unicode="&#xa0;" horiz-adv-x="512" 
 />
    <glyph glyph-name="exclamdown" unicode="&#xa1;" 
d="M467 732h-241l55 236h242zM262 598h101l-91 -589l-102 -432h-193l94 400z" />
    <glyph glyph-name="cent" unicode="&#xa2;" horiz-adv-x="1024" 
d="M744 970q69 -26 122 -84l20 84h160l-69 -293h-158q-22 108 -127 150l-258 -696q33 -7 66 -7q152 0 267 169l134 -97q-167 -224 -426 -224q-49 0 -96 9l-158 -424h-86l166 443q-112 49 -175.5 148t-63.5 222q0 237 157 431t380 194q34 0 69 -5l151 408h82zM361 163
l253 680q-12 1 -18 1q-132 0 -235.5 -133.5t-103.5 -321.5q0 -157 104 -226z" />
    <glyph glyph-name="sterling" unicode="&#xa3;" horiz-adv-x="938" 
d="M343 760q-24 140 -24 225q0 199 113.5 314.5t284.5 115.5q127 0 211.5 -68.5t84.5 -188.5q0 -55 -21 -125h-180q25 69 25 117q0 52 -37.5 86.5t-92.5 34.5q-78 0 -140.5 -66t-62.5 -203q0 -50 12 -135q12 -90 14 -107h273l-33 -149h-230q-2 -123 -17.5 -205.5
t-64.5 -183.5q77 -60 147 -60q107 0 165 169h121q-86 -352 -310 -352q-113 0 -207 108q-83 -108 -187 -108q-69 0 -115.5 50t-46.5 124q0 77 49.5 134t126.5 57t152 -52q19 92 19 179q0 54 -7 140h-246l35 149h189zM306 163q-61 71 -111 71q-33 0 -56.5 -22.5t-23.5 -59.5
q0 -32 20 -53t50 -21q65 0 121 85z" />
    <glyph glyph-name="currency" unicode="&#xa4;" horiz-adv-x="1366" 
d="M229 1091l104 107l132 -131q114 86 262 86q143 0 266 -86l131 131l104 -107l-130 -130q86 -125 86 -268q0 -142 -86 -259l130 -129l-104 -105l-131 129q-125 -88 -269 -88q-142 0 -259 88l-130 -129l-106 105l131 129q-86 132 -86 270q0 137 86 257zM729 1004
q-126 0 -216.5 -90t-90.5 -217t90.5 -217t216.5 -90q127 0 217.5 90t90.5 217q0 132 -91.5 219.5t-216.5 87.5z" />
    <glyph glyph-name="yen" unicode="&#xa5;" horiz-adv-x="1174" 
d="M842 769h352l-26 -117h-433l-24 -26l-41 -173h452l-26 -117h-453l-41 -173h141l-39 -163h-476l38 163h134l41 173h-404l26 117h405l41 173l-9 26h-391l26 117h324l-159 459h-145l38 163h458l-38 -163h-130l161 -459l426 459h-168l38 163h481l-38 -163h-116z" />
    <glyph glyph-name="brokenbar" unicode="&#xa6;" horiz-adv-x="1079" 
d="M507 1415h157v-778h-157v778zM507 322h157v-778h-157v778z" />
    <glyph glyph-name="section" unicode="&#xa7;" horiz-adv-x="918" 
d="M-27 -120l155 53q0 -97 63 -158.5t180 -61.5q98 0 153 45.5t55 112.5q0 57 -50 115.5t-200 167.5q-186 134 -243.5 206t-57.5 168q0 193 269 328q-109 102 -109 238q0 144 108 232.5t266 88.5q173 0 278.5 -85.5t105.5 -225.5q0 -12 -2 -33l-151 -51q1 26 1 32
q0 87 -59 150t-167 63q-107 0 -159 -51.5t-52 -109.5q0 -63 48.5 -114t189.5 -140q182 -114 243.5 -188.5t61.5 -178.5q0 -108 -77.5 -198t-209.5 -144q136 -128 136 -267q0 -144 -114 -228t-268 -84q-162 0 -276 89t-118 229zM516 227q227 86 227 223q0 43 -34.5 89
t-144.5 118q-134 87 -169 115q-89 -33 -141 -92t-52 -130q0 -51 32.5 -96t162.5 -138q73 -52 119 -89z" />
    <glyph glyph-name="dieresis" unicode="&#xa8;" horiz-adv-x="682" 
d="M617 1254q0 47 33 80t79 33q48 0 80 -33.5t32 -78.5q0 -46 -32.5 -79.5t-79.5 -33.5q-46 0 -79 33t-33 79zM201 1255q0 44 31.5 78t80.5 34q47 0 79.5 -33t32.5 -79q0 -47 -33 -80t-79 -33q-48 0 -80 33.5t-32 79.5z" />
    <glyph glyph-name="copyright" unicode="&#xa9;" horiz-adv-x="1516" 
d="M809 1413q190 0 368.5 -96.5t282 -277t103.5 -381.5q0 -312 -220.5 -533.5t-533.5 -221.5t-534 221.5t-221 533.5q0 203 103 381t280 276t372 98zM809 1287q-158 0 -307 -80.5t-236 -230.5t-87 -318q0 -260 184.5 -444.5t445.5 -184.5t445 184.5t184 444.5
q0 261 -185 445t-444 184zM1051 535l123 -36q-28 -126 -128 -199.5t-234 -73.5q-197 0 -297.5 124t-100.5 306q0 197 107.5 311t296.5 114q141 0 226 -67.5t115 -168.5l-119 -29q-61 154 -225 154q-126 0 -195.5 -89.5t-69.5 -227.5q0 -147 69 -228.5t184 -81.5
q85 0 156 50.5t92 141.5z" />
    <glyph glyph-name="ordfeminine" unicode="&#xaa;" horiz-adv-x="705" 
d="M692 902h86l-20 -86h-194l21 86q-90 -96 -205 -96q-76 0 -132.5 48t-56.5 121q0 87 76 145t190 58q88 0 176 -43l16 64q9 34 9 49q0 78 -113 78q-92 0 -154 -83l-98 41q95 129 271 129q100 0 155 -39.5t55 -105.5q0 -31 -16 -96zM613 1056q-81 38 -147 38
q-71 0 -114.5 -34t-43.5 -81q0 -43 31.5 -65t76.5 -22q80 0 175 77z" />
    <glyph glyph-name="guillemotleft" unicode="&#xab;" horiz-adv-x="938" 
d="M39 520l353 448h204l-378 -482l153 -486h-167zM461 520l354 448h203l-378 -482l154 -486h-168z" />
    <glyph glyph-name="logicalnot" unicode="&#xac;" horiz-adv-x="1366" 
d="M181 1011h1096v-627h-157v470h-939v157z" />
    <glyph glyph-name="registered" unicode="&#xae;" horiz-adv-x="1516" 
d="M809 1413q190 0 368.5 -96.5t282 -277t103.5 -381.5q0 -312 -220.5 -533.5t-533.5 -221.5t-534 221.5t-221 533.5q0 203 103 381t280 276t372 98zM809 1287q-158 0 -307 -80.5t-236 -230.5t-87 -318q0 -260 184.5 -444.5t445.5 -184.5t445 184.5t184 444.5
q0 261 -185 445t-444 184zM478 241v811h279q121 0 187 -16t113 -73t47 -131q0 -85 -61.5 -152.5t-170.5 -76.5q75 -21 189 -204l99 -158h-160l-72 128q-82 144 -125 180t-117 36h-77v-344h-131zM609 697h159q197 0 197 124q0 66 -47 93.5t-160 27.5h-149v-245z" />
    <glyph glyph-name="uni00AF" unicode="&#xaf;" horiz-adv-x="1024" 
d="M207 1647h1048v-102h-1048v102z" />
    <glyph glyph-name="degree" unicode="&#xb0;" horiz-adv-x="811" 
d="M541 1415q142 0 244 -101.5t102 -244.5q0 -142 -101.5 -244t-244.5 -102t-244.5 102t-101.5 244q0 144 101.5 245t244.5 101zM541 1285q-87 0 -151 -61.5t-64 -153.5q0 -89 63.5 -152t151.5 -63q89 0 152 63.5t63 151.5q0 92 -64 153.5t-151 61.5z" />
    <glyph glyph-name="plusminus" unicode="&#xb1;" horiz-adv-x="1366" 
d="M181 945h470v470h156v-470h470v-157h-470v-469h-156v469h-470v157zM181 137h1096v-157h-1096v157z" />
    <glyph glyph-name="twosuperior" unicode="&#xb2;" horiz-adv-x="662" 
d="M553 938h122l-70 -258h-477q17 107 88.5 191t233.5 189q104 68 131.5 111t27.5 81q0 37 -25.5 56.5t-56.5 19.5q-57 0 -104.5 -55.5t-64.5 -146.5h-127q55 289 288 289q89 0 143.5 -47.5t54.5 -119.5q0 -75 -44 -131t-161 -132q-209 -136 -220 -208h217z" />
    <glyph glyph-name="threesuperior" unicode="&#xb3;" horiz-adv-x="662" 
d="M166 928h127q-4 -34 -4 -48q0 -121 119 -121q77 0 116.5 47t39.5 100q0 107 -143 107q-13 0 -45 -2l25 91q229 0 229 140q0 86 -98 86q-102 0 -142 -128h-123q21 97 91.5 156t177.5 59q95 0 159.5 -48t64.5 -128q0 -68 -47.5 -122t-120.5 -67q45 -10 77 -52.5t32 -92.5
q0 -98 -79 -166.5t-213 -68.5q-114 0 -181.5 57.5t-67.5 146.5q0 23 6 54z" />
    <glyph glyph-name="acute" unicode="&#xb4;" horiz-adv-x="682" 
d="M337 1125l165 286h357l-382 -286h-140z" />
    <glyph glyph-name="uni00B5" unicode="&#xb5;" horiz-adv-x="1130" 
d="M255 968h180l-93 -405q-46 -200 -46 -265q0 -74 52.5 -122.5t140.5 -48.5q91 0 182 62.5t145 300.5l109 478h178l-226 -968h-162l20 84q-132 -109 -269 -109q-142 0 -234 125l-134 -534h-178z" />
    <glyph glyph-name="paragraph" unicode="&#xb6;" horiz-adv-x="1110" 
d="M446 -434v997q-185 8 -294.5 120.5t-109.5 289.5q0 178 115 298t358 120h633v-173h-144v-1652h-170v1652h-223v-1652h-165z" />
    <glyph glyph-name="cedilla" unicode="&#xb8;" horiz-adv-x="682" 
d="M270 18l-50 -115q67 -7 105 -46.5t38 -94.5q0 -94 -89.5 -149.5t-230.5 -55.5q-69 0 -155 14l33 87q42 -5 82 -5q87 0 133.5 25t46.5 68q0 31 -25 49t-59 18h-25l94 205h102z" />
    <glyph glyph-name="onesuperior" unicode="&#xb9;" horiz-adv-x="662" 
d="M334 777l143 530h-94l26 96h225l-170 -626h87l-26 -97h-312l26 97h95z" />
    <glyph glyph-name="ordmasculine" unicode="&#xba;" horiz-adv-x="748" 
d="M192 1050q0 147 111.5 255t273.5 108q137 0 205 -73.5t68 -171.5q0 -159 -108.5 -264t-273.5 -105q-120 0 -198 66t-78 185zM323 1050q0 -147 158 -147q109 0 177 78t68 181q0 65 -45 105.5t-122 40.5q-102 0 -169 -73t-67 -185z" />
    <glyph glyph-name="guillemotright" unicode="&#xbb;" horiz-adv-x="938" 
d="M901 448l-354 -448h-203l378 482l-154 486h168zM479 448l-354 -448h-203l378 482l-154 486h167z" />
    <glyph glyph-name="onequarter" unicode="&#xbc;" horiz-adv-x="2048" 
d="M310 777l144 530h-94l26 96h225l-170 -626h87l-26 -97h-312l26 97h94zM118 0l1428 1391h133l-1429 -1391h-132zM1327 195h-278q0 50 -34 89l478 444h110l-121 -451h121l-21 -82h-124l-27 -99h78l-27 -96h-284l27 96h76zM1350 277l70 260l-280 -260h210z" />
    <glyph glyph-name="onehalf" unicode="&#xbd;" horiz-adv-x="2048" 
d="M315 777l144 530h-94l26 96h225l-170 -626h87l-26 -97h-312l26 97h94zM111 0l1428 1391h133l-1429 -1391h-132zM1429 257h123l-70 -257h-477q17 107 88.5 191t233.5 189q103 68 131 110.5t28 80.5t-25.5 57t-56.5 19q-65 0 -110.5 -63.5t-59.5 -137.5h-126
q55 289 288 289q89 0 143.5 -47.5t54.5 -119.5q0 -76 -44 -131.5t-161 -131.5q-209 -136 -220 -209h217z" />
    <glyph glyph-name="threequarters" unicode="&#xbe;" horiz-adv-x="2048" 
d="M217 928h127q-4 -34 -4 -48q0 -121 119 -121q77 0 116.5 47t39.5 100q0 107 -143 107q-13 0 -45 -2l25 91q229 0 229 140q0 86 -98 86q-102 0 -142 -128h-123q21 97 91.5 156t177.5 59q95 0 159.5 -48t64.5 -128q0 -68 -47.5 -122t-120.5 -67q45 -10 77 -52.5t32 -92.5
q0 -98 -79 -166.5t-213 -68.5q-114 0 -181.5 57.5t-67.5 146.5q0 23 6 54zM213 0l1428 1391h132l-1428 -1391h-132zM1410 195h-278q-1 50 -35 89l478 444h111l-122 -451h122l-22 -82h-123l-27 -99h78l-28 -96h-283l26 96h76zM1432 277l71 260l-280 -260h209z" />
    <glyph glyph-name="questiondown" unicode="&#xbf;" horiz-adv-x="938" 
d="M747 744h-241l56 236h241zM553 612h96l-83 -428q-59 14 -109 14q-140 0 -215 -98.5t-75 -205.5q0 -74 44 -124.5t131 -50.5q177 0 241 200h153q-44 -187 -158.5 -269.5t-261.5 -82.5q-159 0 -244.5 90t-85.5 233q0 190 127 319.5t296 129.5q18 0 54 -2z" />
    <glyph glyph-name="Agrave" unicode="&#xc0;" horiz-adv-x="1323" 
d="M917 487h-488l-172 -324h151l-38 -163h-495l38 163h128l600 1065h-154l38 163h679l-38 -163h-144l124 -1065h129l-38 -163h-492l39 163h164zM902 650l-52 578h-34l-299 -578h385zM1044 1516h-140l-380 286h357z" />
    <glyph glyph-name="Aacute" unicode="&#xc1;" horiz-adv-x="1323" 
d="M917 487h-488l-172 -324h151l-38 -163h-495l38 163h128l600 1065h-154l38 163h679l-38 -163h-144l124 -1065h129l-38 -163h-492l39 163h164zM902 650l-52 578h-34l-299 -578h385zM773 1516l165 286h357l-382 -286h-140z" />
    <glyph glyph-name="Acircumflex" unicode="&#xc2;" horiz-adv-x="1323" 
d="M917 487h-488l-172 -324h151l-38 -163h-495l38 163h128l600 1065h-154l38 163h679l-38 -163h-144l124 -1065h129l-38 -163h-492l39 163h164zM902 650l-52 578h-34l-299 -578h385zM568 1483l245 306h262l97 -306h-137l-122 159l-207 -159h-138z" />
    <glyph glyph-name="Atilde" unicode="&#xc3;" horiz-adv-x="1323" 
d="M917 487h-488l-172 -324h151l-38 -163h-495l38 163h128l600 1065h-154l38 163h679l-38 -163h-144l124 -1065h129l-38 -163h-492l39 163h164zM902 650l-52 578h-34l-299 -578h385zM1131 1765h113q1 -25 1 -42q0 -109 -48.5 -176t-129.5 -67q-69 0 -217 93q-50 32 -79 32
q-68 0 -72 -110h-116q0 143 56 207t135 64q58 0 175 -70q91 -55 117 -55q62 0 65 124z" />
    <glyph glyph-name="Adieresis" unicode="&#xc4;" horiz-adv-x="1323" 
d="M917 487h-488l-172 -324h151l-38 -163h-495l38 163h128l600 1065h-154l38 163h679l-38 -163h-144l124 -1065h129l-38 -163h-492l39 163h164zM902 650l-52 578h-34l-299 -578h385zM983 1611q0 47 33 80t79 33q48 0 80 -33.5t32 -78.5q0 -46 -32.5 -79.5t-79.5 -33.5
q-46 0 -79 33t-33 79zM567 1612q0 44 31.5 78t80.5 34q47 0 79.5 -33t32.5 -79q0 -47 -33 -80t-79 -33q-48 0 -80 33.5t-32 79.5z" />
    <glyph glyph-name="Aring" unicode="&#xc5;" horiz-adv-x="1323" 
d="M803 1391q-132 61 -132 201q0 90 64.5 155t154.5 65q92 0 156 -64.5t64 -154.5q0 -140 -132 -202h226l-38 -163h-144l124 -1065h129l-38 -163h-492l39 163h164l-31 324h-488l-172 -324h151l-38 -163h-495l38 163h128l600 1065h-154l38 163h278zM770 1592q0 -49 35 -84.5
t86 -35.5q49 0 84.5 35t35.5 86q0 49 -35 84.5t-85 35.5t-85.5 -35.5t-35.5 -85.5zM902 650l-52 578h-34l-299 -578h385z" />
    <glyph glyph-name="AE" unicode="&#xc6;" horiz-adv-x="1985" 
d="M1012 633h-353l-348 -470h144l-38 -163h-499l38 163h144l784 1065h-181l38 163h1317l-98 -419h-165l57 256h-498l-102 -433h444l-38 -162h-444l-110 -470h518l62 263h168l-102 -426h-1047l38 163h161zM1050 795l102 433h-54l-321 -433h273z" />
    <glyph glyph-name="Ccedilla" unicode="&#xc7;" horiz-adv-x="1473" 
d="M717 -22l-30 -57q83 -7 125.5 -50t42.5 -98q0 -96 -89 -166t-260 -70q-89 0 -184 16l50 113q57 -5 101 -5q77 0 121 24t44 59q0 33 -32 50t-71 17q-9 0 -25 -1l93 178q-227 36 -353.5 201t-126.5 387q0 200 106 391.5t308 318.5t470 127q257 0 401 -141l28 119h164
l-89 -383h-164q-53 236 -356 236q-184 0 -335 -99t-236.5 -264.5t-85.5 -330.5q0 -173 115 -289t292 -116q261 0 489 268l133 -120q-252 -315 -646 -315z" />
    <glyph glyph-name="Egrave" unicode="&#xc8;" horiz-adv-x="1174" 
d="M127 163l249 1065h-132l38 163h1003l-98 -419h-165l60 256h-504l-100 -427h433l-36 -163h-435l-111 -475h517l65 266h163l-100 -429h-1012l38 163h127zM1054 1516h-140l-380 286h357z" />
    <glyph glyph-name="Eacute" unicode="&#xc9;" horiz-adv-x="1174" 
d="M127 163l249 1065h-132l38 163h1003l-98 -419h-165l60 256h-504l-100 -427h433l-36 -163h-435l-111 -475h517l65 266h163l-100 -429h-1012l38 163h127zM701 1516l165 286h357l-382 -286h-140z" />
    <glyph glyph-name="Ecircumflex" unicode="&#xca;" horiz-adv-x="1174" 
d="M127 163l249 1065h-132l38 163h1003l-98 -419h-165l60 256h-504l-100 -427h433l-36 -163h-435l-111 -475h517l65 266h163l-100 -429h-1012l38 163h127zM494 1483l245 306h262l97 -306h-137l-122 159l-207 -159h-138z" />
    <glyph glyph-name="Edieresis" unicode="&#xcb;" horiz-adv-x="1174" 
d="M127 163l249 1065h-132l38 163h1003l-98 -419h-165l60 256h-504l-100 -427h433l-36 -163h-435l-111 -475h517l65 266h163l-100 -429h-1012l38 163h127zM933 1611q0 47 33 80t79 33q48 0 80 -33.5t32 -78.5q0 -46 -32.5 -79.5t-79.5 -33.5q-46 0 -79 33t-33 79zM517 1612
q0 44 31.5 78t80.5 34q47 0 79.5 -33t32.5 -79q0 -47 -33 -80t-79 -33q-48 0 -80 33.5t-32 79.5z" />
    <glyph glyph-name="Igrave" unicode="&#xcc;" horiz-adv-x="598" 
d="M128 163l250 1065h-116l38 163h422l-38 -163h-105l-249 -1065h126l-38 -163h-438l38 163h110zM694 1516h-140l-380 286h357z" />
    <glyph glyph-name="Iacute" unicode="&#xcd;" horiz-adv-x="598" 
d="M128 163l250 1065h-116l38 163h422l-38 -163h-105l-249 -1065h126l-38 -163h-438l38 163h110zM425 1516l165 286h357l-382 -286h-140z" />
    <glyph glyph-name="Icircumflex" unicode="&#xce;" horiz-adv-x="598" 
d="M128 163l250 1065h-116l38 163h422l-38 -163h-105l-249 -1065h126l-38 -163h-438l38 163h110zM206 1483l245 306h262l97 -306h-137l-122 159l-207 -159h-138z" />
    <glyph glyph-name="Idieresis" unicode="&#xcf;" horiz-adv-x="598" 
d="M128 163l250 1065h-116l38 163h422l-38 -163h-105l-249 -1065h126l-38 -163h-438l38 163h110zM645 1611q0 47 33 80t79 33q48 0 80 -33.5t32 -78.5q0 -46 -32.5 -79.5t-79.5 -33.5q-46 0 -79 33t-33 79zM229 1612q0 44 31.5 78t80.5 34q47 0 79.5 -33t32.5 -79
q0 -47 -33 -80t-79 -33q-48 0 -80 33.5t-32 79.5z" />
    <glyph glyph-name="Eth" unicode="&#xd0;" horiz-adv-x="1450" 
d="M239 629h-182l31 133h183l109 466h-141l38 163h332q216 0 331 -16t228 -88.5t178 -197t65 -271.5q0 -206 -84 -377t-208 -270t-289.5 -135t-497.5 -36h-358l38 163h118zM441 629l-109 -466h86q272 0 422 52.5t254.5 234t104.5 378.5q0 140 -71.5 241t-176.5 130t-294 29
h-75l-109 -466h311l-30 -133h-313z" />
    <glyph glyph-name="Ntilde" unicode="&#xd1;" horiz-adv-x="1430" 
d="M128 163l249 1065h-154l39 163h403l361 -1105l221 942h-142l38 163h441l-38 -163h-134l-291 -1240h-199l-388 1202l-241 -1027h135l-39 -163h-435l38 163h136zM1172 1765h113q1 -25 1 -42q0 -109 -48.5 -176t-129.5 -67q-69 0 -217 93q-50 32 -79 32q-68 0 -72 -110h-116
q0 143 56 207t135 64q58 0 175 -70q91 -55 117 -55q62 0 65 124z" />
    <glyph glyph-name="Ograve" unicode="&#xd2;" horiz-adv-x="1599" 
d="M133 540q0 186 88.5 386.5t285.5 343.5t465 143q278 0 433 -156t155 -407q0 -195 -97.5 -396.5t-289 -338.5t-456.5 -137q-296 0 -440 168t-144 394zM345 531q0 -146 95 -263.5t286 -117.5q184 0 324 109t217.5 280.5t77.5 324.5q0 155 -102 267.5t-280 112.5
q-175 0 -325.5 -112t-221.5 -279t-71 -322zM1194 1516h-140l-380 286h357z" />
    <glyph glyph-name="Oacute" unicode="&#xd3;" horiz-adv-x="1599" 
d="M133 540q0 186 88.5 386.5t285.5 343.5t465 143q278 0 433 -156t155 -407q0 -195 -97.5 -396.5t-289 -338.5t-456.5 -137q-296 0 -440 168t-144 394zM345 531q0 -146 95 -263.5t286 -117.5q184 0 324 109t217.5 280.5t77.5 324.5q0 155 -102 267.5t-280 112.5
q-175 0 -325.5 -112t-221.5 -279t-71 -322zM877 1516l165 286h357l-382 -286h-140z" />
    <glyph glyph-name="Ocircumflex" unicode="&#xd4;" horiz-adv-x="1599" 
d="M133 540q0 186 88.5 386.5t285.5 343.5t465 143q278 0 433 -156t155 -407q0 -195 -97.5 -396.5t-289 -338.5t-456.5 -137q-296 0 -440 168t-144 394zM345 531q0 -146 95 -263.5t286 -117.5q184 0 324 109t217.5 280.5t77.5 324.5q0 155 -102 267.5t-280 112.5
q-175 0 -325.5 -112t-221.5 -279t-71 -322zM706 1483l245 306h262l97 -306h-137l-122 159l-207 -159h-138z" />
    <glyph glyph-name="Otilde" unicode="&#xd5;" horiz-adv-x="1599" 
d="M133 540q0 186 88.5 386.5t285.5 343.5t465 143q278 0 433 -156t155 -407q0 -195 -97.5 -396.5t-289 -338.5t-456.5 -137q-296 0 -440 168t-144 394zM345 531q0 -146 95 -263.5t286 -117.5q184 0 324 109t217.5 280.5t77.5 324.5q0 155 -102 267.5t-280 112.5
q-175 0 -325.5 -112t-221.5 -279t-71 -322zM1257 1765h113q1 -25 1 -42q0 -109 -48.5 -176t-129.5 -67q-69 0 -217 93q-50 32 -79 32q-68 0 -72 -110h-116q0 143 56 207t135 64q58 0 175 -70q91 -55 117 -55q62 0 65 124z" />
    <glyph glyph-name="Odieresis" unicode="&#xd6;" horiz-adv-x="1599" 
d="M133 540q0 186 88.5 386.5t285.5 343.5t465 143q278 0 433 -156t155 -407q0 -195 -97.5 -396.5t-289 -338.5t-456.5 -137q-296 0 -440 168t-144 394zM345 531q0 -146 95 -263.5t286 -117.5q184 0 324 109t217.5 280.5t77.5 324.5q0 155 -102 267.5t-280 112.5
q-175 0 -325.5 -112t-221.5 -279t-71 -322zM1121 1611q0 47 33 80t79 33q48 0 80 -33.5t32 -78.5q0 -46 -32.5 -79.5t-79.5 -33.5q-46 0 -79 33t-33 79zM705 1612q0 44 31.5 78t80.5 34q47 0 79.5 -33t32.5 -79q0 -47 -33 -80t-79 -33q-48 0 -80 33.5t-32 79.5z" />
    <glyph glyph-name="multiply" unicode="&#xd7;" horiz-adv-x="1366" 
d="M222 301l396 396l-396 396l111 111l396 -396l396 396l111 -111l-396 -396l396 -396l-111 -111l-396 396l-396 -396z" />
    <glyph glyph-name="Oslash" unicode="&#xd8;" horiz-adv-x="1599" 
d="M1420 1241q140 -151 140 -392q0 -193 -96.5 -394t-289 -339t-456.5 -138q-203 0 -345 86l-83 -91l-97 91l80 88q-140 153 -140 398q0 191 97 392t287 336t453 135q208 0 350 -88l83 93l97 -86zM411 306l779 873q-92 65 -229 65q-264 0 -440 -225.5t-176 -476.5
q0 -138 66 -236zM1281 1085l-778 -873q91 -62 224 -62q182 0 322 108.5t218 280.5t78 324q0 120 -64 222z" />
    <glyph glyph-name="Ugrave" unicode="&#xd9;" horiz-adv-x="1300" 
d="M274 1391h448l-39 -163h-121l-167 -713q-34 -144 -34 -189q0 -88 66 -138t161 -50q108 0 173.5 43t101 121t71.5 230l163 696h-122l38 163h441l-38 -163h-117l-167 -713q-50 -212 -108 -316.5t-173 -162.5t-275 -58q-210 0 -312 92t-102 234q0 78 37 234l161 690h-124z
M1056 1516h-140l-380 286h357z" />
    <glyph glyph-name="Uacute" unicode="&#xda;" horiz-adv-x="1300" 
d="M274 1391h448l-39 -163h-121l-167 -713q-34 -144 -34 -189q0 -88 66 -138t161 -50q108 0 173.5 43t101 121t71.5 230l163 696h-122l38 163h441l-38 -163h-117l-167 -713q-50 -212 -108 -316.5t-173 -162.5t-275 -58q-210 0 -312 92t-102 234q0 78 37 234l161 690h-124z
M751 1516l165 286h357l-382 -286h-140z" />
    <glyph glyph-name="Ucircumflex" unicode="&#xdb;" horiz-adv-x="1300" 
d="M274 1391h448l-39 -163h-121l-167 -713q-34 -144 -34 -189q0 -88 66 -138t161 -50q108 0 173.5 43t101 121t71.5 230l163 696h-122l38 163h441l-38 -163h-117l-167 -713q-50 -212 -108 -316.5t-173 -162.5t-275 -58q-210 0 -312 92t-102 234q0 78 37 234l161 690h-124z
M557 1483l245 306h262l97 -306h-137l-122 159l-207 -159h-138z" />
    <glyph glyph-name="Udieresis" unicode="&#xdc;" horiz-adv-x="1300" 
d="M274 1391h448l-39 -163h-121l-167 -713q-34 -144 -34 -189q0 -88 66 -138t161 -50q108 0 173.5 43t101 121t71.5 230l163 696h-122l38 163h441l-38 -163h-117l-167 -713q-50 -212 -108 -316.5t-173 -162.5t-275 -58q-210 0 -312 92t-102 234q0 78 37 234l161 690h-124z
M996 1611q0 47 33 80t79 33q48 0 80 -33.5t32 -78.5q0 -46 -32.5 -79.5t-79.5 -33.5q-46 0 -79 33t-33 79zM580 1612q0 44 31.5 78t80.5 34q47 0 79.5 -33t32.5 -79q0 -47 -33 -80t-79 -33q-48 0 -80 33.5t-32 79.5z" />
    <glyph glyph-name="Yacute" unicode="&#xdd;" horiz-adv-x="1174" 
d="M488 626l-209 602h-145l38 163h459l-39 -163h-130l162 -459l425 459h-168l39 163h480l-38 -163h-116l-556 -602l-109 -463h141l-38 -163h-477l39 163h133zM707 1516l165 286h357l-382 -286h-140z" />
    <glyph glyph-name="Thorn" unicode="&#xde;" horiz-adv-x="1110" 
d="M129 163l250 1065h-134l38 163h472l-38 -163h-136l-24 -102h38q138 0 210.5 -11.5t147.5 -60t118.5 -132t43.5 -183.5q0 -149 -78 -269t-208.5 -162t-350.5 -42h-123l-24 -103h159l-35 -163h-492l38 163h128zM393 427h109q149 0 226.5 23t131.5 101t54 192
q0 85 -41 138.5t-98.5 67.5t-173.5 14h-82z" />
    <glyph glyph-name="germandbls" unicode="&#xdf;" horiz-adv-x="1260" 
d="M310 163h121l-39 -163h-421l38 163h117l184 785q40 173 91 261t149 138.5t232 50.5q187 0 295.5 -94.5t108.5 -232.5q0 -101 -61.5 -187t-176.5 -124q221 -93 221 -330q0 -187 -135.5 -316.5t-338.5 -129.5q-88 0 -184 36l42 149q52 -22 131 -22q142 0 221.5 91.5
t79.5 209.5q0 115 -77.5 179t-196.5 64h-24l33 139q135 0 207.5 67.5t72.5 165.5q0 89 -64 144.5t-167 55.5q-80 0 -136.5 -34.5t-80.5 -86t-53 -174.5z" />
    <glyph glyph-name="agrave" unicode="&#xe0;" horiz-adv-x="1087" 
d="M846 163h121l-35 -163h-295l31 135q-139 -151 -313 -151q-113 0 -202.5 77t-89.5 205q0 146 118 241.5t292 95.5q135 0 270 -71l25 108q13 56 13 80q0 63 -50 96.5t-122 33.5q-142 0 -238 -138l-152 69q59 91 173 152.5t249 61.5q152 0 236 -66t84 -171q0 -65 -22 -165z
M714 400l-43 20q-100 44 -184 44q-110 0 -177 -56.5t-67 -135.5q0 -67 46.5 -105.5t122.5 -38.5q118 0 266 127zM899 1125h-140l-380 286h357z" />
    <glyph glyph-name="aacute" unicode="&#xe1;" horiz-adv-x="1087" 
d="M846 163h121l-35 -163h-295l31 135q-139 -151 -313 -151q-113 0 -202.5 77t-89.5 205q0 146 118 241.5t292 95.5q135 0 270 -71l25 108q13 56 13 80q0 63 -50 96.5t-122 33.5q-142 0 -238 -138l-152 69q59 91 173 152.5t249 61.5q152 0 236 -66t84 -171q0 -65 -22 -165z
M714 400l-43 20q-100 44 -184 44q-110 0 -177 -56.5t-67 -135.5q0 -67 46.5 -105.5t122.5 -38.5q118 0 266 127zM587 1125l165 286h357l-382 -286h-140z" />
    <glyph glyph-name="acircumflex" unicode="&#xe2;" horiz-adv-x="1087" 
d="M846 163h121l-35 -163h-295l31 135q-139 -151 -313 -151q-113 0 -202.5 77t-89.5 205q0 146 118 241.5t292 95.5q135 0 270 -71l25 108q13 56 13 80q0 63 -50 96.5t-122 33.5q-142 0 -238 -138l-152 69q59 91 173 152.5t249 61.5q152 0 236 -66t84 -171q0 -65 -22 -165z
M714 400l-43 20q-100 44 -184 44q-110 0 -177 -56.5t-67 -135.5q0 -67 46.5 -105.5t122.5 -38.5q118 0 266 127zM378 1105l245 306h262l97 -306h-137l-122 159l-207 -159h-138z" />
    <glyph glyph-name="atilde" unicode="&#xe3;" horiz-adv-x="1087" 
d="M846 163h121l-35 -163h-295l31 135q-139 -151 -313 -151q-113 0 -202.5 77t-89.5 205q0 146 118 241.5t292 95.5q135 0 270 -71l25 108q13 56 13 80q0 63 -50 96.5t-122 33.5q-142 0 -238 -138l-152 69q59 91 173 152.5t249 61.5q152 0 236 -66t84 -171q0 -65 -22 -165z
M714 400l-43 20q-100 44 -184 44q-110 0 -177 -56.5t-67 -135.5q0 -67 46.5 -105.5t122.5 -38.5q118 0 266 127zM907 1397h113q1 -25 1 -42q0 -109 -48.5 -176t-129.5 -67q-69 0 -217 93q-50 32 -79 32q-68 0 -72 -110h-116q0 143 56 207t135 64q58 0 175 -70
q91 -55 117 -55q62 0 65 124z" />
    <glyph glyph-name="adieresis" unicode="&#xe4;" horiz-adv-x="1087" 
d="M846 163h121l-35 -163h-295l31 135q-139 -151 -313 -151q-113 0 -202.5 77t-89.5 205q0 146 118 241.5t292 95.5q135 0 270 -71l25 108q13 56 13 80q0 63 -50 96.5t-122 33.5q-142 0 -238 -138l-152 69q59 91 173 152.5t249 61.5q152 0 236 -66t84 -171q0 -65 -22 -165z
M714 400l-43 20q-100 44 -184 44q-110 0 -177 -56.5t-67 -135.5q0 -67 46.5 -105.5t122.5 -38.5q118 0 266 127zM811 1254q0 47 33 80t79 33q48 0 80 -33.5t32 -78.5q0 -46 -32.5 -79.5t-79.5 -33.5q-46 0 -79 33t-33 79zM395 1255q0 44 31.5 78t80.5 34q47 0 79.5 -33
t32.5 -79q0 -47 -33 -80t-79 -33q-48 0 -80 33.5t-32 79.5z" />
    <glyph glyph-name="aring" unicode="&#xe5;" horiz-adv-x="1087" 
d="M846 163h121l-35 -163h-295l31 135q-139 -151 -313 -151q-113 0 -202.5 77t-89.5 205q0 146 118 241.5t292 95.5q135 0 270 -71l25 108q13 56 13 80q0 63 -50 96.5t-122 33.5q-142 0 -238 -138l-152 69q59 91 173 152.5t249 61.5q152 0 236 -66t84 -171q0 -65 -22 -165z
M714 400l-43 20q-100 44 -184 44q-110 0 -177 -56.5t-67 -135.5q0 -67 46.5 -105.5t122.5 -38.5q118 0 266 127zM541 1254q0 82 58.5 141t140.5 59t140.5 -58.5t58.5 -140.5q0 -83 -58.5 -141t-140.5 -58t-140.5 58t-58.5 140zM619 1254q0 -49 36 -84.5t85 -35.5t85 35
t36 86q0 50 -35.5 85t-85.5 35q-52 0 -86.5 -36t-34.5 -85z" />
    <glyph glyph-name="ae" unicode="&#xe6;" horiz-adv-x="1772" 
d="M1683 443h-765q-3 -40 -3 -70q0 -100 65.5 -171.5t178.5 -71.5q153 0 249 138l187 -84q-149 -212 -432 -212q-279 0 -383 212q-78 -92 -188.5 -152t-214.5 -60q-139 0 -224.5 86.5t-85.5 206.5q0 140 119 239.5t302 99.5q126 0 271 -71l21 102l7 24q12 45 12 68
q0 56 -48 90.5t-128 34.5q-154 0 -243 -137l-154 65q147 215 433 215q203 0 280 -123q144 123 334 123q204 0 314.5 -122.5t110.5 -296.5q0 -67 -15 -133zM1512 578q2 34 2 51q0 87 -61.5 151t-168.5 64q-115 0 -200.5 -74.5t-124.5 -191.5h553zM728 400q-117 69 -231 69
q-100 0 -174.5 -58t-74.5 -151q0 -74 49.5 -111t113.5 -37q121 0 281 132z" />
    <glyph glyph-name="ccedilla" unicode="&#xe7;" horiz-adv-x="1024" 
d="M456 -27l-31 -70q68 -7 105.5 -46.5t37.5 -94.5q0 -93 -89 -149t-231 -56q-66 0 -155 14l33 87q43 -5 82 -5q87 0 133.5 25t46.5 68q0 31 -25 49t-58 18h-25l79 173q-131 32 -214 138.5t-83 248.5q0 237 159 429.5t377 192.5q164 0 268 -109l20 82h160l-69 -291h-160
q-16 81 -77.5 124t-138.5 43q-140 0 -242 -135.5t-102 -314.5q0 -121 63 -195.5t180 -74.5q149 0 267 169l133 -97q-85 -113 -201.5 -171t-242.5 -52z" />
    <glyph glyph-name="egrave" unicode="&#xe8;" horiz-adv-x="1130" 
d="M1044 440h-760q-7 -29 -7 -55q0 -120 69 -187t173 -67q145 0 246 138l189 -81q-57 -95 -177 -155.5t-256 -60.5q-209 0 -325 121t-116 310q0 151 76.5 286t204.5 220.5t280 85.5q184 0 300.5 -120.5t116.5 -314.5q0 -63 -14 -120zM873 576q3 31 3 50q0 80 -63.5 145.5
t-168.5 65.5q-107 0 -193.5 -70.5t-130.5 -190.5h553zM925 1125h-140l-380 286h357z" />
    <glyph glyph-name="eacute" unicode="&#xe9;" horiz-adv-x="1130" 
d="M1044 440h-760q-7 -29 -7 -55q0 -120 69 -187t173 -67q145 0 246 138l189 -81q-57 -95 -177 -155.5t-256 -60.5q-209 0 -325 121t-116 310q0 151 76.5 286t204.5 220.5t280 85.5q184 0 300.5 -120.5t116.5 -314.5q0 -63 -14 -120zM873 576q3 31 3 50q0 80 -63.5 145.5
t-168.5 65.5q-107 0 -193.5 -70.5t-130.5 -190.5h553zM531 1125l165 286h357l-382 -286h-140z" />
    <glyph glyph-name="ecircumflex" unicode="&#xea;" horiz-adv-x="1130" 
d="M1044 440h-760q-7 -29 -7 -55q0 -120 69 -187t173 -67q145 0 246 138l189 -81q-57 -95 -177 -155.5t-256 -60.5q-209 0 -325 121t-116 310q0 151 76.5 286t204.5 220.5t280 85.5q184 0 300.5 -120.5t116.5 -314.5q0 -63 -14 -120zM873 576q3 31 3 50q0 80 -63.5 145.5
t-168.5 65.5q-107 0 -193.5 -70.5t-130.5 -190.5h553zM387 1105l245 306h262l97 -306h-137l-122 159l-207 -159h-138z" />
    <glyph glyph-name="edieresis" unicode="&#xeb;" horiz-adv-x="1130" 
d="M1044 440h-760q-7 -29 -7 -55q0 -120 69 -187t173 -67q145 0 246 138l189 -81q-57 -95 -177 -155.5t-256 -60.5q-209 0 -325 121t-116 310q0 151 76.5 286t204.5 220.5t280 85.5q184 0 300.5 -120.5t116.5 -314.5q0 -63 -14 -120zM873 576q3 31 3 50q0 80 -63.5 145.5
t-168.5 65.5q-107 0 -193.5 -70.5t-130.5 -190.5h553zM820 1254q0 47 33 80t79 33q48 0 80 -33.5t32 -78.5q0 -46 -32.5 -79.5t-79.5 -33.5q-46 0 -79 33t-33 79zM404 1255q0 44 31.5 78t80.5 34q47 0 79.5 -33t32.5 -79q0 -47 -33 -80t-79 -33q-48 0 -80 33.5t-32 79.5z
" />
    <glyph glyph-name="igrave" unicode="&#xec;" 
d="M139 163l151 642h-133l38 163h314l-189 -805h141l-38 -163h-429l38 163h107zM617 1125h-140l-380 286h357z" />
    <glyph glyph-name="iacute" unicode="&#xed;" 
d="M139 163l151 642h-133l38 163h314l-189 -805h141l-38 -163h-429l38 163h107zM253 1125l165 286h357l-382 -286h-140z" />
    <glyph glyph-name="icircumflex" unicode="&#xee;" 
d="M139 163l151 642h-133l38 163h314l-189 -805h141l-38 -163h-429l38 163h107zM110 1105l245 306h262l97 -306h-137l-122 159l-207 -159h-138z" />
    <glyph glyph-name="idieresis" unicode="&#xef;" 
d="M139 163l151 642h-133l38 163h314l-189 -805h141l-38 -163h-429l38 163h107zM539 1254q0 47 33 80t79 33q48 0 80 -33.5t32 -78.5q0 -46 -32.5 -79.5t-79.5 -33.5q-46 0 -79 33t-33 79zM123 1255q0 44 31.5 78t80.5 34q47 0 79.5 -33t32.5 -79q0 -47 -33 -80t-79 -33
q-48 0 -80 33.5t-32 79.5z" />
    <glyph glyph-name="eth" unicode="&#xf0;" horiz-adv-x="1173" 
d="M839 1318l201 73l32 -82l-180 -64q202 -301 202 -591q0 -271 -160.5 -476.5t-439.5 -205.5q-186 0 -301.5 116.5t-115.5 296.5q0 257 171.5 433.5t405.5 176.5q108 0 211 -68q-42 129 -125 264l-299 -106l-30 78l281 102q-48 67 -100 126h183q28 -27 64 -73zM629 825
q-152 0 -253.5 -127t-101.5 -299q0 -124 68 -190.5t177 -66.5q173 0 272 135t99 288q0 118 -67 189t-194 71z" />
    <glyph glyph-name="ntilde" unicode="&#xf1;" horiz-adv-x="1130" 
d="M187 968h308l-26 -113q181 128 315 128q107 0 164.5 -70t57.5 -150q0 -67 -27 -182l-98 -418h143l-39 -163h-323l139 593q22 95 22 119q0 44 -29 72.5t-71 28.5q-111 0 -294 -128l-123 -522h145l-38 -163h-441l38 163h115l151 642h-127zM934 1397h113q1 -25 1 -42
q0 -109 -48.5 -176t-129.5 -67q-69 0 -217 93q-50 32 -79 32q-68 0 -72 -110h-116q0 143 56 207t135 64q58 0 175 -70q91 -55 117 -55q62 0 65 124z" />
    <glyph glyph-name="ograve" unicode="&#xf2;" horiz-adv-x="1153" 
d="M70 390q0 149 70 286.5t209.5 228t313.5 90.5q202 0 311 -118t109 -298q0 -142 -69.5 -291t-213.5 -232.5t-305 -83.5q-186 0 -305.5 110.5t-119.5 307.5zM272 408q0 -262 243 -262q170 0 273 130.5t103 301.5q0 110 -70.5 176.5t-186.5 66.5q-164 0 -263 -126t-99 -287z
M905 1125h-140l-380 286h357z" />
    <glyph glyph-name="oacute" unicode="&#xf3;" horiz-adv-x="1153" 
d="M70 390q0 149 70 286.5t209.5 228t313.5 90.5q202 0 311 -118t109 -298q0 -142 -69.5 -291t-213.5 -232.5t-305 -83.5q-186 0 -305.5 110.5t-119.5 307.5zM272 408q0 -262 243 -262q170 0 273 130.5t103 301.5q0 110 -70.5 176.5t-186.5 66.5q-164 0 -263 -126t-99 -287z
M572 1125l165 286h357l-382 -286h-140z" />
    <glyph glyph-name="ocircumflex" unicode="&#xf4;" horiz-adv-x="1153" 
d="M70 390q0 149 70 286.5t209.5 228t313.5 90.5q202 0 311 -118t109 -298q0 -142 -69.5 -291t-213.5 -232.5t-305 -83.5q-186 0 -305.5 110.5t-119.5 307.5zM272 408q0 -262 243 -262q170 0 273 130.5t103 301.5q0 110 -70.5 176.5t-186.5 66.5q-164 0 -263 -126t-99 -287z
M398 1105l245 306h262l97 -306h-137l-122 159l-207 -159h-138z" />
    <glyph glyph-name="otilde" unicode="&#xf5;" horiz-adv-x="1153" 
d="M70 390q0 149 70 286.5t209.5 228t313.5 90.5q202 0 311 -118t109 -298q0 -142 -69.5 -291t-213.5 -232.5t-305 -83.5q-186 0 -305.5 110.5t-119.5 307.5zM272 408q0 -262 243 -262q170 0 273 130.5t103 301.5q0 110 -70.5 176.5t-186.5 66.5q-164 0 -263 -126t-99 -287z
M941 1397h113q1 -25 1 -42q0 -109 -48.5 -176t-129.5 -67q-69 0 -217 93q-50 32 -79 32q-68 0 -72 -110h-116q0 143 56 207t135 64q58 0 175 -70q91 -55 117 -55q62 0 65 124z" />
    <glyph glyph-name="odieresis" unicode="&#xf6;" horiz-adv-x="1153" 
d="M70 390q0 149 70 286.5t209.5 228t313.5 90.5q202 0 311 -118t109 -298q0 -142 -69.5 -291t-213.5 -232.5t-305 -83.5q-186 0 -305.5 110.5t-119.5 307.5zM272 408q0 -262 243 -262q170 0 273 130.5t103 301.5q0 110 -70.5 176.5t-186.5 66.5q-164 0 -263 -126t-99 -287z
M841 1254q0 47 33 80t79 33q48 0 80 -33.5t32 -78.5q0 -46 -32.5 -79.5t-79.5 -33.5q-46 0 -79 33t-33 79zM425 1255q0 44 31.5 78t80.5 34q47 0 79.5 -33t32.5 -79q0 -47 -33 -80t-79 -33q-48 0 -80 33.5t-32 79.5z" />
    <glyph glyph-name="divide" unicode="&#xf7;" horiz-adv-x="1366" 
d="M729 1214q40 0 69 -28.5t29 -69.5t-29 -69.5t-69 -28.5t-69 28.5t-29 69.5t29 69.5t69 28.5zM181 776h1096v-157h-1096v157zM729 376q39 0 68.5 -27.5t29.5 -69.5q0 -41 -29 -69.5t-69 -28.5t-69 28.5t-29 69.5t29 69t69 28z" />
    <glyph glyph-name="oslash" unicode="&#xf8;" horiz-adv-x="1153" 
d="M976 875q107 -115 107 -296q0 -142 -69.5 -291t-213.5 -232.5t-305 -83.5q-146 0 -254 70l-81 -92l-64 55l80 91q-106 108 -106 293q0 243 169 424.5t422 181.5q148 0 250 -65l79 90l64 -52zM308 246l474 538q-64 37 -148 37q-160 0 -261 -124t-101 -297q0 -96 36 -154z
M846 727l-478 -542q62 -39 148 -39q169 0 272.5 130t103.5 301q0 87 -46 150z" />
    <glyph glyph-name="ugrave" unicode="&#xf9;" horiz-adv-x="1130" 
d="M859 163h122l-38 -163h-304l27 112q-179 -128 -318 -128q-104 0 -165 68t-61 146q0 59 33 198l95 409h-120l39 163h301l-124 -525q-37 -159 -37 -196q0 -43 29.5 -70t73.5 -27q106 0 296 141l120 514h-144l38 163h325zM876 1125h-140l-380 286h357z" />
    <glyph glyph-name="uacute" unicode="&#xfa;" horiz-adv-x="1130" 
d="M859 163h122l-38 -163h-304l27 112q-179 -128 -318 -128q-104 0 -165 68t-61 146q0 59 33 198l95 409h-120l39 163h301l-124 -525q-37 -159 -37 -196q0 -43 29.5 -70t73.5 -27q106 0 296 141l120 514h-144l38 163h325zM570 1125l165 286h357l-382 -286h-140z" />
    <glyph glyph-name="ucircumflex" unicode="&#xfb;" horiz-adv-x="1130" 
d="M859 163h122l-38 -163h-304l27 112q-179 -128 -318 -128q-104 0 -165 68t-61 146q0 59 33 198l95 409h-120l39 163h301l-124 -525q-37 -159 -37 -196q0 -43 29.5 -70t73.5 -27q106 0 296 141l120 514h-144l38 163h325zM399 1105l245 306h262l97 -306h-137l-122 159
l-207 -159h-138z" />
    <glyph glyph-name="udieresis" unicode="&#xfc;" horiz-adv-x="1130" 
d="M859 163h122l-38 -163h-304l27 112q-179 -128 -318 -128q-104 0 -165 68t-61 146q0 59 33 198l95 409h-120l39 163h301l-124 -525q-37 -159 -37 -196q0 -43 29.5 -70t73.5 -27q106 0 296 141l120 514h-144l38 163h325zM797 1254q0 47 33 80t79 33q48 0 80 -33.5t32 -78.5
q0 -46 -32.5 -79.5t-79.5 -33.5q-46 0 -79 33t-33 79zM381 1255q0 44 31.5 78t80.5 34q47 0 79.5 -33t32.5 -79q0 -47 -33 -80t-79 -33q-48 0 -80 33.5t-32 79.5z" />
    <glyph glyph-name="yacute" unicode="&#xfd;" horiz-adv-x="1044" 
d="M81 -274l192 280l-45 799h-111l39 163h380l-38 -163h-101l34 -568l393 568h-133l38 163h396l-38 -163h-91l-850 -1242h-287l38 163h184zM549 1125l165 286h357l-382 -286h-140z" />
    <glyph glyph-name="thorn" unicode="&#xfe;" horiz-adv-x="1237" 
d="M252 1391h323l-130 -546q148 138 326 138q162 0 275 -121.5t113 -313.5q0 -231 -155.5 -403.5t-379.5 -172.5q-215 0 -345 168l-97 -414h152l-39 -163h-448l38 163h116l352 1502h-139zM345 391q0 -123 71.5 -192t181.5 -69q164 0 269 127.5t105 295.5q0 126 -71.5 195.5
t-183.5 69.5q-162 0 -267 -138t-105 -289z" />
    <glyph glyph-name="ydieresis" unicode="&#xff;" horiz-adv-x="1044" 
d="M81 -274l192 280l-45 799h-111l39 163h380l-38 -163h-101l34 -568l393 568h-133l38 163h396l-38 -163h-91l-850 -1242h-287l38 163h184zM775 1254q0 47 33 80t79 33q48 0 80 -33.5t32 -78.5q0 -46 -32.5 -79.5t-79.5 -33.5q-46 0 -79 33t-33 79zM359 1255q0 44 31.5 78
t80.5 34q47 0 79.5 -33t32.5 -79q0 -47 -33 -80t-79 -33q-48 0 -80 33.5t-32 79.5z" />
    <glyph glyph-name="dotlessi" unicode="&#x131;" 
d="M139 163l151 642h-133l38 163h314l-189 -805h141l-38 -163h-429l38 163h107z" />
    <glyph glyph-name="OE" unicode="&#x152;" horiz-adv-x="2048" 
d="M1785 427h168l-103 -427h-917q-266 0 -426 47t-264 186t-104 334q0 149 67 307t177.5 269.5t242.5 164.5t251.5 68t363.5 15h918l-98 -419h-165l57 256h-510l-100 -430h448l-38 -163h-448l-111 -472h529zM1241 1228h-89q-192 0 -314.5 -26.5t-228 -104.5t-180 -224.5
t-74.5 -304.5q0 -200 125.5 -302.5t403.5 -102.5h108z" />
    <glyph glyph-name="oe" unicode="&#x153;" horiz-adv-x="1898" 
d="M1815 444h-763q-6 -45 -6 -76q0 -95 66 -166.5t174 -71.5q138 0 252 140l188 -80q-158 -218 -435 -218q-116 0 -215.5 48t-151.5 129q-182 -177 -422 -177q-202 0 -318.5 118.5t-116.5 303.5q0 143 75 285.5t214.5 229t301.5 86.5q248 0 364 -170q150 170 387 170
q211 0 315 -128.5t104 -309.5q0 -61 -13 -113zM1643 579q2 45 2 48q0 84 -61 151.5t-172 67.5q-220 0 -324 -267h555zM263 412q0 -121 67.5 -196.5t192.5 -75.5q169 0 269.5 136t100.5 301q0 102 -63.5 174t-180.5 72q-170 0 -278 -133t-108 -278z" />
    <glyph glyph-name="Scaron" unicode="&#x160;" horiz-adv-x="1067" 
d="M0 0l89 382h169l-29 -125q106 -120 262 -120q108 0 181 62.5t73 152.5q0 79 -49 137.5t-192 154.5q-151 103 -210.5 191.5t-59.5 205.5q0 167 116.5 269.5t298.5 102.5q180 0 294 -117l21 95h168l-88 -377h-168l25 106q-39 61 -110.5 99t-147.5 38q-97 0 -162 -53
t-65 -141q0 -65 42 -121.5t164 -138.5q126 -84 182.5 -134.5t91.5 -123t35 -163.5q0 -183 -129.5 -293.5t-332.5 -110.5q-164 0 -283 96l-17 -74h-169zM1095 1789l-245 -306h-262l-97 306h137l122 -159l207 159h138z" />
    <glyph glyph-name="scaron" unicode="&#x161;" horiz-adv-x="874" 
d="M20 270h164q0 -68 60 -105t157 -37q89 0 137.5 36t48.5 88q0 49 -42 85.5t-148 77.5q-107 42 -162 75t-91 91t-36 123q0 112 93 195.5t256 83.5q152 0 250 -84l20 69h161l-63 -269h-162q-2 74 -67 105t-142 31q-80 0 -125.5 -32t-45.5 -80q0 -39 27 -64.5t103 -54.5
q216 -83 285 -158t69 -181q0 -126 -97.5 -203.5t-286.5 -77.5q-176 0 -249 79l-14 -63h-164zM926 1411l-245 -306h-262l-97 306h137l122 -159l207 159h138z" />
    <glyph glyph-name="Ydieresis" unicode="&#x178;" horiz-adv-x="1174" 
d="M488 626l-209 602h-145l38 163h459l-39 -163h-130l162 -459l425 459h-168l39 163h480l-38 -163h-116l-556 -602l-109 -463h141l-38 -163h-477l39 163h133zM927 1611q0 47 33 80t79 33q48 0 80 -33.5t32 -78.5q0 -46 -32.5 -79.5t-79.5 -33.5q-46 0 -79 33t-33 79z
M511 1612q0 44 31.5 78t80.5 34q47 0 79.5 -33t32.5 -79q0 -47 -33 -80t-79 -33q-48 0 -80 33.5t-32 79.5z" />
    <glyph glyph-name="florin" unicode="&#x192;" horiz-adv-x="1130" 
d="M-1 -405l42 155q99 -22 152 -22t83 28t51 124l226 1042h-200l30 140h201l31 133q27 121 58 176t92 88t144 33q91 0 217 -38l-42 -153q-100 24 -153 24q-63 0 -89.5 -31t-49.5 -129l-24 -103h204l-31 -140h-205l-242 -1092q-33 -147 -96.5 -204t-169.5 -57q-100 0 -229 26
z" />
    <glyph glyph-name="circumflex" unicode="&#x2c6;" horiz-adv-x="682" 
d="M175 1105l245 306h262l97 -306h-137l-122 159l-207 -159h-138z" />
    <glyph glyph-name="caron" unicode="&#x2c7;" horiz-adv-x="682" 
d="M830 1411l-245 -306h-262l-97 306h137l122 -159l207 159h138z" />
    <glyph glyph-name="macron" unicode="&#x2c9;" horiz-adv-x="682" 
d="M173 1186l35 147h664l-35 -147h-664z" />
    <glyph glyph-name="breve" unicode="&#x2d8;" horiz-adv-x="682" 
d="M722 1399h100q-34 -130 -119.5 -206.5t-189.5 -76.5t-169.5 77t-65.5 206h106q5 -69 45.5 -107t97.5 -38q59 0 113 42t82 103z" />
    <glyph glyph-name="dotaccent" unicode="&#x2d9;" horiz-adv-x="682" 
d="M389 1255q0 44 31.5 78t80.5 34q47 0 79.5 -33t32.5 -79q0 -47 -33 -80t-79 -33q-48 0 -80 33.5t-32 79.5z" />
    <glyph glyph-name="ring" unicode="&#x2da;" horiz-adv-x="682" 
d="M322 1254q0 82 58.5 141t140.5 59t140.5 -58.5t58.5 -140.5q0 -83 -58.5 -141t-140.5 -58t-140.5 58t-58.5 140zM400 1254q0 -49 36 -84.5t85 -35.5t85 35t36 86q0 50 -35.5 85t-85.5 35q-52 0 -86.5 -36t-34.5 -85z" />
    <glyph glyph-name="ogonek" unicode="&#x2db;" horiz-adv-x="682" 
d="M117 0h160q-83 -114 -83 -187q0 -82 91 -82q30 0 78 11l-47 -138q-79 -37 -158 -37q-158 0 -158 146q0 130 117 287z" />
    <glyph glyph-name="tilde" unicode="&#x2dc;" horiz-adv-x="682" 
d="M736 1397h113q1 -25 1 -42q0 -109 -48.5 -176t-129.5 -67q-69 0 -217 93q-50 32 -79 32q-68 0 -72 -110h-116q0 143 56 207t135 64q58 0 175 -70q91 -55 117 -55q62 0 65 124z" />
    <glyph glyph-name="hungarumlaut" unicode="&#x2dd;" horiz-adv-x="682" 
d="M168 1125l165 286h357l-382 -286h-140zM590 1125l165 286h357l-382 -286h-140z" />
    <glyph glyph-name="pi" unicode="&#x3c0;" horiz-adv-x="1280" 
d="M173 914l33 149h1103l-36 -150h-121l-214 -913h-201l213 913l-420 1l-213 -914h-203l215 914h-156z" />
    <glyph glyph-name="endash" unicode="&#x2013;" horiz-adv-x="1024" 
d="M-11 585h1048v-145h-1048v145z" />
    <glyph glyph-name="emdash" unicode="&#x2014;" horiz-adv-x="2048" 
d="M-1 585h2072v-145h-2072v145z" />
    <glyph glyph-name="quoteleft" unicode="&#x2018;" 
d="M478 878h-241l48 205q34 144 108 221.5t217 86.5l-20 -86q-147 -17 -186 -192h129z" />
    <glyph glyph-name="quoteright" unicode="&#x2019;" 
d="M357 1391h241l-48 -206q-34 -144 -108 -221t-217 -86l20 90q148 17 186 188h-130z" />
    <glyph glyph-name="quotesinglbase" unicode="&#x201a;" 
d="M109 235h241l-48 -205q-34 -144 -108 -221.5t-217 -86.5l20 90q148 17 186 188h-130z" />
    <glyph glyph-name="quotedblleft" unicode="&#x201c;" horiz-adv-x="1004" 
d="M464 878h-241l48 205q34 144 108 221.5t217 86.5l-20 -86q-147 -17 -186 -192h129zM911 878h-242l49 205q33 144 107.5 221.5t216.5 86.5l-20 -86q-147 -17 -186 -192h130z" />
    <glyph glyph-name="quotedblright" unicode="&#x201d;" horiz-adv-x="1004" 
d="M353 1391h241l-48 -206q-34 -144 -108 -221t-217 -86l20 90q148 17 186 188h-130zM799 1391h241l-48 -206q-34 -144 -108 -221t-217 -86l20 90q149 17 187 188h-130z" />
    <glyph glyph-name="quotedblbase" unicode="&#x201e;" horiz-adv-x="1004" 
d="M105 235h241l-48 -205q-34 -144 -108 -221.5t-217 -86.5l20 86q148 19 186 192h-130zM551 235h241l-48 -205q-33 -144 -107.5 -221.5t-217.5 -86.5l21 86q147 19 186 192h-130z" />
    <glyph glyph-name="dagger" unicode="&#x2020;" horiz-adv-x="1004" 
d="M1084 960l-42 -181h-208q-77 50 -204 54q-20 -102 -20 -178q0 -85 20 -140l-287 -952h-98l177 952q83 99 139 318q-157 0 -269 -54h-192l42 181h192q87 -61 243 -61q18 78 18 163q0 77 -18 118l53 233h204l-54 -233q-97 -114 -135 -281q135 2 230 61h209z" />
    <glyph glyph-name="daggerdbl" unicode="&#x2021;" horiz-adv-x="1004" 
d="M1053 968l-42 -178h-198q-67 55 -189 59q-21 -93 -21 -178t21 -177q-123 -148 -173 -364q129 4 219 53h199l-43 -183h-202q-68 65 -183 65h-5q-12 -63 -12 -124q0 -68 18 -133l-56 -245h-196l58 245q76 93 124 257q-127 -6 -225 -65h-195l43 183h195q86 -52 196 -53
q18 58 18 179q0 84 -25 185q125 146 175 355q-138 -5 -222 -59h-195l42 178h193q68 -50 197 -55q14 73 14 139q0 54 -14 128l55 233h195l-55 -233q-92 -133 -129 -267q144 8 220 55h198z" />
    <glyph glyph-name="bullet" unicode="&#x2022;" horiz-adv-x="725" 
d="M410 946q101 0 176 -71.5t75 -179.5q0 -103 -74 -176.5t-177 -73.5q-104 0 -177.5 73.5t-73.5 176.5q0 104 74 177.5t177 73.5z" />
    <glyph glyph-name="ellipsis" unicode="&#x2026;" horiz-adv-x="2048" 
d="M111 0l55 235h242l-56 -235h-241zM794 0l55 235h241l-55 -235h-241zM1476 0l56 235h241l-56 -235h-241z" />
    <glyph glyph-name="perthousand" unicode="&#x2030;" horiz-adv-x="2218" 
d="M32 957q0 173 100 315.5t275 142.5q128 0 192 -76t64 -210q0 -177 -98.5 -314.5t-270.5 -137.5q-121 0 -191.5 72t-70.5 208zM182 953q0 -82 37.5 -121.5t88.5 -39.5q90 0 150.5 114.5t60.5 248.5q0 59 -30.5 102t-93.5 43q-87 0 -150 -114.5t-63 -232.5zM-21 0
l1428 1391h133l-1428 -1391h-133zM852 258q0 170 99.5 312.5t277.5 142.5q125 0 189.5 -75.5t64.5 -208.5q0 -176 -98.5 -313t-271.5 -137q-129 0 -195 77t-66 202zM1002 254q0 -82 37.5 -122t88.5 -40q94 0 152.5 119.5t58.5 243.5q0 62 -32 103.5t-92 41.5
q-100 0 -156.5 -126.5t-56.5 -219.5zM1644 258q0 170 99.5 312.5t277.5 142.5q120 0 187 -72t67 -212q0 -176 -98 -313t-271 -137q-130 0 -196 77t-66 202zM1795 254q0 -82 37 -122t88 -40q94 0 152.5 119.5t58.5 243.5q0 62 -31.5 103.5t-92.5 41.5q-87 0 -149.5 -114
t-62.5 -232z" />
    <glyph glyph-name="guilsinglleft" unicode="&#x2039;" horiz-adv-x="532" 
d="M54 519l354 449h203l-378 -483l150 -477h-167z" />
    <glyph glyph-name="guilsinglright" unicode="&#x203a;" horiz-adv-x="532" 
d="M482 457l-354 -449h-203l378 483l-150 477h167z" />
    <glyph glyph-name="Euro" unicode="&#x20ac;" horiz-adv-x="1087" 
d="M1253 1391l-59 -363h-131q-8 118 -77 179t-183 61q-126 0 -232 -96.5t-172 -272.5h463l-22 -141h-480q-13 -68 -16 -123h479l-22 -141h-459q15 -170 91 -269.5t185 -99.5q106 0 180 54.5t150 166.5l113 -94q-83 -139 -189.5 -207t-263.5 -68q-185 0 -302.5 138
t-139.5 379h-105l23 141h80q8 81 16 123h-104l22 141h117q82 241 242.5 378.5t357.5 137.5q187 0 281 -119l20 95h137z" />
    <glyph glyph-name="trademark" unicode="&#x2122;" horiz-adv-x="2048" 
d="M610 577v693h-264v121h666v-121h-266v-693h-136zM1103 577v814h200l206 -651l199 651h196v-814h-124v683l-210 -683h-123l-219 693v-693h-125z" />
    <glyph glyph-name="uni2126" unicode="&#x2126;" horiz-adv-x="1621" 
d="M-2 165h133q47 0 275 -9q-234 173 -234 472q0 312 215 593.5t582 281.5q246 0 391 -147.5t145 -412.5q0 -144 -53 -294.5t-174.5 -282t-328.5 -215.5q171 12 232 12h153l-48 -163h-582l43 171q196 76 322 208.5t178.5 278t52.5 289.5q0 192 -88.5 295t-251.5 103
q-179 0 -303.5 -103t-208.5 -300.5t-84 -375.5q0 -263 197 -396l-45 -170h-568z" />
    <glyph glyph-name="partialdiff" unicode="&#x2202;" horiz-adv-x="1012" 
d="M435 1138l-135 60q64 150 163.5 221.5t196.5 71.5q148 0 235 -139t87 -426q0 -251 -73 -473.5t-223.5 -350t-314.5 -127.5q-135 0 -220.5 91.5t-85.5 254.5q0 169 92 311t272.5 216t437.5 76q-2 250 -57 344.5t-148 94.5q-143 0 -227 -225zM863 796q-241 -12 -357.5 -67
t-188.5 -179t-72 -247q0 -88 53.5 -139.5t116.5 -51.5q144 0 279 169.5t169 514.5z" />
    <glyph glyph-name="uni2206" unicode="&#x2206;" horiz-adv-x="1259" 
d="M1189 0h-1200l628 1387zM953 82l-399 967l-440 -967h839z" />
    <glyph glyph-name="product" unicode="&#x220f;" horiz-adv-x="1685" 
d="M207 1415h1362v-1871h-191v1697h-980v-1697h-191v1871z" />
    <glyph glyph-name="summation" unicode="&#x2211;" horiz-adv-x="1460" 
d="M185 1415h1237v-164h-988l607 -748l-649 -795h1040v-164h-1264v190l620 762l-603 744v175z" />
    <glyph glyph-name="fraction" unicode="&#x2215;" horiz-adv-x="662" 
d="M-407 0l1428 1391h133l-1428 -1391h-133z" />
    <glyph glyph-name="periodcentered" unicode="&#x2219;" horiz-adv-x="598" 
d="M196 580l55 235h241l-55 -235h-241z" />
    <glyph glyph-name="radical" unicode="&#x221a;" horiz-adv-x="1131" 
d="M1014 1869h74l-312 -1947l-496 1021l-198 -91l-34 64l301 151l405 -823z" />
    <glyph glyph-name="infinity" unicode="&#x221e;" horiz-adv-x="1195" 
d="M601 789q117 150 187 191.5t146 41.5q110 0 199 -78.5t89 -242.5q0 -187 -93 -261.5t-195 -74.5q-88 0 -157.5 50t-175.5 183q-136 -171 -288 -171q-112 0 -179.5 82.5t-67.5 184.5q0 93 63.5 180t183.5 87q152 0 288 -172zM670 695q82 -127 141.5 -172.5t119.5 -45.5
q69 0 124.5 51t55.5 163q0 104 -51.5 161t-131.5 57q-56 0 -108 -39.5t-150 -174.5zM532 694q-122 157 -220 157q-61 0 -98 -43t-37 -111t39 -112.5t98 -44.5q100 0 218 154z" />
    <glyph glyph-name="integral" unicode="&#x222b;" horiz-adv-x="555" 
d="M245 606q0 612 58.5 763.5t177.5 151.5q50 0 86.5 -31t36.5 -77q0 -43 -25 -73t-67 -30q-35 0 -76 36q-23 20 -40 20q-40 0 -40 -64q0 -42 9 -145q37 -410 37 -683q0 -637 -46.5 -836.5t-192.5 -199.5q-56 0 -87.5 34t-31.5 87q0 45 25.5 72t64.5 27q40 0 70 -33
q28 -31 48 -31q39 0 39 61q0 41 -9 120q-37 316 -37 831z" />
    <glyph glyph-name="approxequal" unicode="&#x2248;" horiz-adv-x="1366" 
d="M1277 903q-155 -128 -293 -128q-63 0 -121.5 18.5t-190.5 80.5q-127 59 -193 59q-135 0 -298 -140v169q157 128 305 128q93 0 293 -94q136 -63 204 -63q133 0 294 139v-169zM1277 433q-155 -129 -293 -129q-61 0 -119 18t-193 81q-127 60 -193 60q-135 0 -298 -141v170
q157 128 305 128q93 0 293 -94q136 -64 204 -64q133 0 294 140v-169z" />
    <glyph glyph-name="notequal" unicode="&#x2260;" horiz-adv-x="1366" 
d="M919 1011h358v-157h-419l-123 -314h542v-156h-603l-207 -528h-135l206 528h-357v156h419l123 314h-542v157h603l207 528h135z" />
    <glyph glyph-name="lessequal" unicode="&#x2264;" horiz-adv-x="1366" 
d="M1277 370l-1096 459v142l1096 459v-169l-882 -361l882 -360v-170zM181 121h1096v-157h-1096v157z" />
    <glyph glyph-name="greaterequal" unicode="&#x2265;" horiz-adv-x="1366" 
d="M181 1430l1096 -459v-142l-1096 -459v170l882 360l-882 361v169zM181 121h1096v-157h-1096v157z" />
    <glyph glyph-name="lozenge" unicode="&#x25ca;" horiz-adv-x="1012" 
d="M600 1422l418 -713l-418 -709h-111l-391 709l391 713h111zM546 1325l-340 -616l340 -615l359 615z" />
    <glyph glyph-name="uniF001" unicode="&#xf001;" horiz-adv-x="1130" 
d="M1068 968l-189 -805h130l-38 -163h-416l38 163h105l149 642h-396l-150 -642h131l-39 -163h-416l38 163h106l150 642h-150l39 163h149l11 47q60 258 150.5 329t187.5 71q98 0 189 -67l-74 -128q-59 42 -102 42q-54 0 -95 -44t-86 -250h578zM1036 1414q46 0 79.5 -32.5
t33.5 -80.5q0 -46 -33 -79.5t-80 -33.5t-80 33.5t-33 79.5q0 49 34 81t79 32z" />
    <glyph glyph-name="uniF002" unicode="&#xf002;" horiz-adv-x="1130" 
d="M1159 1391l-287 -1228h130l-38 -163h-416l39 163h103l250 1065h-177q-55 32 -100 32q-66 0 -102 -51.5t-69 -197.5l-10 -43h144l-39 -163h-143l-151 -642h129l-38 -163h-416l38 163h107l150 642h-150l39 163h149l10 43q34 144 70 223t108 130t162 51q55 0 112 -24h396z
" />
    </font>
</defs>
</svg>
