<?xml version="1.0" standalone="no"?>
<!DOCTYPE svg PUBLIC "-//W3C//DTD SVG 1.1//EN" "http://www.w3.org/Graphics/SVG/1.1/DTD/svg11.dtd" >
<svg>
<metadata>
Created by FontForge 20110222 at Mon Oct 21 21:06:48 2013
 By Orthosie Webhosting
(c) 1990, 2002 Adobe Systems Incorporated. All rights reserved. (c) 1989, 1990, 2002 The Monotype Corporation Plc. All rights reserved.
</metadata>
<defs>
<font id="RockwellStdBold" horiz-adv-x="333" >
  <font-face 
    font-family="RockwellStdBold"
    font-weight="700"
    font-stretch="normal"
    units-per-em="1000"
    panose-1="2 6 8 3 3 4 5 2 1 3"
    ascent="679"
    descent="-321"
    x-height="473"
    cap-height="679"
    bbox="-123 -224 1138 928"
    underline-thickness="50"
    underline-position="-50"
    unicode-range="U+0020-FB02"
  />
<missing-glyph horiz-adv-x="500" 
d="M0 0v700h500v-700h-500zM250 395l170 255h-340zM280 350l170 -255v510zM80 50h340l-170 255zM50 605v-510l170 255z" />
    <glyph glyph-name="f_i" unicode="fi" horiz-adv-x="625" 
d="M257 364v-255h46v-109h-272v109h73v255h-73v109h73v40q0 78 61 128t163 50q38 0 67 -4.5t59 -16.5t51.5 -37t32.5 -63l-149 -16q-14 38 -66 38q-31 0 -48.5 -15t-17.5 -53v-51h279v-364h73v-109h-271v109h45v255h-126z" />
    <glyph glyph-name="f_l" unicode="fl" horiz-adv-x="625" 
d="M418 679h118v-570h73v-109h-271v109h45v441q-3 21 -21 31.5t-38 10.5q-32 0 -49.5 -15t-17.5 -53v-51h68v-109h-68v-255h46v-109h-272v109h73v255h-73v109h73v40q0 73 57.5 125.5t171.5 52.5q52 0 85 -12z" />
    <glyph glyph-name=".notdef" horiz-adv-x="500" 
d="M0 0v700h500v-700h-500zM250 395l170 255h-340zM280 350l170 -255v510zM80 50h340l-170 255zM50 605v-510l170 255z" />
    <glyph glyph-name=".null" horiz-adv-x="0" 
 />
    <glyph glyph-name="nonmarkingreturn" 
 />
    <glyph glyph-name="space" unicode=" " horiz-adv-x="250" 
 />
    <glyph glyph-name="exclam" unicode="!" horiz-adv-x="354" 
d="M101 679h152v-186l-40 -256h-72l-40 256v186zM95 0v164h164v-164h-164z" />
    <glyph glyph-name="quotedbl" unicode="&#x22;" horiz-adv-x="552" 
d="M355 336l-14 179v164h108v-164l-14 -179h-80zM117 336l-14 179v164h108v-164l-14 -179h-80z" />
    <glyph glyph-name="numbersign" unicode="#" horiz-adv-x="668" 
d="M35 514h146l38 183h114l-38 -183h149l37 183h115l-38 -183h74v-109h-96l-28 -130h124v-109h-146l-39 -179h-114l39 179h-152l-38 -179h-114l38 179h-71v109h95l27 130h-122v109zM271 405l-27 -130h151l27 130h-151z" />
    <glyph glyph-name="dollar" unicode="$" horiz-adv-x="563" 
d="M301 -96h-69v85q-90 14 -136.5 61.5t-49.5 139.5h120q-3 -32 15 -64.5t51 -36.5v207q-95 45 -135 90t-40 108q0 68 48.5 115t126.5 54v43h69v-43q88 -7 137 -56t49 -124h-120q-10 74 -66 81v-162q109 -43 162 -91.5t53 -134.5q0 -81 -59.5 -133t-155.5 -54v-85zM301 85
q43 0 69.5 23t26.5 57q0 64 -96 101v-181zM232 435v129q-55 -10 -55 -57q0 -22 11.5 -37t43.5 -35z" />
    <glyph glyph-name="percent" unicode="%" horiz-adv-x="927" 
d="M883 160q0 -85 -41.5 -131t-117.5 -46t-117.5 46t-41.5 131q0 86 41.5 132t117.5 46t117.5 -46t41.5 -132zM766 157q0 60 -10 84.5t-34 24.5q-40 0 -40 -100q0 -61 9.5 -86t33.5 -25q41 0 41 102zM360 513q0 -85 -41.5 -131t-117.5 -46t-117.5 46t-41.5 131
q0 86 41.5 132t117.5 46t117.5 -46t41.5 -132zM243 510q0 60 -10 84.5t-34 24.5q-40 0 -40 -100q0 -61 9.5 -86t33.5 -25q41 0 41 102zM175 0l491 679h88l-492 -679h-87z" />
    <glyph glyph-name="ampersand" unicode="&#x26;" horiz-adv-x="802" 
d="M761 109v-109h-201l-61 75q-96 -87 -220 -87q-104 0 -173 59.5t-69 149.5q0 133 188 219q-54 64 -54 124q0 68 51 109t135 41q79 0 130 -39t51 -100q0 -94 -118 -154l97 -123q56 78 82 141h162v-109h-82q-34 -74 -80 -127l53 -70h109zM423 170l-129 162
q-102 -41 -102 -114q0 -43 33.5 -73t81.5 -30q57 0 116 55zM352 483q66 28 66 68q0 20 -16.5 34.5t-39.5 14.5t-39 -12.5t-16 -30.5t45 -74z" />
    <glyph glyph-name="quotesingle" unicode="'" horiz-adv-x="281" 
d="M101 336l-14 179v164h108v-164l-14 -179h-80z" />
    <glyph glyph-name="parenleft" unicode="(" horiz-adv-x="344" 
d="M201 238q0 -151 24 -234t91 -119v-98q-123 51 -196.5 163t-73.5 288t73.5 288t196.5 163v-98q-67 -36 -91 -119t-24 -234z" />
    <glyph glyph-name="parenright" unicode=")" horiz-adv-x="344" 
d="M143 238q0 151 -24 234t-91 119v98q123 -51 196.5 -163t73.5 -288t-73.5 -288t-196.5 -163v98q67 36 91 119t24 234z" />
    <glyph glyph-name="asterisk" unicode="*" horiz-adv-x="573" 
d="M376 204l-50 69q0 52 -40 117q-40 -65 -39 -117l-50 -69l-98 69l48 68q28 10 47 25.5t53 54.5q-58 11 -79 10.5t-47 -10.5l-83 32l40 111l81 -24q15 -22 35.5 -36.5t66.5 -37.5q-5 80 -35 130v83h121v-83q-25 -38 -36 -130q47 23 67.5 37.5t35.5 36.5l81 24l40 -111
l-83 -32q-34 11 -54 10t-72 -10q53 -63 100 -80l48 -68z" />
    <glyph glyph-name="plus" unicode="+" horiz-adv-x="668" 
d="M397 401h212v-127h-212v-212h-127v212h-212v127h212v212h127v-212z" />
    <glyph glyph-name="comma" unicode="," horiz-adv-x="354" 
d="M95 164h164v-164q0 -93 -38 -136t-125 -43v74q43 5 62 29.5t19 75.5h-82v164z" />
    <glyph glyph-name="hyphen" unicode="-" horiz-adv-x="344" 
d="M35 170v132h273v-132h-273z" />
    <glyph glyph-name="period" unicode="." horiz-adv-x="354" 
d="M95 164h164v-164h-164v164z" />
    <glyph glyph-name="slash" unicode="/" horiz-adv-x="508" 
d="M365 679h139l-360 -691h-140z" />
    <glyph glyph-name="zero" unicode="0" horiz-adv-x="552" 
d="M43 341q0 170 60 260t173 90t173 -90t60 -260t-60 -260t-173 -90t-173 90t-60 260zM276 101q41 0 59.5 55t18.5 185q0 134 -19.5 187t-59.5 53t-58.5 -58t-18.5 -184q0 -123 19 -180.5t59 -57.5z" />
    <glyph glyph-name="one" unicode="1" horiz-adv-x="552" 
d="M114 0v109h94v461h-100v109h249v-570h89v-109h-332z" />
    <glyph glyph-name="two" unicode="2" horiz-adv-x="552" 
d="M484 197v-197h-440v36q0 77 29 140t70 104.5t82.5 77.5t70.5 75t29 80q0 31 -18.5 51.5t-46.5 20.5q-42 0 -60 -33.5t-22 -109.5l-125 6q-3 124 58.5 183.5t160.5 59.5q93 0 150.5 -52t57.5 -136q0 -55 -27.5 -98.5t-68.5 -73.5t-83.5 -59t-77.5 -70.5t-45 -92.5h198v88
h108z" />
    <glyph glyph-name="three" unicode="3" horiz-adv-x="552" 
d="M44 208l131 10q3 -59 22.5 -88t66.5 -29q39 0 64.5 27.5t25.5 72.5q0 53 -32 80t-96 20v114q53 1 82 24t29 66q0 34 -20 55t-52 21q-35 0 -54.5 -23.5t-18.5 -66.5l-127 10q5 90 60 140t150 50q97 0 153 -48t56 -131q0 -105 -101 -154q126 -42 126 -163q0 -92 -63.5 -148
t-168.5 -56q-215 0 -233 217z" />
    <glyph glyph-name="four" unicode="4" horiz-adv-x="552" 
d="M486 100v-100h-270v100h73v87h-249q-14 48 -36 93l292 410h133v-410h66v-93h-66v-87h57zM289 280v236h-2l-166 -236h168z" />
    <glyph glyph-name="five" unicode="5" horiz-adv-x="552" 
d="M36 182l128 16q8 -52 29 -74.5t61 -22.5q91 0 91 112q0 121 -88 121q-49 0 -82 -53l-108 54l19 344h382v-160h-99l-10 51h-175l-9 -163q56 39 116 39q94 0 151.5 -61.5t57.5 -161.5q0 -43 -12 -81.5t-37.5 -73.5t-73.5 -56t-113 -21q-98 0 -156.5 49t-71.5 142z" />
    <glyph glyph-name="six" unicode="6" horiz-adv-x="552" 
d="M490 508l-117 -10q-12 42 -28.5 64t-51.5 22q-44 0 -72 -50t-29 -143q50 44 120 44q82 0 134 -54t52 -150q0 -119 -54.5 -179.5t-153.5 -60.5q-125 0 -185 84t-60 259q0 174 63 265t190 91q85 0 134.5 -48t57.5 -134zM192 296q1 -95 22.5 -145t72.5 -50q35 0 54 30t19 85
q0 50 -22.5 79.5t-60.5 29.5q-44 0 -85 -29z" />
    <glyph glyph-name="seven" unicode="7" horiz-adv-x="552" 
d="M422 109v-109h-328v109h84q6 103 56 236.5t117 227.5h-173v-95h-110v201h424v-84q-58 -72 -107 -223t-49 -263h86z" />
    <glyph glyph-name="eight" unicode="8" horiz-adv-x="552" 
d="M160 357q-101 55 -101 157q0 81 59 129t158 48t158 -48t59 -129q0 -102 -101 -157q122 -46 122 -166q0 -84 -58.5 -142t-179.5 -58t-179 57t-58 143q0 120 121 166zM276 404q38 0 58.5 24t20.5 67q0 39 -19.5 64.5t-59.5 25.5q-37 0 -58 -24.5t-21 -66.5
q0 -41 21.5 -65.5t57.5 -24.5zM277 97q42 0 66.5 28.5t24.5 77.5q0 48 -24 77t-67 29q-41 0 -66.5 -30t-25.5 -77t25 -76t67 -29z" />
    <glyph glyph-name="nine" unicode="9" horiz-adv-x="552" 
d="M62 173l117 10q12 -42 28.5 -64t51.5 -22q44 0 72 50t29 143q-50 -44 -120 -44q-82 0 -134 54t-52 150q0 119 54.5 179.5t153.5 60.5q125 0 185 -84t60 -259q0 -174 -63 -265t-190 -91q-85 0 -134.5 48t-57.5 134zM360 385q-1 95 -22.5 145t-72.5 50q-35 0 -54 -30
t-19 -85q0 -50 22.5 -79.5t60.5 -29.5q44 0 85 29z" />
    <glyph glyph-name="colon" unicode=":" horiz-adv-x="354" 
d="M95 473h164v-164h-164v164zM95 164h164v-164h-164v164z" />
    <glyph glyph-name="semicolon" unicode=";" horiz-adv-x="354" 
d="M95 164h164v-164q0 -93 -38 -136t-125 -43v74q43 5 62 29.5t19 75.5h-82v164zM95 473h164v-164h-164v164z" />
    <glyph glyph-name="less" unicode="&#x3c;" horiz-adv-x="667" 
d="M58 276v116l550 228v-138l-375 -148l375 -148v-138z" />
    <glyph glyph-name="equal" unicode="=" horiz-adv-x="667" 
d="M58 280h551v-127h-551v127zM58 515h551v-127h-551v127z" />
    <glyph glyph-name="greater" unicode="&#x3e;" horiz-adv-x="667" 
d="M609 276l-550 -228v138l375 148l-375 148v138l550 -228v-116z" />
    <glyph glyph-name="question" unicode="?" horiz-adv-x="563" 
d="M283 235h-70l-14 173l6 3q59 -15 104.5 7t45.5 78q0 35 -23 62.5t-70 27.5q-43 0 -68 -26.5t-16 -74.5h-151q0 99 66 152.5t179 53.5q109 0 173.5 -53.5t64.5 -145.5q0 -85 -57 -137.5t-154 -48.5zM165 164h164v-164h-164v164z" />
    <glyph glyph-name="at" unicode="@" horiz-adv-x="979" 
d="M430 89q47 0 83 42.5t51.5 95.5t15.5 100q0 52 -25 83t-63 31q-40 0 -71 -25t-47.5 -63.5t-25 -75.5t-8.5 -69q0 -58 24.5 -88.5t65.5 -30.5zM532 728q184 0 299 -105t115 -267q0 -144 -92.5 -250t-230.5 -106q-76 0 -89 57q-54 -57 -131 -57q-90 0 -139.5 60t-49.5 156
q0 43 16.5 95t46.5 101.5t83 83t117 33.5q86 0 130 -66l12 54h129l-80 -377q-8 -40 19 -40q16 0 43 17.5t56.5 48.5t50.5 83t21 111q0 48 -18 95t-54.5 89.5t-104 69t-155.5 26.5q-79 0 -145.5 -22t-113 -60.5t-79 -90t-48 -110t-15.5 -121.5q0 -170 107.5 -263t306.5 -93
q225 0 329 129h104q-111 -217 -443 -217q-129 0 -227 35.5t-156 97.5t-87 140.5t-29 170.5q0 64 15 129t52.5 131.5t93 117t143.5 82.5t198 32z" />
    <glyph glyph-name="A" unicode="A" horiz-adv-x="698" 
d="M699 115v-115h-330v115h85l-32 116h-176l-37 -116h91v-115h-302v115h85l133 449h-91v115h443v-115h-91l142 -449h80zM394 331l-55 205h-2l-61 -205h118z" />
    <glyph glyph-name="B" unicode="B" horiz-adv-x="698" 
d="M32 0v115h85v449h-85v115h353q64 0 108.5 -10.5t75.5 -41.5q52 -52 52 -126q0 -100 -96 -140q122 -46 122 -163q0 -86 -62.5 -142t-188.5 -56h-364zM294 115h71q56 0 78 24t22 66q0 45 -27 68t-68 23h-76v-181zM294 411h69q39 0 60 21.5t21 57.5q0 74 -89 74h-61v-153z
" />
    <glyph glyph-name="C" unicode="C" horiz-adv-x="781" 
d="M598 679h115v-239h-115q-24 62 -52 84q-35 27 -59 36t-58 9q-91 0 -146.5 -63.5t-55.5 -167.5q0 -99 53 -161t138 -62q71 0 120.5 46.5t68.5 130.5l134 -64q-35 -126 -127.5 -181.5t-208.5 -55.5q-83 0 -149 22.5t-106 57.5t-66.5 82.5t-36.5 93t-10 93.5q0 155 99 252.5
t258 97.5q123 0 204 -64v53z" />
    <glyph glyph-name="D" unicode="D" horiz-adv-x="802" 
d="M33 0v115h103v449h-103v115h355q95 0 161 -21t116 -71q97 -97 97 -249q0 -141 -85.5 -239.5t-239.5 -98.5h-404zM313 115h67q99 0 148.5 59t49.5 163q0 110 -52.5 168.5t-151.5 58.5h-61v-449z" />
    <glyph glyph-name="E" unicode="E" horiz-adv-x="667" 
d="M34 0v115h80v449h-80v115h597v-215h-129v100h-211v-156h170v-115h-170v-178h211v101h129v-216h-597z" />
    <glyph glyph-name="F" unicode="F" horiz-adv-x="646" 
d="M28 0v115h97v449h-97v115h608v-209h-130v94h-204v-157h147v-115h-147v-177h104v-115h-378z" />
    <glyph glyph-name="G" unicode="G" horiz-adv-x="844" 
d="M476 228v115h318q4 -78 -18 -141t-60 -101.5t-89.5 -64t-101 -35.5t-99.5 -10q-182 0 -280 99.5t-98 250.5q0 154 100.5 251.5t259.5 97.5q137 0 212 -67v56h115v-241h-115q-20 60 -71 96q-49 35 -116 35q-87 0 -141 -60t-54 -157q0 -119 59 -178t141 -59q124 0 157 113
h-119z" />
    <glyph glyph-name="H" unicode="H" horiz-adv-x="760" 
d="M31 0v115h80v449h-80v115h326v-115h-69v-149h185v149h-69v115h326v-115h-80v-449h80v-115h-326v115h69v185h-185v-185h69v-115h-326z" />
    <glyph glyph-name="I" unicode="I" horiz-adv-x="427" 
d="M22 0v115h103v449h-103v115h383v-115h-103v-449h103v-115h-383z" />
    <glyph glyph-name="J" unicode="J" horiz-adv-x="406" 
d="M-1 -197v123q32 -8 51 -8q76 0 76 82v564h-101v115h369v-115h-91v-551q0 -107 -52 -164.5t-150 -57.5q-42 0 -102 12z" />
    <glyph glyph-name="K" unicode="K" horiz-adv-x="781" 
d="M20 0v115h92v449h-92v115h351v-115h-82v-449h82v-115h-351zM419 0v115h80l-205 242l222 207h-80v115h332v-115h-85l-191 -187l223 -262h69v-115h-365z" />
    <glyph glyph-name="L" unicode="L" horiz-adv-x="646" 
d="M28 0v115h97v449h-97v115h373v-115h-99v-449h200v210h133v-325h-607z" />
    <glyph glyph-name="M" unicode="M" horiz-adv-x="1042" 
d="M28 0v115h88v449h-88v115h340l149 -398l155 398h344v-115h-88v-449h89v-115h-350v115h89v449h-16l-212 -564h-74l-212 564h-16v-449h89v-115h-287z" />
    <glyph glyph-name="N" unicode="N" horiz-adv-x="792" 
d="M21 0v115h91v449h-91v115h284l249 -424h2v309h-88v115h305v-115h-96v-564h-152l-290 499h-2v-384h85v-115h-297z" />
    <glyph glyph-name="O" unicode="O" horiz-adv-x="854" 
d="M427 690q92 0 165.5 -29t119 -78.5t69.5 -111.5t24 -131q0 -67 -23.5 -128.5t-68.5 -111t-119 -79.5t-167 -30q-92 0 -166 29.5t-119 79t-68.5 111t-23.5 129.5q0 145 99.5 247.5t277.5 102.5zM427 566q-75 0 -131 -57.5t-56 -171.5q0 -98 52 -160t135 -62q77 0 132.5 58
t55.5 168q0 103 -53.5 164t-134.5 61z" />
    <glyph glyph-name="P" unicode="P" horiz-adv-x="667" 
d="M387 115v-115h-356v115h85v449h-85v115h386q104 0 167.5 -62t63.5 -154q0 -94 -62 -155t-183 -61h-110v-132h94zM293 362h49q118 0 118 100q0 46 -28 74t-71 28h-68v-202z" />
    <glyph glyph-name="Q" unicode="Q" horiz-adv-x="854" 
d="M676 -58l-42 -112q-42 -5 -95 16.5t-105 46t-87 24.5q-52 0 -99 -41l-44 66q38 45 115 57v2q-123 29 -196 120.5t-73 217.5q0 64 21.5 124t65 112t118.5 83.5t172 31.5q93 0 166.5 -29.5t119 -79.5t69 -112t23.5 -130q0 -147 -96.5 -241.5t-238.5 -103.5v-2q21 -7 47 -18
t39.5 -17t37 -12.5t38.5 -6t44 3.5zM427 566q-75 0 -131 -57.5t-56 -171.5q0 -98 52 -160t135 -62q77 0 132.5 58t55.5 168q0 103 -53.5 164t-134.5 61z" />
    <glyph glyph-name="R" unicode="R" horiz-adv-x="729" 
d="M731 115v-115h-207l-153 298h-78v-183h85v-115h-355v115h93v449h-93v115h423q95 0 149.5 -54.5t54.5 -135.5q0 -116 -117 -169l110 -205h88zM293 407h71q54 0 78 24t24 56q0 28 -19.5 52.5t-63.5 24.5h-90v-157z" />
    <glyph glyph-name="S" unicode="S" horiz-adv-x="531" 
d="M44 0v231h115q-1 -54 29 -88.5t75 -34.5q31 0 53 21t22 52q0 29 -22.5 52t-55.5 38.5t-72.5 36.5t-72.5 43t-55.5 61t-22.5 89q0 91 55.5 138t127.5 47q82 0 124 -63h2v56h114v-206h-114q-7 47 -33 73.5t-65 26.5q-29 0 -48 -15.5t-19 -39.5q0 -25 23 -45.5t58 -34
t75.5 -34.5t75.5 -44.5t58 -67t23 -99.5q0 -57 -20 -99t-52 -63t-63 -30.5t-62 -9.5q-91 0 -136 66h-2v-57h-115z" />
    <glyph glyph-name="T" unicode="T" horiz-adv-x="677" 
d="M647 679v-273h-118v158h-102v-449h102v-115h-381v115h102v449h-102v-158h-118v273h617z" />
    <glyph glyph-name="U" unicode="U" horiz-adv-x="677" 
d="M14 564v115h316v-115h-59v-345q0 -54 20 -83t68 -29q94 0 94 106v351h-56v115h262v-115h-85v-380q0 -56 -22.5 -96t-59.5 -59.5t-74 -28t-78 -8.5q-111 0 -178.5 50.5t-67.5 166.5v355h-80z" />
    <glyph glyph-name="V" unicode="V" horiz-adv-x="698" 
d="M284 -5l-204 569h-80v115h336v-115h-78l113 -340h2l114 340h-75v115h286v-115h-80l-197 -569h-137z" />
    <glyph glyph-name="W" unicode="W" horiz-adv-x="990" 
d="M267 -5l-196 569h-72v115h305v-115h-69l109 -326h2l103 326h-62v115h244v-115h-63l110 -326h2l107 326h-70v115h274v-115h-74l-190 -569h-123l-108 310h-2l-102 -310h-125z" />
    <glyph glyph-name="X" unicode="X" horiz-adv-x="740" 
d="M-2 0v115h98l167 234l-165 215h-93v115h349v-108h-65l101 -127l92 127h-62v108h302v-115h-95l-161 -222l174 -227h102v-115h-363v108h69l-105 141l-102 -141h69v-108h-312z" />
    <glyph glyph-name="Y" unicode="Y" horiz-adv-x="698" 
d="M172 0v115h96v183l-187 266h-85v115h334v-115h-62l103 -166l99 166h-59v115h291v-115h-85l-177 -266v-183h96v-115h-364z" />
    <glyph glyph-name="Z" unicode="Z" horiz-adv-x="646" 
d="M50 0v115l322 449h-189v-123h-115v238h525v-102l-332 -462h223v130h115v-245h-549z" />
    <glyph glyph-name="bracketleft" unicode="[" horiz-adv-x="417" 
d="M110 -203v882h276v-101h-123v-680h123v-101h-276z" />
    <glyph glyph-name="backslash" unicode="\" horiz-adv-x="508" 
d="M143 679l361 -691h-140l-360 691h139z" />
    <glyph glyph-name="bracketright" unicode="]" horiz-adv-x="417" 
d="M307 -203h-276v101h123v680h-123v101h276v-882z" />
    <glyph glyph-name="asciicircum" unicode="^" horiz-adv-x="583" 
d="M56 289l184 390h108l179 -390h-139l-96 239l-96 -239h-140z" />
    <glyph glyph-name="underscore" unicode="_" horiz-adv-x="500" 
d="M-6 -75h512v-50h-512v50z" />
    <glyph glyph-name="grave" unicode="`" 
d="M266 534h-78l-180 155h180z" />
    <glyph glyph-name="a" unicode="a" horiz-adv-x="583" 
d="M570 109v-109h-229v37q-62 -44 -128 -44q-74 0 -123.5 42t-49.5 106q0 69 54.5 114t139.5 45q46 0 107 -21v26q0 37 -25 60t-65 23q-48 0 -86 -37l-122 21q55 112 229 112q116 0 169 -43t53 -138v-194h76zM341 175q-52 34 -87 34q-30 0 -49.5 -16.5t-19.5 -42.5
q0 -27 18 -45t44 -18q40 0 94 49v39z" />
    <glyph glyph-name="b" unicode="b" horiz-adv-x="625" 
d="M247 679v-259q32 35 63 49.5t72 14.5q91 0 147.5 -68.5t56.5 -177.5q0 -66 -19.5 -116t-50.5 -77t-64 -39.5t-67 -12.5q-78 0 -138 61v-54h-233v109h80v461h-80v109h233zM431 238q0 58 -23.5 90t-67.5 32t-69 -33.5t-25 -92.5q0 -57 25 -90.5t68 -33.5t67.5 34t24.5 94z
" />
    <glyph glyph-name="c" unicode="c" horiz-adv-x="563" 
d="M518 473v-192h-104q-36 79 -116 79q-51 0 -81 -33t-30 -89q0 -62 28.5 -97t78.5 -35q36 0 68 21t52 57l117 -52q-64 -143 -229 -143q-122 0 -196 68t-74 180q0 105 68 174t171 69q73 0 143 -46v39h104z" />
    <glyph glyph-name="d" unicode="d" horiz-adv-x="625" 
d="M606 109v-109h-226v56q-64 -63 -137 -63q-87 0 -145.5 70.5t-58.5 175.5q0 104 59 174.5t146 70.5q81 0 136 -63v149h-73v109h226v-570h73zM382 239q0 54 -26 87.5t-70 33.5q-43 0 -67.5 -33t-24.5 -91q0 -57 25 -91.5t68 -34.5q39 0 67 32.5t28 96.5z" />
    <glyph glyph-name="e" unicode="e" horiz-adv-x="573" 
d="M416 142l120 -37q-75 -116 -232 -116q-123 0 -195 64.5t-72 174.5q0 111 72 183.5t183 72.5q110 0 181.5 -77.5t62.5 -201.5h-346q1 -48 29 -83t87 -35q30 0 53.5 12t56.5 43zM190 289h197q-6 45 -32.5 70.5t-67.5 25.5q-84 0 -97 -96z" />
    <glyph glyph-name="f" unicode="f" horiz-adv-x="354" 
d="M324 109v-109h-291v109h65v255h-65v109h65v40q0 74 45 126t139 52q108 0 157 -66l-115 -86q-9 30 -16 40.5t-22 10.5q-35 0 -35 -66v-51h73v-109h-73v-255h73z" />
    <glyph glyph-name="g" unicode="g" horiz-adv-x="625" 
d="M610 473v-109h-80v-353q0 -104 -58.5 -167.5t-191.5 -63.5q-142 0 -210 52l73 99q58 -34 117 -34q63 0 90 32.5t27 83.5v46q-75 -64 -144 -64q-84 0 -140.5 69.5t-56.5 172.5q0 104 58.5 173.5t146.5 69.5q83 0 134 -65h2v58h233zM377 234q0 56 -25.5 89t-68.5 33
t-67.5 -32.5t-24.5 -87.5t25 -88t67 -33q41 0 67.5 33t26.5 86z" />
    <glyph glyph-name="h" unicode="h" horiz-adv-x="625" 
d="M27 0v109h73v461h-73v109h226v-244q43 29 71 39t63 10q70 0 108.5 -42t38.5 -106v-227h69v-109h-222v303q0 31 -11 44t-37 13q-33 0 -80 -29v-222h69v-109h-295z" />
    <glyph glyph-name="i" unicode="i" horiz-adv-x="354" 
d="M43 364v109h222v-364h69v-109h-291v109h69v255h-69zM190 690q35 0 59 -24t24 -58t-24.5 -58.5t-58.5 -24.5t-58 24t-24 59q0 34 24 58t58 24z" />
    <glyph glyph-name="j" unicode="j" horiz-adv-x="354" 
d="M38 364v109h226v-488q0 -105 -50 -149.5t-166 -44.5q-19 0 -55 2v122h36q43 0 62.5 15t19.5 57v377h-73zM183 690q35 0 59 -24t24 -58t-24 -58.5t-59 -24.5q-34 0 -58 24t-24 59q0 34 23.5 58t58.5 24z" />
    <glyph glyph-name="k" unicode="k" horiz-adv-x="646" 
d="M35 0v105h73v465h-73v109h226v-428h2l161 125v2h-104v95h294v-95h-52l-138 -119l126 -154h64v-105h-144l-207 250h-2v-145h59v-105h-285z" />
    <glyph glyph-name="l" unicode="l" horiz-adv-x="354" 
d="M36 0v109h73v461h-73v109h226v-570h68v-109h-294z" />
    <glyph glyph-name="m" unicode="m" horiz-adv-x="990" 
d="M19 364v109h241v-39q79 46 150 46q99 0 145 -65q96 65 187 65q162 0 162 -156v-215h94v-109h-247v275q0 76 -62 76q-48 0 -107 -32v-210h85v-109h-238v275q0 40 -14.5 58t-46.5 18q-45 0 -108 -32v-210h85v-109h-326v109h88v255h-88z" />
    <glyph glyph-name="n" unicode="n" horiz-adv-x="625" 
d="M36 364v109h226v-44q69 51 136 51q58 0 101 -37.5t43 -123.5v-210h69v-109h-222v300q0 53 -44 53q-40 0 -83 -31v-213h63v-109h-289v109h73v255h-73z" />
    <glyph glyph-name="o" unicode="o" horiz-adv-x="573" 
d="M535 237q0 -111 -69 -179.5t-180 -68.5q-108 0 -178 66.5t-70 181.5q0 118 72.5 182.5t175.5 64.5q108 0 178.5 -66t70.5 -181zM380 237q0 62 -24.5 96t-69.5 34t-69 -34.5t-24 -98.5q0 -60 24.5 -94t68.5 -34q45 0 69.5 34.5t24.5 96.5z" />
    <glyph glyph-name="p" unicode="p" horiz-adv-x="625" 
d="M340 -103v-109h-323v109h80v467h-80v109h233v-60q60 67 137 67q86 0 143.5 -70.5t57.5 -175.5q0 -108 -57 -176.5t-146 -68.5q-75 0 -135 59v-151h90zM433 234q0 57 -25 89.5t-68 32.5t-67 -32.5t-24 -91.5q0 -58 25 -92t68 -34t67 34t24 94z" />
    <glyph glyph-name="q" unicode="q" horiz-adv-x="625" 
d="M285 -103h90v151q-60 -59 -135 -59q-89 0 -146 68.5t-57 176.5q0 105 57.5 175.5t143.5 70.5q77 0 137 -67v60h233v-109h-80v-467h80v-109h-323v109zM192 234q0 -60 24 -94t67 -34t68 34.5t25 95.5q0 55 -24.5 87.5t-66.5 32.5q-43 0 -68 -32.5t-25 -89.5z" />
    <glyph glyph-name="r" unicode="r" horiz-adv-x="448" 
d="M360 109v-109h-333v109h88v255h-80v109h217v-120h2q21 61 63.5 94t101.5 33h22v-143h-18q-155 0 -155 -178v-50h92z" />
    <glyph glyph-name="s" unicode="s" horiz-adv-x="510" 
d="M58 0v163h110q1 -31 30 -53q27 -20 75 -20q35 0 56 12.5t21 33.5q0 23 -30 34.5t-70.5 15t-91.5 20.5t-83 49q-35 35 -35 86q0 61 49.5 100t125.5 39q64 0 119 -23v16h108v-137h-108q-13 49 -103 49q-30 0 -47.5 -10t-17.5 -26q0 -18 31.5 -27t77 -16t91 -20t77 -47
t31.5 -89q0 -71 -48.5 -115t-137.5 -44q-85 0 -120 33v-24h-110z" />
    <glyph glyph-name="t" unicode="t" horiz-adv-x="344" 
d="M19 364v109h60v74l153 108v-182h85v-109h-85v-205q0 -31 7.5 -40t31.5 -9q19 0 46 9v-102q-57 -24 -113 -24q-52 0 -88.5 27.5t-36.5 85.5v258h-60z" />
    <glyph glyph-name="u" unicode="u" horiz-adv-x="625" 
d="M589 109v-109h-226v40q-68 -47 -135 -47t-106 39.5t-39 107.5v224h-69v109h222v-295q0 -35 10 -48t36 -13q35 0 81 34v213h-63v109h216v-364h73z" />
    <glyph glyph-name="v" unicode="v" horiz-adv-x="573" 
d="M225 -7l-160 371h-69v109h278v-109h-49l74 -215l88 215h-49v109h239v-109h-69l-154 -371h-129z" />
    <glyph glyph-name="w" unicode="w" horiz-adv-x="813" 
d="M184 -7l-124 371h-60v109h257v-109h-51l57 -176h2l95 285h126l96 -285h2l54 176h-55v109h229v-109h-59l-122 -371h-130l-92 278h-2l-91 -278h-132z" />
    <glyph glyph-name="x" unicode="x" horiz-adv-x="563" 
d="M22 0v109h69l102 122l-102 133h-69v109h182l85 -130l93 130h143v-109h-64l-95 -114l111 -141h64v-109h-182l-92 133l-98 -133h-147z" />
    <glyph glyph-name="y" unicode="y" horiz-adv-x="594" 
d="M123 -212v109h90l31 84l-171 383h-69v109h274v-109h-46l79 -212l84 212h-51v109h240v-109h-69l-227 -576h-165z" />
    <glyph glyph-name="z" unicode="z" horiz-adv-x="531" 
d="M35 0v96l278 279h-152v-71h-103v169h435v-98l-277 -279h178v80h99v-176h-458z" />
    <glyph glyph-name="braceleft" unicode="{" horiz-adv-x="385" 
d="M29 289q60 0 83.5 35t23.5 107v61q0 44 6 73.5t24 57.5t56 42t98 14h43v-115h-43t-28 -6.5t-18.5 -11.5t-8.5 -25.5t-4 -37v-56.5q0 -81 -19.5 -121.5t-69.5 -72.5q50 -32 69.5 -72.5t19.5 -121.5v-56.5t4 -37t8.5 -25.5t18.5 -11.5t28 -6.5h43v-115h-43q-60 0 -98 14
t-56 42t-24 57.5t-6 73.5v61q0 72 -23.5 107t-83.5 35v112z" />
    <glyph glyph-name="bar" unicode="|" horiz-adv-x="611" 
d="M241 679h129v-894h-129v894z" />
    <glyph glyph-name="braceright" unicode="}" horiz-adv-x="385" 
d="M356 177q-60 0 -83.5 -35t-23.5 -107v-61q0 -44 -6 -73.5t-24 -57.5t-56 -42t-98 -14h-43v115h43t28 6.5t18.5 11.5t8.5 25.5t4 37v56.5q0 81 19.5 121.5t69.5 72.5q-50 32 -69.5 72.5t-19.5 121.5v56.5t-4 37t-8.5 25.5t-18.5 11.5t-28 6.5h-43v115h43q60 0 98 -14
t56 -42t24 -57.5t6 -73.5v-61q0 -72 23.5 -107t83.5 -35v-112z" />
    <glyph glyph-name="asciitilde" unicode="~" horiz-adv-x="583" 
d="M32 254v126q63 67 147 67q55 0 130.5 -32.5t107.5 -32.5q71 0 134 69v-132q-28 -27 -67 -46t-76 -19q-45 0 -123 34.5t-119 34.5q-68 0 -134 -69z" />
    <glyph glyph-name="uni00A0" unicode="&#xa0;" horiz-adv-x="250" 
 />
    <glyph glyph-name="exclamdown" unicode="&#xa1;" horiz-adv-x="354" 
d="M253 -206h-152v186l40 256h72l40 -256v-186zM259 473v-164h-164v164h164z" />
    <glyph glyph-name="cent" unicode="&#xa2;" horiz-adv-x="563" 
d="M417 185l116 -52q-31 -80 -117 -120t-191 -15l-73 -218h-65l82 237q-138 66 -138 218q0 128 93.5 196.5t206.5 40.5l80 214h63l-85 -238q25 -14 42 -27v52h89v-195h-103q-31 54 -67 69l-84 -233q27 -9 53.5 -8.5t53 21t44.5 58.5zM216 151l73 207q-47 -3 -75 -36.5
t-28 -86.5q0 -51 30 -84z" />
    <glyph glyph-name="sterling" unicode="&#xa3;" horiz-adv-x="573" 
d="M477 219l70 -14q3 -104 -35 -159t-105 -55q-69 0 -128 54q-50 -54 -109 -54q-50 0 -82 32.5t-32 82.5q0 49 30.5 81t77.5 32q31 0 75 -20q0 34 -19 88h-148v100h98q-48 92 -48 147q0 70 57.5 113.5t149.5 43.5q86 0 134.5 -44.5t55.5 -128.5l-117 -15q-3 50 -21 71.5
t-55 21.5q-29 0 -48.5 -15.5t-19.5 -39.5q0 -20 9.5 -43t27 -56t26.5 -55h126v-100h-104q8 -75 -10 -134q42 -18 73 -18q64 0 71 84zM220 104q-33 42 -63 42q-16 0 -26.5 -11t-10.5 -28q0 -19 13 -32t31 -13q17 0 33 11.5t23 30.5z" />
    <glyph glyph-name="currency" unicode="&#xa4;" horiz-adv-x="667" 
d="M67 525l83 84l67 -69q55 33 115 33q59 0 118 -33l67 69l83 -84l-67 -68q31 -58 31 -117q0 -62 -31 -114l67 -67l-83 -83l-67 66q-60 -33 -120 -33t-113 33l-67 -66l-83 83l67 67q-32 58 -32 119q0 60 32 112zM333 456q-47 0 -81 -34t-34 -81t34 -81t81 -34
q48 0 81.5 33.5t33.5 81.5q0 47 -33.5 81t-81.5 34z" />
    <glyph glyph-name="yen" unicode="&#xa5;" horiz-adv-x="698" 
d="M371 398l100 166h-60v115h292v-115h-85l-61 -92h138v-68h-184l-71 -107h255v-68h-255v-114h96v-115h-364v115h96v114h-264v68h264l-76 107h-188v68h142l-66 92h-85v115h335v-115h-63z" />
    <glyph glyph-name="brokenbar" unicode="&#xa6;" horiz-adv-x="611" 
d="M241 166h129v-381h-129v381zM241 679h129v-381h-129v381z" />
    <glyph glyph-name="section" unicode="&#xa7;" horiz-adv-x="521" 
d="M54 -29h129q1 -39 24.5 -61.5t61.5 -22.5q30 0 49.5 17t19.5 43q0 27 -32.5 49t-78.5 41t-92 41.5t-78.5 60.5t-32.5 88q0 97 101 148q-79 57 -79 139q0 79 57.5 126.5t152.5 47.5q99 0 155 -49.5t57 -133.5h-129q-6 80 -87 80q-31 0 -50.5 -14.5t-19.5 -37.5
q0 -31 28.5 -53.5t67 -35.5t91 -40t87.5 -62q41 -41 41 -95q0 -86 -99 -152q76 -47 76 -135q0 -77 -58 -126t-150 -49t-150.5 51t-61.5 135zM233 180l95 -43q46 36 46 77q0 43 -77 76l-104 46q-45 -30 -45 -71q0 -26 19 -45t66 -40z" />
    <glyph glyph-name="dieresis" unicode="&#xa8;" 
d="M277 680q29 0 50 -20.5t21 -49.5t-21 -50t-50 -21t-49.5 21t-20.5 50t20.5 49.5t49.5 20.5zM55 680q29 0 50 -20.5t21 -49.5t-21 -50t-50 -21t-49.5 21t-20.5 50t20.5 49.5t49.5 20.5z" />
    <glyph glyph-name="copyright" unicode="&#xa9;" horiz-adv-x="740" 
d="M460 301l79 -27q-19 -61 -61 -93.5t-103 -32.5q-86 0 -137.5 56t-51.5 150q0 97 51 153.5t139 56.5q120 0 163 -119l-79 -19q-26 68 -87 68q-48 0 -74.5 -36.5t-26.5 -101.5q0 -66 25.5 -102.5t71.5 -36.5q67 0 91 84zM370 656q-125 0 -212.5 -87.5t-87.5 -211.5
q0 -125 88 -213t212 -88t212 88t88 213q0 124 -87.5 211.5t-212.5 87.5zM370 730q155 0 264.5 -109.5t109.5 -264.5t-109.5 -264.5t-264.5 -109.5t-264.5 109.5t-109.5 264.5t109.5 264.5t264.5 109.5z" />
    <glyph glyph-name="ordfeminine" unicode="&#xaa;" horiz-adv-x="396" 
d="M385 464v-65h-147v22q-42 -26 -84 -26q-48 0 -80 25t-32 63q0 42 35 69t90 27q34 0 71 -15v18q0 21 -16.5 35t-42.5 14q-33 0 -56 -22l-79 13q36 69 150 69q142 0 142 -107v-120h49zM238 503q-34 21 -57 21q-19 0 -31.5 -10t-12.5 -25q0 -16 11.5 -27t28.5 -11
q25 0 61 29v23z" />
    <glyph glyph-name="guillemotleft" unicode="&#xab;" horiz-adv-x="542" 
d="M427 236l110 -236h-144l-113 236l113 237h144zM153 236l110 -236h-144l-113 236l113 237h144z" />
    <glyph glyph-name="logicalnot" unicode="&#xac;" horiz-adv-x="668" 
d="M58 520h551v-365h-127v238h-424v127z" />
    <glyph glyph-name="uni00AD" unicode="&#xad;" horiz-adv-x="344" 
d="M35 170v132h273v-132h-273z" />
    <glyph glyph-name="registered" unicode="&#xae;" horiz-adv-x="740" 
d="M547 156h-100q-53 109 -86 142q-14 14 -25.5 17.5t-38.5 3.5h-15v-163h-81v397h195q64 0 95.5 -32t31.5 -79q0 -46 -29 -75.5t-79 -35.5v-2q8 -3 14 -5.5t12.5 -7.5t10.5 -9t11 -13.5t11.5 -16t14 -22t16 -26t19.5 -33.5t23 -40zM282 382h71q85 0 85 55q0 54 -83 54h-73
v-109zM370 656q-125 0 -212.5 -87.5t-87.5 -211.5q0 -125 88 -213t212 -88t212 88t88 213q0 124 -87.5 211.5t-212.5 87.5zM370 730q155 0 264.5 -109.5t109.5 -264.5t-109.5 -264.5t-264.5 -109.5t-264.5 109.5t-109.5 264.5t109.5 264.5t264.5 109.5z" />
    <glyph glyph-name="macron" unicode="&#xaf;" 
d="M-60 542v102h454v-102h-454z" />
    <glyph glyph-name="degree" unicode="&#xb0;" horiz-adv-x="396" 
d="M197 690q70 0 119.5 -49t49.5 -119t-49.5 -119.5t-119.5 -49.5t-119 49.5t-49 119.5t49 119t119 49zM197 626q-43 0 -73.5 -30t-30.5 -74t30.5 -74.5t73.5 -30.5t74 30.5t31 74.5q0 43 -30.5 73.5t-74.5 30.5z" />
    <glyph glyph-name="plusminus" unicode="&#xb1;" horiz-adv-x="668" 
d="M58 94h551v-127h-551v127zM397 489h212v-127h-212v-212h-127v212h-212v127h212v212h127v-212z" />
    <glyph glyph-name="twosuperior" unicode="&#xb2;" 
d="M295 441v-109h-269v18q0 42 17 75.5t40.5 54t47.5 38t41 37t17 41.5q0 15 -9 24.5t-23 9.5q-21 0 -30.5 -17t-11.5 -56l-89 7q-1 62 35 94.5t101 32.5q59 0 95 -27.5t36 -71.5q0 -35 -25 -61.5t-55.5 -41t-60 -39.5t-37.5 -56h104v47h76z" />
    <glyph glyph-name="threesuperior" unicode="&#xb3;" 
d="M22 444l89 6q2 -61 48 -61q20 0 33 13.5t13 35.5q0 48 -52 48h-23v64q66 0 66 43q0 16 -10 26t-27 10q-39 0 -37 -44h-87q1 44 27 70q39 36 104 36q58 0 93 -25.5t35 -68.5q0 -52 -55 -79q70 -22 70 -83q0 -48 -39.5 -77.5t-104.5 -29.5q-131 0 -143 116z" />
    <glyph glyph-name="acute" unicode="&#xb4;" 
d="M67 534l78 155h180l-180 -155h-78z" />
    <glyph glyph-name="mu" unicode="&#xb5;" horiz-adv-x="615" 
d="M73 473h136v-201q0 -86 20.5 -130t76.5 -44q43 0 71.5 37t28.5 108v230h139v-473h-128v63h-2q-15 -36 -43.5 -55t-59.5 -19q-69 0 -101 75h-2v-276h-136v685z" />
    <glyph glyph-name="paragraph" unicode="&#xb6;" horiz-adv-x="552" 
d="M308 -212h-116v490q-91 7 -141.5 59t-50.5 138q0 93 56 148.5t158 55.5h338v-127h-55v-764h-116v764h-73v-764z" />
    <glyph glyph-name="periodcentered" unicode="&#xb7;" horiz-adv-x="365" 
d="M100 479h164v-164h-164v164z" />
    <glyph glyph-name="cedilla" unicode="&#xb8;" 
d="M72 12h85v-25q40 -7 63.5 -30t23.5 -56q0 -65 -58 -86.5t-176 -15.5v50q103 0 103 39q0 31 -59 35z" />
    <glyph glyph-name="onesuperior" unicode="&#xb9;" 
d="M64 332v62h57v229h-57v62h157v-291h52v-62h-209z" />
    <glyph glyph-name="ordmasculine" unicode="&#xba;" horiz-adv-x="375" 
d="M188 393q-73 0 -117.5 41t-44.5 108t44.5 108t117.5 41t117 -41t44 -108t-44 -108t-117 -41zM187 463q29 0 45 20.5t16 58.5q0 37 -16 57.5t-44 20.5q-29 0 -45 -21t-16 -58t16 -57.5t44 -20.5z" />
    <glyph glyph-name="guillemotright" unicode="&#xbb;" horiz-adv-x="542" 
d="M389 236l-110 237h144l113 -237l-113 -236h-144zM115 236l-110 237h144l113 -237l-113 -236h-144z" />
    <glyph glyph-name="onequarter" unicode="&#xbc;" horiz-adv-x="927" 
d="M861 57v-57h-175v57h44v38h-145q-14 33 -23 48l174 216h89v-210h36v-54h-36v-38h36zM174 0l492 679h87l-492 -679h-87zM730 149v103h-2l-82 -103h84zM93 332v62h57v229h-57v62h157v-291h52v-62h-209z" />
    <glyph glyph-name="onehalf" unicode="&#xbd;" horiz-adv-x="927" 
d="M857 109v-109h-269v18q0 42 17 75.5t41 54t47.5 38t40.5 37t17 41.5q0 15 -9 24.5t-23 9.5q-21 0 -30.5 -17t-11.5 -56l-89 7q-1 62 35 94.5t101 32.5q59 0 95 -27.5t36 -71.5q0 -35 -25 -61.5t-55.5 -41t-60 -39.5t-37.5 -56h104v47h76zM174 0l492 679h87l-492 -679h-87
zM93 332v62h57v229h-57v62h157v-291h52v-62h-209z" />
    <glyph glyph-name="threequarters" unicode="&#xbe;" horiz-adv-x="927" 
d="M861 57v-57h-175v57h44v38h-145q-14 33 -23 48l174 216h89v-210h36v-54h-36v-38h36zM174 0l492 679h87l-492 -679h-87zM730 149v103h-2l-82 -103h84zM57 444l89 6q2 -61 48 -61q20 0 33 13.5t13 35.5q0 48 -52 48h-23v64q66 0 66 43q0 16 -10 26t-27 10q-39 0 -37 -44
h-87q1 20 8.5 40.5t16.5 28.5q39 37 106 37q58 0 93 -25.5t35 -68.5q0 -52 -55 -79q70 -22 70 -83q0 -48 -39.5 -77.5t-104.5 -29.5q-131 0 -143 116z" />
    <glyph glyph-name="questiondown" unicode="&#xbf;" horiz-adv-x="563" 
d="M280 249h70l14 -173l-6 -3q-59 15 -104.5 -7t-45.5 -78q0 -35 23 -62.5t70 -27.5q43 0 68 26.5t16 74.5h151q0 -99 -66 -152.5t-179 -53.5q-109 0 -173.5 53.5t-64.5 145.5q0 85 57 137.5t154 48.5zM398 320h-164v164h164v-164z" />
    <glyph glyph-name="Agrave" unicode="&#xc0;" horiz-adv-x="698" 
d="M699 115v-115h-330v115h85l-32 116h-176l-37 -116h91v-115h-302v115h85l133 449h-91v115h443v-115h-91l142 -449h80zM394 331l-55 205h-2l-61 -205h118zM449 740h-78l-180 155h180z" />
    <glyph glyph-name="Aacute" unicode="&#xc1;" horiz-adv-x="698" 
d="M699 115v-115h-330v115h85l-32 116h-176l-37 -116h91v-115h-302v115h85l133 449h-91v115h443v-115h-91l142 -449h80zM394 331l-55 205h-2l-61 -205h118zM250 740l78 155h180l-180 -155h-78z" />
    <glyph glyph-name="Acircumflex" unicode="&#xc2;" horiz-adv-x="698" 
d="M699 115v-115h-330v115h85l-32 116h-176l-37 -116h91v-115h-302v115h85l133 449h-91v115h443v-115h-91l142 -449h80zM394 331l-55 205h-2l-61 -205h118zM158 726l118 180h147l119 -180h-85l-109 107l-102 -107h-88z" />
    <glyph glyph-name="Atilde" unicode="&#xc3;" horiz-adv-x="698" 
d="M699 115v-115h-330v115h85l-32 116h-176l-37 -116h91v-115h-302v115h85l133 449h-91v115h443v-115h-91l142 -449h80zM394 331l-55 205h-2l-61 -205h118zM471 891h70q2 -68 -31.5 -112.5t-82.5 -44.5q-27 0 -83 28t-73 28q-37 0 -39 -53h-73q0 70 31 112q30 44 82 44
q31 0 84.5 -28.5t71.5 -28.5q17 0 29.5 15.5t13.5 39.5z" />
    <glyph glyph-name="Adieresis" unicode="&#xc4;" horiz-adv-x="698" 
d="M699 115v-115h-330v115h85l-32 116h-176l-37 -116h91v-115h-302v115h85l133 449h-91v115h443v-115h-91l142 -449h80zM394 331l-55 205h-2l-61 -205h118zM238 886q29 0 50 -20.5t21 -49.5t-21 -50t-50 -21t-49.5 21t-20.5 50t20.5 49.5t49.5 20.5zM460 886q29 0 50 -20.5
t21 -49.5t-21 -50t-50 -21t-49.5 21t-20.5 50t20.5 49.5t49.5 20.5z" />
    <glyph glyph-name="Aring" unicode="&#xc5;" horiz-adv-x="698" 
d="M699 115v-115h-330v115h85l-32 116h-176l-37 -116h91v-115h-302v115h85l133 449h-91v115h443v-115h-91l142 -449h80zM394 331l-55 205h-2l-61 -205h118zM349 928q43 0 73.5 -30t30.5 -73t-30.5 -73.5t-73.5 -30.5t-73 30.5t-30 73.5t30 73t73 30zM349 878q-23 0 -38 -15
t-15 -38t15.5 -38.5t37.5 -15.5q23 0 38.5 15.5t15.5 38.5q0 22 -15.5 37.5t-38.5 15.5z" />
    <glyph glyph-name="AE" unicode="&#xc6;" horiz-adv-x="990" 
d="M-2 0v115h71l194 449h-101v115h792v-215h-130v100h-203v-155h164v-115h-164v-179h203v103h130v-218h-587v115h77v179h-163l-80 -179h80v-115h-283zM444 394v181h-44l-77 -181h121z" />
    <glyph glyph-name="Ccedilla" unicode="&#xc7;" horiz-adv-x="781" 
d="M294 -84l17 83q-76 14 -132 50.5t-85.5 86t-43 100.5t-13.5 104q0 155 99 252.5t258 97.5q123 0 204 -64v53h115v-239h-115q-24 62 -52 84q-35 27 -59 36t-58 9q-91 0 -146.5 -63.5t-55.5 -167.5q0 -99 53 -161t138 -62q71 0 120.5 46.5t68.5 130.5l134 -64
q-68 -237 -347 -237l-2 -11q42 -4 67 -28t25 -58q0 -65 -58 -86.5t-176 -15.5v50q103 0 103 39q0 31 -59 35z" />
    <glyph glyph-name="Egrave" unicode="&#xc8;" horiz-adv-x="667" 
d="M34 0v115h80v449h-80v115h597v-215h-129v100h-211v-156h170v-115h-170v-178h211v101h129v-216h-597zM433 740h-78l-180 155h180z" />
    <glyph glyph-name="Eacute" unicode="&#xc9;" horiz-adv-x="667" 
d="M34 0v115h80v449h-80v115h597v-215h-129v100h-211v-156h170v-115h-170v-178h211v101h129v-216h-597zM234 740l78 155h180l-180 -155h-78z" />
    <glyph glyph-name="Ecircumflex" unicode="&#xca;" horiz-adv-x="667" 
d="M34 0v115h80v449h-80v115h597v-215h-129v100h-211v-156h170v-115h-170v-178h211v101h129v-216h-597zM142 726l118 180h147l119 -180h-85l-109 107l-102 -107h-88z" />
    <glyph glyph-name="Edieresis" unicode="&#xcb;" horiz-adv-x="667" 
d="M34 0v115h80v449h-80v115h597v-215h-129v100h-211v-156h170v-115h-170v-178h211v101h129v-216h-597zM444 886q29 0 50 -20.5t21 -49.5t-21 -50t-50 -21t-49.5 21t-20.5 50t20.5 49.5t49.5 20.5zM222 886q29 0 50 -20.5t21 -49.5t-21 -50t-50 -21t-49.5 21t-20.5 50
t20.5 49.5t49.5 20.5z" />
    <glyph glyph-name="Igrave" unicode="&#xcc;" horiz-adv-x="427" 
d="M22 0v115h103v449h-103v115h383v-115h-103v-449h103v-115h-383zM313 740h-78l-180 155h180z" />
    <glyph glyph-name="Iacute" unicode="&#xcd;" horiz-adv-x="427" 
d="M22 0v115h103v449h-103v115h383v-115h-103v-449h103v-115h-383zM114 740l78 155h180l-180 -155h-78z" />
    <glyph glyph-name="Icircumflex" unicode="&#xce;" horiz-adv-x="427" 
d="M22 0v115h103v449h-103v115h383v-115h-103v-449h103v-115h-383zM22 726l118 180h147l119 -180h-85l-109 107l-102 -107h-88z" />
    <glyph glyph-name="Idieresis" unicode="&#xcf;" horiz-adv-x="427" 
d="M22 0v115h103v449h-103v115h383v-115h-103v-449h103v-115h-383zM324 886q29 0 50 -20.5t21 -49.5t-21 -50t-50 -21t-49.5 21t-20.5 50t20.5 49.5t49.5 20.5zM102 886q29 0 50 -20.5t21 -49.5t-21 -50t-50 -21t-49.5 21t-20.5 50t20.5 49.5t49.5 20.5z" />
    <glyph glyph-name="Eth" unicode="&#xd0;" horiz-adv-x="802" 
d="M33 0v115h103v179h-103v91h103v179h-103v115h355q95 0 161 -21t116 -71q97 -97 97 -249q0 -141 -85.5 -239.5t-239.5 -98.5h-404zM313 115h67q99 0 148.5 59t49.5 163q0 110 -52.5 168.5t-151.5 58.5h-61v-179h125v-91h-125v-179z" />
    <glyph glyph-name="Ntilde" unicode="&#xd1;" horiz-adv-x="792" 
d="M21 0v115h91v449h-91v115h284l249 -424h2v309h-88v115h305v-115h-96v-564h-152l-290 499h-2v-384h85v-115h-297zM518 891h70q2 -68 -31.5 -112.5t-82.5 -44.5q-27 0 -83 28t-73 28q-37 0 -39 -53h-73q0 70 31 112q30 44 82 44q31 0 84.5 -28.5t71.5 -28.5q17 0 29.5 15.5
t13.5 39.5z" />
    <glyph glyph-name="Ograve" unicode="&#xd2;" horiz-adv-x="854" 
d="M427 690q92 0 165.5 -29t119 -78.5t69.5 -111.5t24 -131q0 -67 -23.5 -128.5t-68.5 -111t-119 -79.5t-167 -30q-92 0 -166 29.5t-119 79t-68.5 111t-23.5 129.5q0 145 99.5 247.5t277.5 102.5zM427 566q-75 0 -131 -57.5t-56 -171.5q0 -98 52 -160t135 -62q77 0 132.5 58
t55.5 168q0 103 -53.5 164t-134.5 61zM527 740h-78l-180 155h180z" />
    <glyph glyph-name="Oacute" unicode="&#xd3;" horiz-adv-x="854" 
d="M427 690q92 0 165.5 -29t119 -78.5t69.5 -111.5t24 -131q0 -67 -23.5 -128.5t-68.5 -111t-119 -79.5t-167 -30q-92 0 -166 29.5t-119 79t-68.5 111t-23.5 129.5q0 145 99.5 247.5t277.5 102.5zM427 566q-75 0 -131 -57.5t-56 -171.5q0 -98 52 -160t135 -62q77 0 132.5 58
t55.5 168q0 103 -53.5 164t-134.5 61zM328 740l78 155h180l-180 -155h-78z" />
    <glyph glyph-name="Ocircumflex" unicode="&#xd4;" horiz-adv-x="854" 
d="M427 690q92 0 165.5 -29t119 -78.5t69.5 -111.5t24 -131q0 -67 -23.5 -128.5t-68.5 -111t-119 -79.5t-167 -30q-92 0 -166 29.5t-119 79t-68.5 111t-23.5 129.5q0 145 99.5 247.5t277.5 102.5zM427 566q-75 0 -131 -57.5t-56 -171.5q0 -98 52 -160t135 -62q77 0 132.5 58
t55.5 168q0 103 -53.5 164t-134.5 61zM236 726l118 180h147l119 -180h-85l-109 107l-102 -107h-88z" />
    <glyph glyph-name="Otilde" unicode="&#xd5;" horiz-adv-x="854" 
d="M427 690q92 0 165.5 -29t119 -78.5t69.5 -111.5t24 -131q0 -67 -23.5 -128.5t-68.5 -111t-119 -79.5t-167 -30q-92 0 -166 29.5t-119 79t-68.5 111t-23.5 129.5q0 145 99.5 247.5t277.5 102.5zM427 566q-75 0 -131 -57.5t-56 -171.5q0 -98 52 -160t135 -62q77 0 132.5 58
t55.5 168q0 103 -53.5 164t-134.5 61zM549 891h70q2 -68 -31.5 -112.5t-82.5 -44.5q-27 0 -83 28t-73 28q-37 0 -39 -53h-73q0 70 31 112q30 44 82 44q31 0 84.5 -28.5t71.5 -28.5q17 0 29.5 15.5t13.5 39.5z" />
    <glyph glyph-name="Odieresis" unicode="&#xd6;" horiz-adv-x="854" 
d="M427 690q92 0 165.5 -29t119 -78.5t69.5 -111.5t24 -131q0 -67 -23.5 -128.5t-68.5 -111t-119 -79.5t-167 -30q-92 0 -166 29.5t-119 79t-68.5 111t-23.5 129.5q0 145 99.5 247.5t277.5 102.5zM427 566q-75 0 -131 -57.5t-56 -171.5q0 -98 52 -160t135 -62q77 0 132.5 58
t55.5 168q0 103 -53.5 164t-134.5 61zM538 886q29 0 50 -20.5t21 -49.5t-21 -50t-50 -21t-49.5 21t-20.5 50t20.5 49.5t49.5 20.5zM316 886q29 0 50 -20.5t21 -49.5t-21 -50t-50 -21t-49.5 21t-20.5 50t20.5 49.5t49.5 20.5z" />
    <glyph glyph-name="multiply" unicode="&#xd7;" horiz-adv-x="667" 
d="M507 71l-173 173l-173 -173l-89 89l172 172l-174 174l90 90l174 -174l174 174l90 -90l-174 -174l172 -172z" />
    <glyph glyph-name="Oslash" unicode="&#xd8;" horiz-adv-x="854" 
d="M642 637l57 67l57 -42l-57 -67l3 -2q103 -101 103 -252q0 -67 -23.5 -128t-68.5 -111.5t-119 -80.5t-166 -30q-125 0 -213 53l-67 -76l-57 32l69 85q-110 101 -110 256q0 63 22 123t65.5 111.5t119 83t171.5 31.5q127 0 214 -53zM270 210l274 314q-49 42 -116 42
q-84 0 -136 -62t-52 -162q0 -76 30 -132zM587 470l-274 -313q51 -42 115 -42q83 0 135 62t52 162q0 77 -28 131z" />
    <glyph glyph-name="Ugrave" unicode="&#xd9;" horiz-adv-x="677" 
d="M14 564v115h316v-115h-59v-345q0 -54 20 -83t68 -29q94 0 94 106v351h-56v115h262v-115h-85v-380q0 -56 -22.5 -96t-59.5 -59.5t-74 -28t-78 -8.5q-111 0 -178.5 50.5t-67.5 166.5v355h-80zM438 740h-78l-180 155h180z" />
    <glyph glyph-name="Uacute" unicode="&#xda;" horiz-adv-x="677" 
d="M14 564v115h316v-115h-59v-345q0 -54 20 -83t68 -29q94 0 94 106v351h-56v115h262v-115h-85v-380q0 -56 -22.5 -96t-59.5 -59.5t-74 -28t-78 -8.5q-111 0 -178.5 50.5t-67.5 166.5v355h-80zM239 740l78 155h180l-180 -155h-78z" />
    <glyph glyph-name="Ucircumflex" unicode="&#xdb;" horiz-adv-x="677" 
d="M14 564v115h316v-115h-59v-345q0 -54 20 -83t68 -29q94 0 94 106v351h-56v115h262v-115h-85v-380q0 -56 -22.5 -96t-59.5 -59.5t-74 -28t-78 -8.5q-111 0 -178.5 50.5t-67.5 166.5v355h-80zM147 726l118 180h147l119 -180h-85l-109 107l-102 -107h-88z" />
    <glyph glyph-name="Udieresis" unicode="&#xdc;" horiz-adv-x="677" 
d="M14 564v115h316v-115h-59v-345q0 -54 20 -83t68 -29q94 0 94 106v351h-56v115h262v-115h-85v-380q0 -56 -22.5 -96t-59.5 -59.5t-74 -28t-78 -8.5q-111 0 -178.5 50.5t-67.5 166.5v355h-80zM449 886q29 0 50 -20.5t21 -49.5t-21 -50t-50 -21t-49.5 21t-20.5 50t20.5 49.5
t49.5 20.5zM227 886q29 0 50 -20.5t21 -49.5t-21 -50t-50 -21t-49.5 21t-20.5 50t20.5 49.5t49.5 20.5z" />
    <glyph glyph-name="Yacute" unicode="&#xdd;" horiz-adv-x="698" 
d="M172 0v115h96v183l-187 266h-85v115h334v-115h-62l103 -166l99 166h-59v115h291v-115h-85l-177 -266v-183h96v-115h-364zM250 740l78 155h180l-180 -155h-78z" />
    <glyph glyph-name="Thorn" unicode="&#xde;" horiz-adv-x="667" 
d="M387 115v-115h-356v115h85v449h-85v115h356v-115h-94v-38h98q123 0 190 -47t67 -139q0 -87 -64.5 -137t-187.5 -50h-103v-38h94zM293 254h66q99 0 99 85q0 43 -27.5 64.5t-71.5 21.5h-66v-171z" />
    <glyph glyph-name="germandbls" unicode="&#xdf;" horiz-adv-x="646" 
d="M289 109v-109h-267v109h80v367q0 96 52 148q67 67 179 67q107 0 169.5 -44t62.5 -120q0 -97 -104 -140q136 -45 136 -188q0 -95 -49.5 -150.5t-135.5 -55.5q-37 0 -74 15v101q14 -6 29 -6q75 0 75 99q0 68 -26.5 94t-77.5 29v110q35 2 55.5 22t20.5 52q0 34 -22.5 56
t-56.5 22q-43 0 -61.5 -28t-18.5 -88v-362h34z" />
    <glyph glyph-name="agrave" unicode="&#xe0;" horiz-adv-x="583" 
d="M570 109v-109h-229v37q-62 -44 -128 -44q-74 0 -123.5 42t-49.5 106q0 69 54.5 114t139.5 45q46 0 107 -21v26q0 37 -25 60t-65 23q-48 0 -86 -37l-122 21q55 112 229 112q116 0 169 -43t53 -138v-194h76zM341 175q-52 34 -87 34q-30 0 -49.5 -16.5t-19.5 -42.5
q0 -27 18 -45t44 -18q40 0 94 49v39zM391 534h-78l-180 155h180z" />
    <glyph glyph-name="aacute" unicode="&#xe1;" horiz-adv-x="583" 
d="M570 109v-109h-229v37q-62 -44 -128 -44q-74 0 -123.5 42t-49.5 106q0 69 54.5 114t139.5 45q46 0 107 -21v26q0 37 -25 60t-65 23q-48 0 -86 -37l-122 21q55 112 229 112q116 0 169 -43t53 -138v-194h76zM341 175q-52 34 -87 34q-30 0 -49.5 -16.5t-19.5 -42.5
q0 -27 18 -45t44 -18q40 0 94 49v39zM192 534l78 155h180l-180 -155h-78z" />
    <glyph glyph-name="acircumflex" unicode="&#xe2;" horiz-adv-x="583" 
d="M570 109v-109h-229v37q-62 -44 -128 -44q-74 0 -123.5 42t-49.5 106q0 69 54.5 114t139.5 45q46 0 107 -21v26q0 37 -25 60t-65 23q-48 0 -86 -37l-122 21q55 112 229 112q116 0 169 -43t53 -138v-194h76zM341 175q-52 34 -87 34q-30 0 -49.5 -16.5t-19.5 -42.5
q0 -27 18 -45t44 -18q40 0 94 49v39zM100 520l118 180h147l119 -180h-85l-109 107l-102 -107h-88z" />
    <glyph glyph-name="atilde" unicode="&#xe3;" horiz-adv-x="583" 
d="M570 109v-109h-229v37q-62 -44 -128 -44q-74 0 -123.5 42t-49.5 106q0 69 54.5 114t139.5 45q46 0 107 -21v26q0 37 -25 60t-65 23q-48 0 -86 -37l-122 21q55 112 229 112q116 0 169 -43t53 -138v-194h76zM341 175q-52 34 -87 34q-30 0 -49.5 -16.5t-19.5 -42.5
q0 -27 18 -45t44 -18q40 0 94 49v39zM413 685h70q2 -68 -31.5 -112.5t-82.5 -44.5q-27 0 -83 28t-73 28q-37 0 -39 -53h-73q0 70 31 112q30 44 82 44q31 0 84.5 -28.5t71.5 -28.5q17 0 29.5 15.5t13.5 39.5z" />
    <glyph glyph-name="adieresis" unicode="&#xe4;" horiz-adv-x="583" 
d="M570 109v-109h-229v37q-62 -44 -128 -44q-74 0 -123.5 42t-49.5 106q0 69 54.5 114t139.5 45q46 0 107 -21v26q0 37 -25 60t-65 23q-48 0 -86 -37l-122 21q55 112 229 112q116 0 169 -43t53 -138v-194h76zM341 175q-52 34 -87 34q-30 0 -49.5 -16.5t-19.5 -42.5
q0 -27 18 -45t44 -18q40 0 94 49v39zM402 680q29 0 50 -20.5t21 -49.5t-21 -50t-50 -21t-49.5 21t-20.5 50t20.5 49.5t49.5 20.5zM180 680q29 0 50 -20.5t21 -49.5t-21 -50t-50 -21t-49.5 21t-20.5 50t20.5 49.5t49.5 20.5z" />
    <glyph glyph-name="aring" unicode="&#xe5;" horiz-adv-x="583" 
d="M570 109v-109h-229v37q-62 -44 -128 -44q-74 0 -123.5 42t-49.5 106q0 69 54.5 114t139.5 45q46 0 107 -21v26q0 37 -25 60t-65 23q-48 0 -86 -37l-122 21q55 112 229 112q116 0 169 -43t53 -138v-194h76zM341 175q-52 34 -87 34q-30 0 -49.5 -16.5t-19.5 -42.5
q0 -27 18 -45t44 -18q40 0 94 49v39zM291 722q43 0 73.5 -30t30.5 -73t-30.5 -73.5t-73.5 -30.5t-73 30.5t-30 73.5t30 73t73 30zM291 672q-23 0 -38 -15t-15 -38t15.5 -38.5t37.5 -15.5q23 0 38.5 15.5t15.5 38.5q0 22 -15.5 37.5t-38.5 15.5z" />
    <glyph glyph-name="ae" unicode="&#xe6;" horiz-adv-x="885" 
d="M728 145l117 -36q-34 -57 -94.5 -88.5t-137.5 -31.5q-139 0 -213 99q-51 -53 -93 -76t-88 -23q-70 0 -115 43t-45 109q0 71 50 115t131 44q56 0 114 -23v15q0 47 -26.5 70.5t-64.5 23.5q-41 0 -85 -35l-120 22q59 111 230 111q103 0 169 -46q60 46 145 46
q120 0 186 -74.5t65 -202.5h-346q4 -53 34 -84.5t77 -31.5q56 0 110 54zM506 290h194q-8 43 -34.5 67.5t-66.5 24.5q-38 0 -63.5 -24.5t-29.5 -67.5zM354 175q-51 36 -86 36q-28 0 -46.5 -19t-18.5 -47q0 -25 14 -41t36 -16q43 0 101 52v35z" />
    <glyph glyph-name="ccedilla" unicode="&#xe7;" horiz-adv-x="563" 
d="M194 -82l24 82q-87 20 -136.5 83t-49.5 154q0 105 68 174t171 69q73 0 143 -46v39h104v-192h-104q-36 79 -116 79q-51 0 -81 -33t-30 -89q0 -62 28.5 -97t78.5 -35q36 0 68 21t52 57l117 -52q-35 -75 -92 -109t-146 -34l-2 -7q43 -5 68 -28.5t25 -57.5q0 -65 -58 -86.5
t-176 -15.5v50q103 0 103 39q0 31 -59 35z" />
    <glyph glyph-name="egrave" unicode="&#xe8;" horiz-adv-x="573" 
d="M416 142l120 -37q-75 -116 -232 -116q-123 0 -195 64.5t-72 174.5q0 111 72 183.5t183 72.5q110 0 181.5 -77.5t62.5 -201.5h-346q1 -48 29 -83t87 -35q30 0 53.5 12t56.5 43zM190 289h197q-6 45 -32.5 70.5t-67.5 25.5q-84 0 -97 -96zM386 534h-78l-180 155h180z" />
    <glyph glyph-name="eacute" unicode="&#xe9;" horiz-adv-x="573" 
d="M416 142l120 -37q-75 -116 -232 -116q-123 0 -195 64.5t-72 174.5q0 111 72 183.5t183 72.5q110 0 181.5 -77.5t62.5 -201.5h-346q1 -48 29 -83t87 -35q30 0 53.5 12t56.5 43zM190 289h197q-6 45 -32.5 70.5t-67.5 25.5q-84 0 -97 -96zM187 534l78 155h180l-180 -155h-78
z" />
    <glyph glyph-name="ecircumflex" unicode="&#xea;" horiz-adv-x="573" 
d="M416 142l120 -37q-75 -116 -232 -116q-123 0 -195 64.5t-72 174.5q0 111 72 183.5t183 72.5q110 0 181.5 -77.5t62.5 -201.5h-346q1 -48 29 -83t87 -35q30 0 53.5 12t56.5 43zM190 289h197q-6 45 -32.5 70.5t-67.5 25.5q-84 0 -97 -96zM95 520l118 180h147l119 -180h-85
l-109 107l-102 -107h-88z" />
    <glyph glyph-name="edieresis" unicode="&#xeb;" horiz-adv-x="573" 
d="M416 142l120 -37q-75 -116 -232 -116q-123 0 -195 64.5t-72 174.5q0 111 72 183.5t183 72.5q110 0 181.5 -77.5t62.5 -201.5h-346q1 -48 29 -83t87 -35q30 0 53.5 12t56.5 43zM190 289h197q-6 45 -32.5 70.5t-67.5 25.5q-84 0 -97 -96zM397 680q29 0 50 -20.5t21 -49.5
t-21 -50t-50 -21t-49.5 21t-20.5 50t20.5 49.5t49.5 20.5zM175 680q29 0 50 -20.5t21 -49.5t-21 -50t-50 -21t-49.5 21t-20.5 50t20.5 49.5t49.5 20.5z" />
    <glyph glyph-name="igrave" unicode="&#xec;" horiz-adv-x="354" 
d="M43 364v109h222v-364h69v-109h-291v109h69v255h-69zM277 534h-78l-180 155h180z" />
    <glyph glyph-name="iacute" unicode="&#xed;" horiz-adv-x="354" 
d="M43 364v109h222v-364h69v-109h-291v109h69v255h-69zM78 534l78 155h180l-180 -155h-78z" />
    <glyph glyph-name="icircumflex" unicode="&#xee;" horiz-adv-x="354" 
d="M43 364v109h222v-364h69v-109h-291v109h69v255h-69zM-14 520l118 180h147l119 -180h-85l-109 107l-102 -107h-88z" />
    <glyph glyph-name="idieresis" unicode="&#xef;" horiz-adv-x="354" 
d="M43 364v109h222v-364h69v-109h-291v109h69v255h-69zM288 680q29 0 50 -20.5t21 -49.5t-21 -50t-50 -21t-49.5 21t-20.5 50t20.5 49.5t49.5 20.5zM66 680q29 0 50 -20.5t21 -49.5t-21 -50t-50 -21t-49.5 21t-20.5 50t20.5 49.5t49.5 20.5z" />
    <glyph glyph-name="eth" unicode="&#xf0;" horiz-adv-x="573" 
d="M195 246q0 -138 93 -138q46 0 72.5 36.5t26.5 98.5q0 59 -25.5 92.5t-69.5 33.5q-43 0 -70 -34t-27 -89zM513 640l-125 -48q73 -69 113.5 -155t40.5 -161q0 -130 -70 -207.5t-188 -77.5q-108 0 -176 69t-68 179q0 111 70.5 179t154.5 68q57 0 101 -35l2 2q-22 43 -89 96
l-126 -49l-65 49l125 49q-45 33 -79 49l108 43q45 -19 84 -47l120 47z" />
    <glyph glyph-name="ntilde" unicode="&#xf1;" horiz-adv-x="625" 
d="M36 364v109h226v-44q69 51 136 51q58 0 101 -37.5t43 -123.5v-210h69v-109h-222v300q0 53 -44 53q-40 0 -83 -31v-213h63v-109h-289v109h73v255h-73zM434 685h70q2 -68 -31.5 -112.5t-82.5 -44.5q-27 0 -83 28t-73 28q-37 0 -39 -53h-73q0 70 31 112q30 44 82 44
q31 0 84.5 -28.5t71.5 -28.5q17 0 29.5 15.5t13.5 39.5z" />
    <glyph glyph-name="ograve" unicode="&#xf2;" horiz-adv-x="573" 
d="M535 237q0 -111 -69 -179.5t-180 -68.5q-108 0 -178 66.5t-70 181.5q0 118 72.5 182.5t175.5 64.5q108 0 178.5 -66t70.5 -181zM380 237q0 62 -24.5 96t-69.5 34t-69 -34.5t-24 -98.5q0 -60 24.5 -94t68.5 -34q45 0 69.5 34.5t24.5 96.5zM386 534h-78l-180 155h180z" />
    <glyph glyph-name="oacute" unicode="&#xf3;" horiz-adv-x="573" 
d="M535 237q0 -111 -69 -179.5t-180 -68.5q-108 0 -178 66.5t-70 181.5q0 118 72.5 182.5t175.5 64.5q108 0 178.5 -66t70.5 -181zM380 237q0 62 -24.5 96t-69.5 34t-69 -34.5t-24 -98.5q0 -60 24.5 -94t68.5 -34q45 0 69.5 34.5t24.5 96.5zM187 534l78 155h180l-180 -155
h-78z" />
    <glyph glyph-name="ocircumflex" unicode="&#xf4;" horiz-adv-x="573" 
d="M535 237q0 -111 -69 -179.5t-180 -68.5q-108 0 -178 66.5t-70 181.5q0 118 72.5 182.5t175.5 64.5q108 0 178.5 -66t70.5 -181zM380 237q0 62 -24.5 96t-69.5 34t-69 -34.5t-24 -98.5q0 -60 24.5 -94t68.5 -34q45 0 69.5 34.5t24.5 96.5zM95 520l118 180h147l119 -180
h-85l-109 107l-102 -107h-88z" />
    <glyph glyph-name="otilde" unicode="&#xf5;" horiz-adv-x="573" 
d="M535 237q0 -111 -69 -179.5t-180 -68.5q-108 0 -178 66.5t-70 181.5q0 118 72.5 182.5t175.5 64.5q108 0 178.5 -66t70.5 -181zM380 237q0 62 -24.5 96t-69.5 34t-69 -34.5t-24 -98.5q0 -60 24.5 -94t68.5 -34q45 0 69.5 34.5t24.5 96.5zM408 685h70q2 -68 -31.5 -112.5
t-82.5 -44.5q-27 0 -83 28t-73 28q-37 0 -39 -53h-73q0 70 31 112q30 44 82 44q31 0 84.5 -28.5t71.5 -28.5q17 0 29.5 15.5t13.5 39.5z" />
    <glyph glyph-name="odieresis" unicode="&#xf6;" horiz-adv-x="573" 
d="M535 237q0 -111 -69 -179.5t-180 -68.5q-108 0 -178 66.5t-70 181.5q0 118 72.5 182.5t175.5 64.5q108 0 178.5 -66t70.5 -181zM380 237q0 62 -24.5 96t-69.5 34t-69 -34.5t-24 -98.5q0 -60 24.5 -94t68.5 -34q45 0 69.5 34.5t24.5 96.5zM397 680q29 0 50 -20.5t21 -49.5
t-21 -50t-50 -21t-49.5 21t-20.5 50t20.5 49.5t49.5 20.5zM175 680q29 0 50 -20.5t21 -49.5t-21 -50t-50 -21t-49.5 21t-20.5 50t20.5 49.5t49.5 20.5z" />
    <glyph glyph-name="divide" unicode="&#xf7;" horiz-adv-x="668" 
d="M333 203q31 0 53 -21.5t22 -52.5t-22 -53t-53 -22t-52.5 22t-21.5 53t21.5 52.5t52.5 21.5zM333 621q31 0 53 -21.5t22 -52.5t-22 -53t-53 -22t-52.5 22t-21.5 53t21.5 52.5t52.5 21.5zM58 401h551v-127h-551v127z" />
    <glyph glyph-name="oslash" unicode="&#xf8;" horiz-adv-x="573" 
d="M42 0l58 64q-62 67 -62 172q0 113 72.5 180.5t175.5 67.5q78 0 140 -38l60 70l46 -41l-58 -67q61 -66 61 -172q0 -111 -71 -179t-176 -68q-83 0 -140 38l-59 -70zM202 183l139 164q-23 20 -54 20q-43 0 -68.5 -34t-25.5 -91q0 -30 9 -59zM372 289l-139 -163
q23 -20 55 -20q43 0 67.5 34t24.5 93q0 27 -8 56z" />
    <glyph glyph-name="ugrave" unicode="&#xf9;" horiz-adv-x="625" 
d="M589 109v-109h-226v40q-68 -47 -135 -47t-106 39.5t-39 107.5v224h-69v109h222v-295q0 -35 10 -48t36 -13q35 0 81 34v213h-63v109h216v-364h73zM412 534h-78l-180 155h180z" />
    <glyph glyph-name="uacute" unicode="&#xfa;" horiz-adv-x="625" 
d="M589 109v-109h-226v40q-68 -47 -135 -47t-106 39.5t-39 107.5v224h-69v109h222v-295q0 -35 10 -48t36 -13q35 0 81 34v213h-63v109h216v-364h73zM213 534l78 155h180l-180 -155h-78z" />
    <glyph glyph-name="ucircumflex" unicode="&#xfb;" horiz-adv-x="625" 
d="M589 109v-109h-226v40q-68 -47 -135 -47t-106 39.5t-39 107.5v224h-69v109h222v-295q0 -35 10 -48t36 -13q35 0 81 34v213h-63v109h216v-364h73zM121 520l118 180h147l119 -180h-85l-109 107l-102 -107h-88z" />
    <glyph glyph-name="udieresis" unicode="&#xfc;" horiz-adv-x="625" 
d="M589 109v-109h-226v40q-68 -47 -135 -47t-106 39.5t-39 107.5v224h-69v109h222v-295q0 -35 10 -48t36 -13q35 0 81 34v213h-63v109h216v-364h73zM423 680q29 0 50 -20.5t21 -49.5t-21 -50t-50 -21t-49.5 21t-20.5 50t20.5 49.5t49.5 20.5zM201 680q29 0 50 -20.5
t21 -49.5t-21 -50t-50 -21t-49.5 21t-20.5 50t20.5 49.5t49.5 20.5z" />
    <glyph glyph-name="yacute" unicode="&#xfd;" horiz-adv-x="594" 
d="M123 -212v109h90l31 84l-171 383h-69v109h274v-109h-46l79 -212l84 212h-51v109h240v-109h-69l-227 -576h-165zM198 534l78 155h180l-180 -155h-78z" />
    <glyph glyph-name="thorn" unicode="&#xfe;" horiz-adv-x="625" 
d="M343 -103v-109h-326v109h80v673h-80v109h233v-266q40 39 68.5 53t66.5 14q88 0 145.5 -70.5t57.5 -178.5q0 -107 -57 -174.5t-148 -67.5q-39 0 -68.5 13.5t-64.5 45.5v-151h93zM433 234q0 57 -25 89.5t-68 32.5t-67 -32.5t-24 -91.5q0 -58 25 -92t68 -34t67 34t24 94z
" />
    <glyph glyph-name="ydieresis" unicode="&#xff;" horiz-adv-x="594" 
d="M123 -212v109h90l31 84l-171 383h-69v109h274v-109h-46l79 -212l84 212h-51v109h240v-109h-69l-227 -576h-165zM408 680q29 0 50 -20.5t21 -49.5t-21 -50t-50 -21t-49.5 21t-20.5 50t20.5 49.5t49.5 20.5zM186 680q29 0 50 -20.5t21 -49.5t-21 -50t-50 -21t-49.5 21
t-20.5 50t20.5 49.5t49.5 20.5z" />
    <glyph glyph-name="dotlessi" unicode="&#x131;" horiz-adv-x="354" 
d="M43 364v109h222v-364h69v-109h-291v109h69v255h-69z" />
    <glyph glyph-name="Lslash" unicode="&#x141;" horiz-adv-x="646" 
d="M302 337v-222h200v210h133v-325h-607v115h97v129l-97 -58v112l97 58v208h-97v115h373v-115h-99v-115l111 66v-112z" />
    <glyph glyph-name="lslash" unicode="&#x142;" horiz-adv-x="354" 
d="M262 341v-232h68v-109h-294v109h73v134l-105 -75v120l105 75v207h-73v109h226v-218l105 75v-120z" />
    <glyph glyph-name="OE" unicode="&#x152;" horiz-adv-x="1010" 
d="M974 217v-217h-571q-92 0 -162 27.5t-111 75t-61.5 106.5t-20.5 127q0 164 94 258q46 46 111.5 65.5t178.5 19.5h542v-216h-129v101h-196v-157h157v-115h-157v-177h196v102h129zM472 564h-60q-53 0 -90 -20t-55.5 -54.5t-26.5 -70.5t-8 -79q0 -102 49 -163t149 -61h42
v448z" />
    <glyph glyph-name="oe" unicode="&#x153;" horiz-adv-x="1010" 
d="M844 145l120 -36q-26 -56 -92.5 -88t-154.5 -32q-141 0 -215 68q-88 -68 -207 -68q-128 0 -200 72t-72 174q0 33 9 66.5t30 66.5t51.5 58.5t78.5 41.5t106 16q116 0 204 -70q70 70 193 70q129 0 205.5 -86.5t63.5 -191.5h-387q5 -53 42.5 -84t95.5 -31q81 0 129 54z
M582 290h233q-10 43 -42 68.5t-78 25.5q-44 0 -76 -26.5t-37 -67.5zM421 241q0 61 -34 101.5t-86 40.5q-53 0 -88 -41.5t-35 -102.5q0 -64 35 -107t88 -43t86.5 42.5t33.5 109.5z" />
    <glyph glyph-name="Scaron" unicode="&#x160;" horiz-adv-x="531" 
d="M44 0v231h115q-1 -54 29 -88.5t75 -34.5q31 0 53 21t22 52q0 29 -22.5 52t-55.5 38.5t-72.5 36.5t-72.5 43t-55.5 61t-22.5 89q0 91 55.5 138t127.5 47q82 0 124 -63h2v56h114v-206h-114q-7 47 -33 73.5t-65 26.5q-29 0 -48 -15.5t-19 -39.5q0 -25 23 -45.5t58 -34
t75.5 -34.5t75.5 -44.5t58 -67t23 -99.5q0 -57 -20 -99t-52 -63t-63 -30.5t-62 -9.5q-91 0 -136 66h-2v-57h-115zM73 906h88l102 -107l109 107h85l-119 -180h-147z" />
    <glyph glyph-name="scaron" unicode="&#x161;" horiz-adv-x="510" 
d="M58 0v163h110q1 -31 30 -53q27 -20 75 -20q35 0 56 12.5t21 33.5q0 23 -30 34.5t-70.5 15t-91.5 20.5t-83 49q-35 35 -35 86q0 61 49.5 100t125.5 39q64 0 119 -23v16h108v-137h-108q-13 49 -103 49q-30 0 -47.5 -10t-17.5 -26q0 -18 31.5 -27t77 -16t91 -20t77 -47
t31.5 -89q0 -71 -48.5 -115t-137.5 -44q-85 0 -120 33v-24h-110zM63 700h88l102 -107l109 107h85l-119 -180h-147z" />
    <glyph glyph-name="Ydieresis" unicode="&#x178;" horiz-adv-x="698" 
d="M172 0v115h96v183l-187 266h-85v115h334v-115h-62l103 -166l99 166h-59v115h291v-115h-85l-177 -266v-183h96v-115h-364zM460 886q29 0 50 -20.5t21 -49.5t-21 -50t-50 -21t-49.5 21t-20.5 50t20.5 49.5t49.5 20.5zM238 886q29 0 50 -20.5t21 -49.5t-21 -50t-50 -21
t-49.5 21t-20.5 50t20.5 49.5t49.5 20.5z" />
    <glyph glyph-name="Zcaron" unicode="&#x17d;" horiz-adv-x="646" 
d="M50 0v115l322 449h-189v-123h-115v238h525v-102l-332 -462h223v130h115v-245h-549zM131 906h88l102 -107l109 107h85l-119 -180h-147z" />
    <glyph glyph-name="zcaron" unicode="&#x17e;" horiz-adv-x="531" 
d="M35 0v96l278 279h-152v-71h-103v169h435v-98l-277 -279h178v80h99v-176h-458zM73 700h88l102 -107l109 107h85l-119 -180h-147z" />
    <glyph glyph-name="florin" unicode="&#x192;" horiz-adv-x="552" 
d="M135 415l18 103h98l16 88q11 61 46 91.5t109 30.5q71 0 136 -20l-27 -111q-47 14 -78 14q-27 0 -39 -12t-17 -42l-7 -39h100l-18 -103h-100l-86 -488q-13 -76 -50.5 -106.5t-108.5 -30.5q-77 0 -137 19l28 108q49 -10 83 -10q29 0 40 15t19 67l73 426h-98z" />
    <glyph glyph-name="circumflex" unicode="&#x2c6;" 
d="M-25 520l118 180h147l119 -180h-85l-109 107l-102 -107h-88z" />
    <glyph glyph-name="caron" unicode="&#x2c7;" 
d="M-26 700h88l102 -107l109 107h85l-119 -180h-147z" />
    <glyph glyph-name="uni02C9" unicode="&#x2c9;" 
d="M-60 542v102h454v-102h-454z" />
    <glyph glyph-name="breve" unicode="&#x2d8;" 
d="M250 699h106q-7 -76 -62 -128t-128 -52t-127.5 51.5t-62.5 128.5h106q20 -63 84 -63t84 63z" />
    <glyph glyph-name="dotaccent" unicode="&#x2d9;" 
d="M166 680q29 0 50 -20.5t21 -49.5t-21 -50t-50 -21t-49.5 21t-20.5 50t20.5 49.5t49.5 20.5z" />
    <glyph glyph-name="ring" unicode="&#x2da;" 
d="M166 722q43 0 73.5 -30t30.5 -73t-30.5 -73.5t-73.5 -30.5t-73 30.5t-30 73.5t30 73t73 30zM166 672q-22 0 -37.5 -15t-15.5 -38t15.5 -38.5t37.5 -15.5t38 15.5t16 38.5q0 22 -15.5 37.5t-38.5 15.5z" />
    <glyph glyph-name="ogonek" unicode="&#x2db;" 
d="M94 0h90q-18 -37 -18 -62q0 -23 14 -37t38 -14q22 0 53 10v-109q-37 -12 -70 -12q-59 0 -98 36.5t-39 91.5q0 52 30 96z" />
    <glyph glyph-name="tilde" unicode="&#x2dc;" 
d="M288 685h70q2 -68 -31.5 -112.5t-82.5 -44.5q-27 0 -83 28t-73 28q-37 0 -39 -53h-73q0 70 31 112q30 44 82 44q31 0 84.5 -28.5t71.5 -28.5q17 0 29.5 15.5t13.5 39.5z" />
    <glyph glyph-name="hungarumlaut" unicode="&#x2dd;" 
d="M185 534l78 155h180l-180 -155h-78zM-51 534l78 155h180l-180 -155h-78z" />
    <glyph glyph-name="uni03A9" unicode="&#x3a9;" horiz-adv-x="699" 
d="M169 104v3q-119 109 -119 268q0 129 84.5 219.5t217.5 90.5q69 0 126.5 -27.5t93.5 -71.5t55.5 -97.5t19.5 -107.5q0 -86 -35 -157t-86 -117v-3h135v-104h-264v77q52 33 85 101.5t33 175.5q0 94 -43.5 159t-120.5 65q-76 0 -122.5 -64.5t-46.5 -164.5q0 -99 34 -170.5
t84 -101.5v-77h-264v104h133z" />
    <glyph glyph-name="uni03BC" unicode="&#x3bc;" horiz-adv-x="615" 
d="M73 473h136v-201q0 -86 20.5 -130t76.5 -44q43 0 71.5 37t28.5 108v230h139v-473h-128v63h-2q-15 -36 -43.5 -55t-59.5 -19q-69 0 -101 75h-2v-276h-136v685z" />
    <glyph glyph-name="pi" unicode="&#x3c0;" horiz-adv-x="595" 
d="M572 398h-68v-253q0 -87 13 -145h-127q-17 32 -17 139v259h-131q-3 -88 -20.5 -208.5t-41.5 -189.5h-127q24 82 41.5 200t19.5 198q-65 0 -96 -10l-14 86q40 33 163 33h416z" />
    <glyph glyph-name="uni2010" unicode="&#x2010;" horiz-adv-x="344" 
d="M35 170v132h273v-132h-273z" />
    <glyph glyph-name="endash" unicode="&#x2013;" horiz-adv-x="500" 
d="M-6 311h512v-122h-512v122z" />
    <glyph glyph-name="emdash" unicode="&#x2014;" horiz-adv-x="1000" 
d="M-6 311h1012v-122h-1012v122z" />
    <glyph glyph-name="quoteleft" unicode="&#x2018;" horiz-adv-x="354" 
d="M259 336h-164v164q0 93 38 136t125 43v-74q-43 -5 -62 -29.5t-19 -75.5h82v-164z" />
    <glyph glyph-name="quoteright" unicode="&#x2019;" horiz-adv-x="354" 
d="M95 679h164v-164q0 -93 -38 -136t-125 -43v74q43 5 62 29.5t19 75.5h-82v164z" />
    <glyph glyph-name="quotesinglbase" unicode="&#x201a;" horiz-adv-x="354" 
d="M95 164h164v-164q0 -93 -38 -136t-125 -43v74q43 5 62 29.5t19 75.5h-82v164z" />
    <glyph glyph-name="quotedblleft" unicode="&#x201c;" horiz-adv-x="594" 
d="M504 336h-164v164q0 93 38 136t125 43v-74q-43 -5 -62 -29.5t-19 -75.5h82v-164zM255 336h-164v164q0 93 38 136t125 43v-74q-43 -5 -62 -29t-19 -76h82v-164z" />
    <glyph glyph-name="quotedblright" unicode="&#x201d;" horiz-adv-x="594" 
d="M339 679h164v-164q0 -93 -38 -136t-125 -43v74q43 5 62 29.5t19 75.5h-82v164zM90 679h164v-164q0 -93 -38 -136t-125 -43v74q43 5 62 29.5t19 75.5h-82v164z" />
    <glyph glyph-name="quotedblbase" unicode="&#x201e;" horiz-adv-x="594" 
d="M339 164h164v-164q0 -93 -38 -136t-125 -43v74q43 5 62 29.5t19 75.5h-82v164zM90 164h164v-164q0 -93 -38 -136t-125 -43v74q43 5 62 29.5t19 75.5h-82v164z" />
    <glyph glyph-name="dagger" unicode="&#x2020;" horiz-adv-x="490" 
d="M278 377q0 -70 34 -123v-106l-34 -353h-66l-35 353v107q35 48 35 122q-78 0 -116 -26h-92v122h94q30 -23 114 -29q4 32 -6 72.5t-29 61.5v99h135v-99q-16 -17 -27 -57t-9 -77q49 4 70.5 9.5t47.5 19.5h91v-122h-91q-38 26 -116 26z" />
    <glyph glyph-name="daggerdbl" unicode="&#x2021;" horiz-adv-x="490" 
d="M326 235q-53 -57 -48 -157q63 0 94 26h96v-121h-95q-43 25 -94 26v-34q4 -28 14 -49q8 -16 18 -32v-100h-132v100q11 17 18 34q9 23 13 44v38q-57 -2 -92 -27h-96v121h96q33 -26 93 -26q7 92 -48 158q59 59 48 156q-46 0 -95 -26h-94v121h95q32 -22 93 -27v21q0 21 -9 48
q-7 25 -22 48v100h132v-100q-12 -16 -23 -49q-9 -27 -9 -49v-19q23 0 40.5 4t26 8t26.5 15h96v-121h-96q-42 26 -93 26q-9 -94 47 -157z" />
    <glyph glyph-name="bullet" unicode="&#x2022;" horiz-adv-x="354" 
d="M177 480q58 0 99 -40.5t41 -98.5t-41 -99t-99 -41t-98.5 41t-40.5 99t40.5 98.5t98.5 40.5z" />
    <glyph glyph-name="ellipsis" unicode="&#x2026;" horiz-adv-x="1000" 
d="M418 164h164v-164h-164v164zM751 164h164v-164h-164v164zM85 164h164v-164h-164v164z" />
    <glyph glyph-name="perthousand" unicode="&#x2030;" horiz-adv-x="1167" 
d="M1138 161q0 -85 -41.5 -131t-117.5 -46t-117.5 46t-41.5 131q0 86 41.5 132t117.5 46t117.5 -46t41.5 -132zM1021 158q0 60 -10 84.5t-34 24.5q-40 0 -40 -100q0 -61 9.5 -86t33.5 -25q41 0 41 102zM756 161q0 -85 -41.5 -131t-117.5 -46t-117.5 46t-41.5 131
q0 86 41.5 132t117.5 46t117.5 -46t41.5 -132zM639 158q0 60 -10 84.5t-34 24.5q-40 0 -40 -100q0 -61 9.5 -86t33.5 -25q41 0 41 102zM348 513q0 -85 -41.5 -131t-117.5 -46t-117.5 46t-41.5 131q0 86 41.5 132t117.5 46t117.5 -46t41.5 -132zM231 510q0 60 -10 84.5
t-34 24.5q-40 0 -40 -100q0 -61 9.5 -86t33.5 -25q41 0 41 102zM108 0l492 679h87l-492 -679h-87z" />
    <glyph glyph-name="guilsinglleft" unicode="&#x2039;" horiz-adv-x="271" 
d="M152 236l110 -236h-144l-113 236l113 237h144z" />
    <glyph glyph-name="guilsinglright" unicode="&#x203a;" horiz-adv-x="271" 
d="M119 236l-110 237h144l113 -237l-113 -236h-144z" />
    <glyph glyph-name="fraction" unicode="&#x2044;" 
d="M-123 0l492 679h87l-492 -679h-87z" />
    <glyph glyph-name="Euro" unicode="&#x20ac;" horiz-adv-x="552" 
d="M512 184q-10 -49 -27.5 -85t-38.5 -56.5t-49.5 -32.5t-53.5 -15.5t-57 -3.5q-190 0 -226 241h-58v78h51v30v32h-51v78h59q19 112 75.5 176.5t141.5 64.5q41 0 69.5 -12.5t58.5 -42.5v43h88v-197h-86q-19 51 -35 70q-26 29 -71 29q-44 0 -64 -33t-27 -98h139v-78h-142v-34
v-28h142v-78h-138q13 -131 84 -131q49 0 72.5 27.5t31.5 81.5z" />
    <glyph glyph-name="afii61289" unicode="&#x2113;" horiz-adv-x="511" 
d="M439 186l53 -54q-72 -138 -208 -138q-82 0 -125.5 43t-52.5 113q-1 4 -1 10q-8 -6 -25 -19t-25 -19l-33 68q10 8 27 21.5t30 24.5t24 21v239q0 124 50 186.5t129 62.5q69 0 104.5 -48.5t35.5 -125.5q0 -151 -193 -333v-40q1 -48 24.5 -74t60.5 -26q71 0 125 88zM229 500
v-145q111 126 111 221q0 77 -52 77q-25 0 -42 -35.5t-17 -117.5z" />
    <glyph glyph-name="trademark" unicode="&#x2122;" horiz-adv-x="1000" 
d="M196 280v330h-124v69h325v-69h-120v-330h-81zM444 280v399h127l72 -275h2l72 275h127v-399h-77v318h-2l-85 -318h-74l-83 318h-2v-318h-77z" />
    <glyph glyph-name="Omega" unicode="&#x2126;" horiz-adv-x="699" 
d="M169 104v3q-119 109 -119 268q0 129 84.5 219.5t217.5 90.5q69 0 126.5 -27.5t93.5 -71.5t55.5 -97.5t19.5 -107.5q0 -86 -35 -157t-86 -117v-3h135v-104h-264v77q52 33 85 101.5t33 175.5q0 94 -43.5 159t-120.5 65q-76 0 -122.5 -64.5t-46.5 -164.5q0 -99 34 -170.5
t84 -101.5v-77h-264v104h133z" />
    <glyph glyph-name="estimated" unicode="&#x212e;" horiz-adv-x="844" 
d="M810 331h-629q-5 0 -5 -4v-190q0 -12 8 -22q101 -104 238 -104q148 0 251 116h55q-53 -62 -134 -98.5t-173 -36.5q-161 0 -274.5 102t-113.5 247t113.5 247t274.5 102t275 -102t114 -247v-10zM667 356v192q0 13 -9 22q-102 100 -236 100q-136 0 -237 -103q-9 -9 -9 -24
v-187q0 -6 5 -6h482q4 0 4 6z" />
    <glyph glyph-name="partialdiff" unicode="&#x2202;" horiz-adv-x="568" 
d="M101 613l-36 95q74 57 182 57q116 0 195 -97t79 -272q0 -182 -74.5 -291.5t-204.5 -109.5q-97 0 -151.5 71.5t-54.5 158.5q0 114 61 183.5t152 69.5q53 0 90.5 -25t53.5 -52h1q1 8 1 31q0 92 -46 159.5t-119 67.5q-69 0 -129 -46zM255 102h1q50 0 84 59.5t42 134.5
q-8 27 -37.5 53t-69.5 26q-48 0 -79.5 -46t-31.5 -108q0 -51 25.5 -85t65.5 -34z" />
    <glyph glyph-name="uni2206" unicode="&#x2206;" horiz-adv-x="648" 
d="M25 0v74l224 615h155l217 -613v-76h-596zM160 104h321l-104 276q-6 21 -27 85t-27 87h-3q-4 -17 -23.5 -74t-26.5 -83z" />
    <glyph glyph-name="product" unicode="&#x220f;" horiz-adv-x="711" 
d="M687 558h-100v-651h-128v651h-208v-651h-128v651h-100v116h664v-116z" />
    <glyph glyph-name="summation" unicode="&#x2211;" horiz-adv-x="550" 
d="M532 -93h-510v82l235 302l-226 294v89h485v-109h-311v-3l198 -251l-220 -282v-4h349v-118z" />
    <glyph glyph-name="minus" unicode="&#x2212;" horiz-adv-x="668" 
d="M58 401h551v-127h-551v127z" />
    <glyph glyph-name="uni2215" unicode="&#x2215;" 
d="M-123 0l492 679h87l-492 -679h-87z" />
    <glyph glyph-name="uni2219" unicode="&#x2219;" horiz-adv-x="365" 
d="M100 479h164v-164h-164v164z" />
    <glyph glyph-name="radical" unicode="&#x221a;" horiz-adv-x="585" 
d="M595 809l-222 -944h-103l-146 420l-72 -28l-21 71l170 69l100 -304q3 -15 10 -44t10 -41l2 -1q3 22 15 92l167 710h90z" />
    <glyph glyph-name="infinity" unicode="&#x221e;" horiz-adv-x="759" 
d="M712 279v-1q0 -77 -47 -123.5t-110 -46.5q-92 0 -175 110q-43 -54 -84 -82t-95 -28q-63 0 -109 46.5t-46 118.5q0 74 46.5 121t116.5 47q93 0 175 -107q3 3 8 9q27 31 44 47.5t51.5 33.5t72.5 17q66 0 109 -45t43 -117zM209 178h2q25 0 51 16t40.5 31t39.5 45
q-23 30 -31 40.5t-27 29.5t-37 26t-41 7q-40 0 -64 -28t-24 -73q0 -39 26 -66.5t65 -27.5zM553 373h-1q-14 0 -28.5 -5t-25 -11.5t-24 -19t-20 -19.5t-19.5 -22t-16 -19q45 -57 74 -78t64 -21q38 0 60.5 29.5t22.5 65.5q0 44 -24 72t-63 28z" />
    <glyph glyph-name="integral" unicode="&#x222b;" horiz-adv-x="389" 
d="M368 824l-13 -88q-18 8 -35 8q-32 0 -49 -25q-26 -34 -26 -161q0 -76 7.5 -223.5t7.5 -237.5q0 -128 -35 -193q-39 -72 -129 -72q-47 0 -77 16l16 91q23 -10 43 -10q28 0 42 19q27 37 27 148q0 90 -7.5 242t-7.5 233q0 85 13.5 135.5t45.5 83.5q42 45 117 45q36 0 60 -11
z" />
    <glyph glyph-name="approxequal" unicode="&#x2248;" horiz-adv-x="539" 
d="M455 440l46 -43q-54 -100 -134 -100q-46 0 -110 38q-51 33 -84 33q-20 0 -38 -11.5t-27.5 -23.5t-25.5 -35l-46 43q23 44 61 71.5t82 27.5q45 0 103 -35q3 -2 14 -8.5t14 -8t11 -6t12 -5.5t10.5 -3.5t12 -3t11.5 -0.5q27 0 46.5 17.5t41.5 52.5zM455 256l46 -42
q-54 -100 -135 -100q-44 0 -109 38q-50 33 -83 33q-21 0 -39 -11.5t-27.5 -23.5t-25.5 -35l-46 42q23 44 61 72t82 28q9 0 17.5 -1t15 -2t14.5 -4t12.5 -4.5t12.5 -5.5l11 -5.5t10.5 -6t9.5 -5.5q6 -3 17.5 -10t17.5 -10.5t15 -8t17.5 -6t17.5 -1.5q26 0 45.5 16.5
t42.5 52.5z" />
    <glyph glyph-name="notequal" unicode="&#x2260;" horiz-adv-x="539" 
d="M397 498l-37 -85h132v-74h-160l-57 -131h217v-74h-246l-48 -110l-59 24l39 86h-131v74h159l57 131h-216v74h244l48 109z" />
    <glyph glyph-name="lessequal" unicode="&#x2264;" horiz-adv-x="539" 
d="M489 97l-437 216v80l437 217v-86l-364 -169v-2l364 -170v-86zM493 -14h-445v75h445v-75z" />
    <glyph glyph-name="greaterequal" unicode="&#x2265;" horiz-adv-x="539" 
d="M53 610l438 -217v-80l-437 -216v86l363 170v2l-364 169v86zM491 -14h-442v75h442v-75z" />
    <glyph glyph-name="lozenge" unicode="&#x25ca;" horiz-adv-x="584" 
d="M536 337l-195 -385h-103l-190 385l195 385h103zM422 334l-110 227q-10 27 -18 57h-3q-12 -39 -19 -57l-110 -222l111 -231q13 -33 16 -54h5q5 22 16 53z" />
    <glyph glyph-name="fi" unicode="&#xfb01;" horiz-adv-x="625" 
d="M257 364v-255h46v-109h-272v109h73v255h-73v109h73v40q0 78 61 128t163 50q38 0 67 -4.5t59 -16.5t51.5 -37t32.5 -63l-149 -16q-14 38 -66 38q-31 0 -48.5 -15t-17.5 -53v-51h279v-364h73v-109h-271v109h45v255h-126z" />
    <glyph glyph-name="fl" unicode="&#xfb02;" horiz-adv-x="625" 
d="M418 679h118v-570h73v-109h-271v109h45v441q-3 21 -21 31.5t-38 10.5q-32 0 -49.5 -15t-17.5 -53v-51h68v-109h-68v-255h46v-109h-272v109h73v255h-73v109h73v40q0 73 57.5 125.5t171.5 52.5q52 0 85 -12z" />
    <glyph glyph-name="one.superior" 
d="M64 332v62h57v229h-57v62h157v-291h52v-62h-209z" />
    <glyph glyph-name="two.superior" 
d="M295 441v-109h-269v18q0 42 17 75.5t40.5 54t47.5 38t41 37t17 41.5q0 15 -9 24.5t-23 9.5q-21 0 -30.5 -17t-11.5 -56l-89 7q-1 62 35 94.5t101 32.5q59 0 95 -27.5t36 -71.5q0 -35 -25 -61.5t-55.5 -41t-60 -39.5t-37.5 -56h104v47h76z" />
    <glyph glyph-name="three.superior" 
d="M22 444l89 6q2 -61 48 -61q20 0 33 13.5t13 35.5q0 48 -52 48h-23v64q66 0 66 43q0 16 -10 26t-27 10q-39 0 -37 -44h-87q1 44 27 70q39 36 104 36q58 0 93 -25.5t35 -68.5q0 -52 -55 -79q70 -22 70 -83q0 -48 -39.5 -77.5t-104.5 -29.5q-131 0 -143 116z" />
    <glyph glyph-name="a.superior" horiz-adv-x="396" 
d="M385 464v-65h-147v22q-42 -26 -84 -26q-48 0 -80 25t-32 63q0 42 35 69t90 27q34 0 71 -15v18q0 21 -16.5 35t-42.5 14q-33 0 -56 -22l-79 13q36 69 150 69q142 0 142 -107v-120h49zM238 503q-34 21 -57 21q-19 0 -31.5 -10t-12.5 -25q0 -16 11.5 -27t28.5 -11
q25 0 61 29v23z" />
    <glyph glyph-name="o.superior" horiz-adv-x="375" 
d="M188 393q-73 0 -117.5 41t-44.5 108t44.5 108t117.5 41t117 -41t44 -108t-44 -108t-117 -41zM187 463q29 0 45 20.5t16 58.5q0 37 -16 57.5t-44 20.5q-29 0 -45 -21t-16 -58t16 -57.5t44 -20.5z" />
    </font>
</defs>
</svg>
