<?xml version="1.0" standalone="no"?>
<!DOCTYPE svg PUBLIC "-//W3C//DTD SVG 1.1//EN" "http://www.w3.org/Graphics/SVG/1.1/DTD/svg11.dtd" >
<svg>
<metadata>
Created by FontForge 20110222 at Mon Oct 21 21:05:01 2013
 By Orthosie Webhosting
(c) 1990, 2002 Adobe Systems Incorporated. All rights reserved.
</metadata>
<defs>
<font id="RockwellStdBoldCondensed" horiz-adv-x="333" >
  <font-face 
    font-family="RockwellStdBoldCondensed"
    font-weight="700"
    font-stretch="condensed"
    units-per-em="1000"
    panose-1="2 6 8 6 5 4 5 2 1 4"
    ascent="679"
    descent="-321"
    x-height="490"
    cap-height="702"
    bbox="-124 -224.283 1006 941"
    underline-thickness="50"
    underline-position="-50"
    unicode-range="U+0020-FB02"
  />
<missing-glyph horiz-adv-x="500" 
d="M0 0v700h500v-700h-500zM250 395l170 255h-340zM280 350l170 -255v510zM80 50h340l-170 255zM50 605v-510l170 255z" />
    <glyph glyph-name="f_i" unicode="fi" horiz-adv-x="531" 
d="M20 0v105h49v280h-49v105h49v32q0 90 56 140.5t142 50.5q132 0 185 -129l-146 -47q-2 39 -12 55t-33 16q-25 0 -35.5 -19t-10.5 -63v-36h237v-385h52v-105h-218v105h20v280h-91v-280h21v-105h-216z" />
    <glyph glyph-name="f_l" unicode="fl" horiz-adv-x="521" 
d="M19 0v105h49v280h-49v105h49v31q0 89 58 140.5t139 51.5q34 0 70 -11h116v-597h51v-105h-218v105h21v280h-91v-280h21v-105h-216zM214 490h91v36q0 44 -10.5 63t-33.5 19q-24 0 -35.5 -19t-11.5 -63v-36z" />
    <glyph glyph-name=".notdef" horiz-adv-x="500" 
d="M0 0v700h500v-700h-500zM250 395l170 255h-340zM280 350l170 -255v510zM80 50h340l-170 255zM50 605v-510l170 255z" />
    <glyph glyph-name=".null" horiz-adv-x="0" 
 />
    <glyph glyph-name="nonmarkingreturn" 
 />
    <glyph glyph-name="space" unicode=" " 
 />
    <glyph glyph-name="exclam" unicode="!" horiz-adv-x="292" 
d="M68 0v156h156v-156h-156zM116 235l-44 266v201h149v-201l-44 -266h-61z" />
    <glyph glyph-name="quotedbl" unicode="&#x22;" horiz-adv-x="474" 
d="M48 702h141v-126l-46 -159h-49l-46 159v126zM285 702h141v-126l-46 -159h-49l-46 159v126z" />
    <glyph glyph-name="numbersign" unicode="#" horiz-adv-x="668" 
d="M121 182h-82v93h101l31 147h-132v93h152l39 187h93l-39 -187h172l39 187h93l-39 -187h81v-93h-101l-31 -147h132v-93h-151l-39 -185h-93l39 185h-172l-39 -185h-93zM264 422l-31 -147h172l31 147h-172z" />
    <glyph glyph-name="dollar" unicode="$" horiz-adv-x="469" 
d="M216 -94v84q-91 6 -137 62.5t-49 150.5h125q4 -108 61 -111v204q-90 68 -127.5 120.5t-37.5 113.5q0 70 44.5 115t120.5 53v19h53v-19q152 -14 161 -185h-112q-3 68 -49 85v-171q89 -70 130 -128.5t41 -128.5q0 -74 -47.5 -124t-123.5 -56v-84h-53zM269 248v-156
q22 4 35.5 21t13.5 41q0 50 -49 94zM216 471v127q-43 -12 -43 -51q0 -40 43 -76z" />
    <glyph glyph-name="percent" unicode="%" horiz-adv-x="604" 
d="M499 128v115q0 41 -4 52.5t-16 11.5t-16.5 -12t-4.5 -53v-113q0 -41 4 -52.5t16 -11.5q13 0 17 11t4 52zM126 -8l277 718h75l-277 -718h-75zM147 458v115q0 41 -4 52.5t-16 11.5t-16.5 -12t-4.5 -53v-113q0 -41 4 -52.5t16 -11.5q13 0 17 11t4 52zM366 186q0 96 25 145
t88 49q58 0 85 -46.5t27 -147.5q0 -98 -26 -146t-86 -48q-58 0 -85.5 44t-27.5 150zM14 516q0 96 25 145t88 49q58 0 85 -46.5t27 -147.5q0 -98 -26 -146t-86 -48q-58 0 -85.5 44t-27.5 150z" />
    <glyph glyph-name="ampersand" unicode="&#x26;" horiz-adv-x="594" 
d="M402 0l-29 50q-74 -61 -149 -61q-88 0 -143 61q-55 60 -55 155q0 121 122 220q-38 72 -38 133q0 64 49 109.5t119 45.5q67 0 111.5 -40t44.5 -101q0 -89 -109 -165l77 -127q28 71 40 154h119v-105h-31q-4 -27 -24.5 -79t-37.5 -81l38 -64h55v-105h-159zM314 150l-106 179
q-39 -34 -39 -74q0 -48 26 -94.5t63 -46.5q34 0 56 36zM266 506q53 34 53 76q0 17 -11 29.5t-27 12.5q-18 0 -30.5 -12.5t-12.5 -30.5q0 -37 28 -75z" />
    <glyph glyph-name="quotesingle" unicode="'" horiz-adv-x="238" 
d="M49 702h141v-126l-46 -159h-49l-46 159v126z" />
    <glyph glyph-name="parenleft" unicode="(" horiz-adv-x="281" 
d="M255 711v-94q-37 -38 -51.5 -127t-14.5 -245q0 -160 15 -248t51 -124v-95q-112 56 -165 184t-53 283q0 168 58.5 293t159.5 173z" />
    <glyph glyph-name="parenright" unicode=")" horiz-adv-x="281" 
d="M26 -222v94q37 38 51.5 127t14.5 245q0 160 -15 248t-51 124v95q112 -56 165 -184t53 -283q0 -168 -58.5 -293t-159.5 -173z" />
    <glyph glyph-name="asterisk" unicode="*" horiz-adv-x="521" 
d="M184 275l-98 70l48 65q27 7 44.5 19.5t46.5 43.5q-29 10 -55 10q-31 0 -57 -10l-76 25l37 111l77 -26q27 -39 89 -68q-4 63 -38 105v82h116v-82q-33 -43 -37 -105q61 28 89 68l77 26l37 -111l-76 -25q-26 10 -57 10q-26 0 -55 -10q29 -31 46.5 -43.5t44.5 -19.5l48 -65
l-98 -70l-46 65q0 60 -31 105q-36 -53 -30 -105z" />
    <glyph glyph-name="plus" unicode="+" horiz-adv-x="667" 
d="M62 383h219v219h105v-219h219v-105h-219v-219h-105v219h-219v105z" />
    <glyph glyph-name="comma" unicode="," horiz-adv-x="292" 
d="M68 -187v78q39 5 57 30.5t18 78.5h-75v156h156v-151q0 -184 -156 -192z" />
    <glyph glyph-name="hyphen" unicode="-" 
d="M38 188v118h258v-118h-258z" />
    <glyph glyph-name="period" unicode="." horiz-adv-x="292" 
d="M68 0v156h156v-156h-156z" />
    <glyph glyph-name="slash" unicode="/" horiz-adv-x="583" 
d="M415 702h114l-362 -716h-113z" />
    <glyph glyph-name="zero" unicode="0" horiz-adv-x="427" 
d="M34 347q0 68 3.5 117.5t14.5 98.5t30.5 79t52.5 49t79 19q95 0 137.5 -86.5t42.5 -276.5q0 -178 -39 -269.5t-142 -91.5q-41 0 -72 15t-50 45t-31 62t-17.5 78t-7 80t-1.5 81zM168 481v-275q0 -60 10.5 -87.5t35.5 -27.5q27 0 36.5 35t9.5 119v184q0 106 -8.5 141
t-37.5 35q-26 0 -36 -27.5t-10 -96.5z" />
    <glyph glyph-name="one" unicode="1" horiz-adv-x="427" 
d="M84 0v105h56v434q-24 -10 -56 -15v102q45 10 78 29t67 55h57v-605h55v-105h-257z" />
    <glyph glyph-name="two" unicode="2" horiz-adv-x="427" 
d="M387 0h-362q-1 91 20.5 159.5t52.5 109.5t62 77t53 81t22 101q0 80 -44 80q-48 0 -48 -85q0 -25 3 -48l-122 7q-1 6 -1 34q0 89 48 141.5t129 52.5q82 0 133 -51.5t51 -138.5q0 -60 -25 -110t-60.5 -85t-71 -67.5t-60.5 -73.5t-26 -87h141v107h105v-204z" />
    <glyph glyph-name="three" unicode="3" horiz-adv-x="427" 
d="M26 202l123 11q-3 -73 8 -101t37 -28q28 0 38 27.5t10 96.5q0 66 -15.5 90.5t-54.5 22.5v105q40 -3 54 16.5t14 75.5q0 50 -10.5 72t-34.5 22q-25 0 -35 -24t-11 -84l-115 13q4 94 48 143.5t124 49.5q24 0 46.5 -4.5t47 -17t42 -32.5t29 -54.5t11.5 -78.5
q0 -55 -19 -89.5t-63 -57.5q91 -52 91 -182q0 -95 -49 -151.5t-132 -56.5q-187 0 -184 216z" />
    <glyph glyph-name="four" unicode="4" horiz-adv-x="427" 
d="M169 0v105h50v95h-176q-4 37 -21 78l204 432h124v-425h41v-85h-41v-95h41v-105h-222zM219 285q0 172 10 245h-13q-37 -126 -97 -245h100z" />
    <glyph glyph-name="five" unicode="5" horiz-adv-x="427" 
d="M24 174l119 14q3 -103 47 -103q25 0 35.5 29.5t10.5 117.5q0 75 -9 99.5t-36 24.5q-40 0 -44 -61l-97 54l17 353h284v-140h-91l-2 43h-98l-8 -178q42 39 93 39q68 0 104 -57.5t36 -167.5q0 -255 -189 -255q-80 0 -122 46.5t-50 141.5z" />
    <glyph glyph-name="six" unicode="6" horiz-adv-x="427" 
d="M384 540l-132 -10q-2 45 -10.5 63.5t-27.5 18.5q-21 0 -29.5 -22.5t-8.5 -75.5v-99q32 24 71 24q71 0 110 -56t39 -158q0 -115 -46.5 -177t-133.5 -62q-37 0 -65.5 11t-47.5 27t-32.5 46.5t-20.5 58t-10.5 73t-4.5 80t-1 89.5q0 173 37.5 256t142.5 83q73 0 119 -46
t51 -124zM176 317v-151q0 -48 8 -65.5t30 -17.5t30.5 24.5t8.5 98.5q0 81 -9 106.5t-32 25.5q-21 0 -36 -21z" />
    <glyph glyph-name="seven" unicode="7" horiz-adv-x="427" 
d="M77 0v105h51q4 134 36 255q30 114 98 244h-144v-94h-94v192h360v-81q-47 -87 -81 -241q-25 -111 -27 -275h54v-105h-253z" />
    <glyph glyph-name="eight" unicode="8" horiz-adv-x="427" 
d="M401 192q0 -27 -4 -52.5t-16.5 -54.5t-32 -50t-54.5 -35t-80 -14q-97 0 -142.5 58t-45.5 146q0 72 25.5 115t82.5 70q-98 45 -98 154q0 81 49 131t129 50q79 0 128 -50t49 -131q0 -110 -99 -154q57 -27 83 -70t26 -113zM212 618q-28 0 -39 -25t-11 -85q0 -50 11.5 -71.5
t38.5 -21.5q28 0 40.5 22t12.5 74q0 58 -11.5 82.5t-41.5 24.5zM213 334q-28 0 -39 -28.5t-11 -96.5q0 -77 10.5 -104t40.5 -27q28 0 39 28.5t11 102.5q0 67 -12 96t-39 29z" />
    <glyph glyph-name="nine" unicode="9" horiz-adv-x="427" 
d="M42 156l132 10q2 -45 10.5 -63.5t27.5 -18.5q23 0 31 26t8 105v66q-33 -24 -72 -24q-71 0 -109.5 56t-38.5 158q0 122 49 180.5t131 58.5q101 0 141.5 -78.5t40.5 -249.5v-89q0 -154 -41.5 -230.5t-139.5 -76.5q-73 0 -119 46t-51 124zM251 379v146q0 48 -8.5 68
t-29.5 20q-24 0 -32 -25.5t-8 -97.5q0 -81 9 -106.5t33 -25.5q19 0 36 21z" />
    <glyph glyph-name="colon" unicode=":" horiz-adv-x="292" 
d="M68 334v156h156v-156h-156zM68 0v156h156v-156h-156z" />
    <glyph glyph-name="semicolon" unicode=";" horiz-adv-x="292" 
d="M68 -187v78q39 5 57 30.5t18 78.5h-75v156h156v-151q0 -184 -156 -192zM68 334v156h156v-156h-156z" />
    <glyph glyph-name="less" unicode="&#x3c;" horiz-adv-x="667" 
d="M605 56l-543 227v94l543 227v-114l-400 -160l400 -160v-114z" />
    <glyph glyph-name="equal" unicode="=" horiz-adv-x="667" 
d="M62 500h543v-105h-543v105zM62 267h543v-105h-543v105z" />
    <glyph glyph-name="greater" unicode="&#x3e;" horiz-adv-x="667" 
d="M62 56v114l400 160l-400 160v114l543 -227v-94z" />
    <glyph glyph-name="question" unicode="?" horiz-adv-x="406" 
d="M161 236l-13 164q19 -5 32 -5q32 0 46.5 24t14.5 79q0 65 -10.5 91t-35.5 26q-40 0 -40 -71v-48h-135q-1 103 47.5 160t130.5 57q85 0 137 -58t52 -153q0 -78 -36.5 -134.5t-102.5 -55.5l-5 -76h-82zM126 0v156h156v-156h-156z" />
    <glyph glyph-name="at" unicode="@" horiz-adv-x="975" 
d="M682 505l-62 -387q-6 -35 16 -35q47 0 98.5 65t51.5 175q0 125 -75.5 202t-196.5 77q-144 0 -234.5 -99.5t-90.5 -258.5q0 -153 87.5 -247.5t230.5 -94.5q131 0 246 91h103q-58 -77 -153 -120t-196 -43q-74 0 -142.5 25.5t-124.5 74.5t-89.5 129t-33.5 180q0 84 24 160
t70.5 138.5t124.5 99.5t177 37q85 0 152.5 -29.5t108.5 -80t62.5 -112.5t21.5 -130q0 -81 -27 -146t-68 -101.5t-82 -55.5t-75 -19q-32 0 -50 13t-26 44q-37 -34 -60 -45.5t-56 -11.5q-73 0 -116.5 56.5t-43.5 151.5q0 74 25 145t74.5 119t110.5 48q36 0 62.5 -16.5
t50.5 -54.5l8 56h97zM356 180q0 -49 20 -79t54 -30q31 0 55 30.5t37 75.5t19.5 88.5t6.5 79.5q0 46 -19.5 72.5t-50.5 26.5q-32 0 -57.5 -28.5t-38.5 -72t-19.5 -85.5t-6.5 -78z" />
    <glyph glyph-name="A" unicode="A" horiz-adv-x="552" 
d="M5 0v105h47l75 492h-45v105h388v-105h-47l80 -492h44v-105h-240v105h44l-17 131h-115l-16 -131h43v-105h-241zM231 323h91l-37 292h-19z" />
    <glyph glyph-name="B" unicode="B" horiz-adv-x="542" 
d="M23 0v105h50v492h-50v105h243q44 0 81.5 -9t71.5 -28.5t53.5 -57t19.5 -89.5q0 -112 -97 -146q110 -47 110 -166q0 -98 -66 -152t-184 -54h-232zM240 311v-206q52 0 72 17.5t20 84.5t-21.5 86t-70.5 18zM240 602v-195q47 0 66 18t19 76q0 63 -19.5 82.5t-65.5 18.5z" />
    <glyph glyph-name="C" unicode="C" horiz-adv-x="490" 
d="M337 248l128 -38q-11 -101 -64.5 -161t-134.5 -60q-98 0 -164 93t-66 279q0 169 57 260.5t137 91.5q56 0 100 -59h2v48h112v-237h-112q-9 130 -63 130q-32 0 -41 -44.5t-9 -188.5q0 -158 10.5 -206.5t47.5 -48.5q28 0 41.5 32.5t18.5 108.5z" />
    <glyph glyph-name="D" unicode="D" horiz-adv-x="552" 
d="M23 0v105h50v492h-50v105h243q111 0 179 -94t68 -258q0 -157 -63 -253.5t-184 -96.5h-243zM240 597v-492q36 0 55 17t30 72t11 160q0 81 -6.5 131.5t-21 74t-29.5 30.5t-39 7z" />
    <glyph glyph-name="E" unicode="E" horiz-adv-x="531" 
d="M23 0v105h61v492h-61v105h474v-223h-125v118h-121v-186h93v-105h-93v-201h121v124h125v-229h-474z" />
    <glyph glyph-name="F" unicode="F" horiz-adv-x="531" 
d="M25 0v105h61v492h-61v105h480v-223h-125v118h-127v-186h94v-105h-94v-201h67v-105h-295z" />
    <glyph glyph-name="G" unicode="G" horiz-adv-x="531" 
d="M341 223h-47v105h213q5 -172 -56 -255.5t-172 -83.5q-109 0 -176 90t-67 268q0 174 53 270t148 96q63 0 109 -63h2v52h112v-239h-112q-1 70 -21 101t-49 31q-38 0 -48.5 -43t-10.5 -185q0 -112 5.5 -166.5t18 -74t37.5 -19.5q60 0 61 116z" />
    <glyph glyph-name="H" unicode="H" horiz-adv-x="594" 
d="M23 0v105h53v492h-53v105h248v-105h-28v-176h106v176h-28v105h249v-105h-54v-492h54v-105h-249v105h28v211h-106v-211h28v-105h-248z" />
    <glyph glyph-name="I" unicode="I" horiz-adv-x="354" 
d="M24 0v105h68v492h-68v105h307v-105h-72v-492h72v-105h-307z" />
    <glyph glyph-name="J" unicode="J" 
d="M4 -214v121q8 -2 18 -2q61 0 61 83v609h-62v105h291v-105h-62v-615q0 -93 -46 -149.5t-132 -56.5q-36 0 -68 10z" />
    <glyph glyph-name="K" unicode="K" horiz-adv-x="563" 
d="M23 0v105h51v492h-51v105h261v-105h-43v-492h34v-105h-252zM324 0v105h35l-101 263l119 229h-44v105h205v-105h-42l-94 -179l122 -313h43v-105h-243z" />
    <glyph glyph-name="L" unicode="L" horiz-adv-x="521" 
d="M25 0v105h62v492h-62v105h306v-105h-77v-492h118v208h125v-313h-472z" />
    <glyph glyph-name="M" unicode="M" horiz-adv-x="729" 
d="M32 0v105h48v492h-48v105h273l43 -276h12l43 276h293v-105h-46v-492h46v-105h-250v105h37v503h-11l-112 -608h-55l-114 608h-13v-503h37v-105h-183z" />
    <glyph glyph-name="N" unicode="N" horiz-adv-x="552" 
d="M32 0v105h44v492h-44v105h202q78 -183 141 -420h9q-1 26 -4 83.5t-3 94.5v137h-41v105h184v-105h-38v-603h-130q-13 35 -42 110t-45 118.5t-40 115t-44 142.5h-9q9 -115 9 -238v-137h38v-105h-187z" />
    <glyph glyph-name="O" unicode="O" horiz-adv-x="552" 
d="M36 351q0 165 65.5 263.5t174.5 98.5t174.5 -98.5t65.5 -263.5t-65.5 -263.5t-174.5 -98.5t-174.5 98.5t-65.5 263.5zM333 351q0 153 -11 198.5t-46 45.5t-46 -45.5t-11 -198.5t11 -198.5t46 -45.5t46 45.5t11 198.5z" />
    <glyph glyph-name="P" unicode="P" horiz-adv-x="542" 
d="M23 0v105h49v492h-49v105h226q124 0 193 -59.5t69 -165.5q0 -219 -272 -219v-153h59v-105h-275zM239 597v-232q20 0 34 3.5t29.5 14t23.5 36t8 63.5q0 67 -26.5 91t-68.5 24z" />
    <glyph glyph-name="Q" unicode="Q" horiz-adv-x="542" 
d="M169 -112l-41 70q44 31 90 37v2q-87 22 -137 116.5t-50 237.5q0 165 65.5 263.5t174.5 98.5t174.5 -98.5t65.5 -263.5q0 -149 -54 -245t-147 -112v-2q19 -4 74 -34.5t107 -30.5l-19 -103q-46 -1 -82.5 11.5t-56 28.5t-46.5 29.5t-56 13.5q-28 0 -62 -19zM328 351
q0 105 -5.5 156.5t-17 69.5t-34.5 18q-35 0 -46 -45.5t-11 -198.5q0 -83 2 -128.5t9 -73t17 -35t29 -7.5t29 7.5t17 35t9 73t2 128.5z" />
    <glyph glyph-name="R" unicode="R" horiz-adv-x="542" 
d="M36 0v105h43v492h-43v105h261q100 0 155 -59.5t55 -146.5q0 -48 -16 -80.5t-53 -60.5l54 -250h29v-105h-154l-66 308h-55v-203h43v-105h-253zM246 602v-193q52 0 73 19.5t21 80.5q0 58 -21.5 75.5t-72.5 17.5z" />
    <glyph glyph-name="S" unicode="S" horiz-adv-x="438" 
d="M36 0v228h105q-4 -128 62 -128q26 0 39.5 19t13.5 51q0 34 -23.5 67t-56.5 62.5t-66 62t-56.5 79t-23.5 99.5q0 74 40.5 121t104.5 47q37 0 59 -11.5t51 -38.5v44h105v-212h-105q3 113 -60 113q-21 0 -33.5 -14t-12.5 -38q0 -42 35 -77q11 -11 42.5 -38t53.5 -49
q52 -52 74.5 -99.5t22.5 -104.5q0 -82 -45 -135.5t-113 -53.5q-58 0 -108 50v-44h-105z" />
    <glyph glyph-name="T" unicode="T" horiz-adv-x="531" 
d="M125 0v105h57v492h-59v-154h-105v259h495v-259h-105v154h-59v-492h57v-105h-281z" />
    <glyph glyph-name="U" unicode="U" horiz-adv-x="521" 
d="M17 597v105h250v-105h-29v-428q0 -75 50 -75q55 0 55 82v421h-30v105h191v-105h-56v-425q0 -82 -49 -132.5t-132 -50.5q-91 0 -143.5 46.5t-52.5 146.5v415h-54z" />
    <glyph glyph-name="V" unicode="V" horiz-adv-x="563" 
d="M212 -11l-155 608h-50v105h256v-105h-51l78 -335h2l79 335h-59v105h243v-105h-48l-161 -608h-134z" />
    <glyph glyph-name="W" unicode="W" horiz-adv-x="740" 
d="M182 -11l-136 608h-37v105h227v-105h-38l64 -288h2l58 288h-35v105h193v-105h-39l65 -295h2l61 295h-40v105h202v-105h-36l-130 -608h-124l-68 307h-2l-64 -307h-125z" />
    <glyph glyph-name="X" unicode="X" horiz-adv-x="583" 
d="M19 0v105h41l149 229l-149 263h-41v105h268v-105h-48l71 -126l71 126h-46v105h221v-105h-53l-133 -232l149 -260h46v-105h-278v105h52l-70 124l-81 -124h51v-105h-220z" />
    <glyph glyph-name="Y" unicode="Y" horiz-adv-x="573" 
d="M142 0v105h58v162l-139 330h-48v105h269v-105h-63l86 -210l90 210h-64v105h228v-105h-49l-143 -330v-162h55v-105h-280z" />
    <glyph glyph-name="Z" unicode="Z" horiz-adv-x="469" 
d="M25 0v105l243 492h-123v-117h-105v222h400v-105l-242 -492h141v126h105v-231h-419z" />
    <glyph glyph-name="bracketleft" unicode="[" horiz-adv-x="302" 
d="M73 702h208v-89h-62v-731h62v-89h-208v909z" />
    <glyph glyph-name="backslash" unicode="\" horiz-adv-x="583" 
d="M168 702l361 -716h-113l-362 716h114z" />
    <glyph glyph-name="bracketright" unicode="]" horiz-adv-x="302" 
d="M229 702v-909h-208v89h62v731h-62v89h208z" />
    <glyph glyph-name="asciicircum" unicode="^" horiz-adv-x="584" 
d="M59 323l179 390h109l179 -390h-139l-94 239l-95 -239h-139z" />
    <glyph glyph-name="underscore" unicode="_" horiz-adv-x="500" 
d="M506 -125h-512v50h512v-50z" />
    <glyph glyph-name="grave" unicode="`" 
d="M274 534h-86l-198 185h189z" />
    <glyph glyph-name="a" unicode="a" horiz-adv-x="490" 
d="M465 0h-192v38q-45 -45 -101 -45q-58 0 -96 45t-38 114q0 70 41.5 116.5t105.5 46.5q43 0 88 -30v52q0 40 -10.5 56t-35.5 16q-34 0 -48 -38l-131 27q56 106 197 106q72 0 123 -34t51 -114v-251h46v-105zM273 126v74q-19 23 -42 23q-22 0 -34.5 -18t-12.5 -47
q0 -28 12 -44t33 -16q25 0 44 28z" />
    <glyph glyph-name="b" unicode="b" horiz-adv-x="479" 
d="M18 0v105h48v492h-48v105h194v-256h2q33 52 92 52q60 0 100.5 -57.5t40.5 -182.5q0 -128 -37 -196.5t-105 -68.5q-53 0 -93 46v-39h-194zM212 280v-100q0 -82 41 -82q26 0 34 30t8 117q0 77 -8.5 106.5t-34.5 29.5q-22 0 -31 -22.5t-9 -78.5z" />
    <glyph glyph-name="c" unicode="c" horiz-adv-x="438" 
d="M291 194l113 -42q-28 -166 -177 -166q-90 0 -141.5 70t-51.5 194q0 111 45 179.5t117 68.5q68 0 93 -61h2v53h105v-198h-105q-4 55 -17.5 79.5t-39.5 24.5q-27 0 -37.5 -31.5t-10.5 -114.5q0 -94 11 -126.5t43 -32.5q24 0 35 23.5t16 79.5z" />
    <glyph glyph-name="d" unicode="d" horiz-adv-x="479" 
d="M461 0h-194v39q-40 -46 -93 -46q-68 0 -105 68.5t-37 196.5q0 125 40.5 182.5t100.5 57.5q58 0 92 -52h2v151h-47v105h193v-597h48v-105zM267 180v100q0 56 -9 78.5t-31 22.5q-26 0 -34.5 -29.5t-8.5 -106.5q0 -87 8 -117t34 -30q41 0 41 82z" />
    <glyph glyph-name="e" unicode="e" horiz-adv-x="427" 
d="M272 153l121 -45q-22 -58 -68 -90t-108 -32q-185 0 -185 265q0 73 16.5 125t45 78.5t60 38t67.5 11.5q32 0 61 -11.5t57 -36.5t44.5 -73t16.5 -114v-46h-223q0 -82 9.5 -107t35.5 -25q21 0 32.5 14t17.5 48zM177 296h77v24q0 84 -38 84q-21 0 -30 -23.5t-9 -84.5z" />
    <glyph glyph-name="f" unicode="f" horiz-adv-x="302" 
d="M40 0v105h38v280h-37v105h37v42q0 90 52.5 135.5t126.5 45.5q46 0 83 -18.5t54 -50.5l-116 -53q-6 22 -27 22q-27 0 -27 -47v-76h54v-105h-54v-280h56v-105h-240z" />
    <glyph glyph-name="g" unicode="g" horiz-adv-x="490" 
d="M49 -190l60 100q54 -22 93 -22q70 0 70 75v89h-2q-19 -33 -43 -47q-23 -13 -53 -13q-59 0 -96.5 59t-37.5 192q0 111 33.5 183t101.5 72q30 0 51.5 -18t43.5 -54h2v64h197v-105h-50v-391q0 -97 -54 -157.5t-155 -60.5q-72 0 -161 34zM272 170v131q0 80 -40 80
q-41 0 -41 -84v-108q0 -92 40 -92q41 0 41 73z" />
    <glyph glyph-name="h" unicode="h" horiz-adv-x="521" 
d="M15 0v105h54v492h-54v105h200v-242q56 44 106 44q61 0 96 -43.5t35 -122.5v-233h49v-105h-195v325q0 36 -9.5 51.5t-31.5 15.5q-21 0 -50 -21v-266h43v-105h-243z" />
    <glyph glyph-name="i" unicode="i" horiz-adv-x="302" 
d="M31 0v105h53v280h-53v105h199v-385h47v-105h-246zM158 543q-35 0 -60 25t-25 60t25 60t60 25t60 -25t25 -60t-25 -60t-60 -25z" />
    <glyph glyph-name="j" unicode="j" horiz-adv-x="292" 
d="M0 -222v116q46 -3 62.5 16t16.5 69v406h-56v105h202v-510q0 -106 -50 -155t-132 -49q-9 0 -43 2zM152 543q-35 0 -60 25t-25 60t25 60t60 25t60 -25t25 -60t-25 -60t-60 -25z" />
    <glyph glyph-name="k" unicode="k" horiz-adv-x="469" 
d="M23 0v105h45v492h-45v105h191v-597h29v-105h-220zM332 0l-113 247v12l83 135h-35v96h177v-105h-30l-66 -106l81 -174h21v-105h-118z" />
    <glyph glyph-name="l" unicode="l" horiz-adv-x="281" 
d="M12 0v105h55v492h-55v105h201v-597h48v-105h-249z" />
    <glyph glyph-name="m" unicode="m" horiz-adv-x="771" 
d="M26 0v105h49v280h-49v105h195v-52h3q18 20 26 28.5t31 20t50 11.5q68 0 106 -66q71 66 130 66q56 0 92 -43.5t36 -130.5v-219h52v-105h-198v307q0 42 -10 60.5t-33 18.5t-48 -25v-256h41v-105h-187v307q0 43 -9.5 61t-32.5 18q-25 0 -49 -25v-256h41v-105h-236z" />
    <glyph glyph-name="n" unicode="n" horiz-adv-x="531" 
d="M26 0v105h54v280h-54v105h200v-52h4q6 12 16 23.5t34.5 24t55.5 12.5q55 0 90.5 -41.5t35.5 -116.5v-235h49v-105h-195v316q0 39 -9 54.5t-32 15.5q-19 0 -49 -23v-258h42v-105h-242z" />
    <glyph glyph-name="o" unicode="o" horiz-adv-x="479" 
d="M33 245q0 114 58 186.5t149 72.5t148.5 -72.5t57.5 -186.5t-57.5 -186.5t-148.5 -72.5t-149 72.5t-58 186.5zM185 245q0 -147 55 -147q54 0 54 147t-54 147q-55 0 -55 -147z" />
    <glyph glyph-name="p" unicode="p" horiz-adv-x="479" 
d="M18 -224v105h48v504h-48v105h194v-56h2q11 32 35 48t54 16q69 0 105.5 -64.5t36.5 -186.5q0 -123 -36.5 -189t-104.5 -66q-50 0 -92 46v-157h67v-105h-261zM212 188q0 -49 9.5 -70t31.5 -21q25 0 32.5 29.5t7.5 121.5q0 75 -9 104t-32 29q-40 0 -40 -87v-106z" />
    <glyph glyph-name="q" unicode="q" horiz-adv-x="479" 
d="M461 -224h-261v105h67v157q-42 -46 -92 -46q-68 0 -104.5 66t-36.5 189q0 122 36.5 186.5t105.5 64.5q30 0 54 -16t35 -48h2v56h194v-105h-48v-504h48v-105zM267 188v106q0 87 -40 87q-23 0 -32 -29t-9 -104q0 -92 7.5 -121.5t32.5 -29.5q22 0 31.5 21t9.5 70z" />
    <glyph glyph-name="r" unicode="r" horiz-adv-x="344" 
d="M26 0v105h52v280h-52v105h198v-98h2q15 59 41 83.5t67 22.5v-164q-110 0 -110 -145v-84h58v-105h-256z" />
    <glyph glyph-name="s" unicode="s" horiz-adv-x="365" 
d="M34 0v133h105q4 -53 42 -53q15 0 23.5 9.5t8.5 24.5q0 19 -19 37t-46.5 36t-55 39.5t-46.5 56.5t-19 78q0 61 31.5 99t82.5 38q45 0 77 -40h2v32h105v-127h-105q-7 51 -41 51q-15 0 -24 -9.5t-9 -24.5q0 -18 14 -34t35.5 -29t46 -30.5t46 -37t35.5 -51t14 -70.5
q0 -62 -31 -99t-83 -37q-20 0 -35 4.5t-20 7.5t-15.5 15t-11.5 13h-2v-32h-105z" />
    <glyph glyph-name="t" unicode="t" horiz-adv-x="302" 
d="M271 111v-109q-47 -16 -89 -16q-116 0 -116 140v259h-44v105h44v62l146 114v-176h59v-105h-59v-219q0 -33 8.5 -46.5t28.5 -13.5q10 0 22 5z" />
    <glyph glyph-name="u" unicode="u" horiz-adv-x="521" 
d="M449 490v-385h54v-105h-200v39q-57 -47 -110 -47q-55 0 -90.5 41.5t-35.5 116.5v235h-49v105h195v-316q0 -39 9 -54.5t32 -15.5q19 0 49 23v258h-42v105h188z" />
    <glyph glyph-name="v" unicode="v" horiz-adv-x="438" 
d="M165 -7l-120 392h-38v105h201v-105h-28l53 -221h2l47 221h-26v105h175v-105h-38l-106 -392h-122z" />
    <glyph glyph-name="w" unicode="w" horiz-adv-x="615" 
d="M129 -7l-93 392h-30v105h196v-105h-32l40 -210h2l60 315h112l59 -315h2l38 210h-29v105h155v-105h-30l-86 -392h-123l-55 222h-2l-60 -222h-124z" />
    <glyph glyph-name="x" unicode="x" horiz-adv-x="396" 
d="M14 0v105h31l70 128l-72 152h-29v105h139l49 -141l55 141h111v-105h-30l-69 -126l80 -154h32v-105h-146l-51 151h-2l-52 -151h-116z" />
    <glyph glyph-name="y" unicode="y" horiz-adv-x="448" 
d="M101 -222v105h69l21 90l-144 412h-35v105h200v-105h-33l66 -191h2l46 191h-32v105h175v-105h-39l-151 -607h-145z" />
    <glyph glyph-name="z" unicode="z" horiz-adv-x="406" 
d="M22 0v96l215 308h-109v-70h-93v156h346v-94l-215 -310h125v74h93v-160h-362z" />
    <glyph glyph-name="braceleft" unicode="{" horiz-adv-x="389" 
d="M318 -108v-116q-110 -4 -146 48.5t-36 183.5q0 90 -15 125.5t-50 50.5v121q35 15 50 50.5t15 125.5q0 131 36 183.5t146 48.5v-116q-39 -5 -48.5 -23.5t-9.5 -84.5q0 -116 -23.5 -173t-75.5 -71v-2q52 -14 75.5 -70.5t23.5 -172.5q0 -66 9.5 -84.5t48.5 -23.5z" />
    <glyph glyph-name="bar" unicode="|" horiz-adv-x="588" 
d="M241 702h106v-831h-106v831z" />
    <glyph glyph-name="braceright" unicode="}" horiz-adv-x="389" 
d="M71 -108q39 5 48.5 23.5t9.5 84.5q0 116 23.5 172.5t75.5 70.5v2q-52 14 -75.5 71t-23.5 173q0 66 -9.5 84.5t-48.5 23.5v116q110 4 146 -48.5t36 -183.5q0 -90 15 -125.5t50 -50.5v-121q-35 -15 -50 -50.5t-15 -125.5q0 -131 -36 -183.5t-146 -48.5v116z" />
    <glyph glyph-name="asciitilde" unicode="~" horiz-adv-x="656" 
d="M599 437v-109q-82 -68 -147 -68q-53 0 -133 40q-3 1 -16.5 7.5t-17.5 8.5t-15.5 7t-17.5 7t-15 4.5t-16.5 3.5t-15.5 1q-70 0 -148 -72v109q78 67 154 67q49 0 129 -39q82 -39 116 -39q62 0 143 72z" />
    <glyph glyph-name="uni00A0" unicode="&#xa0;" 
 />
    <glyph glyph-name="exclamdown" unicode="&#xa1;" horiz-adv-x="292" 
d="M224 490v-156h-156v156h156zM176 255l44 -266v-201h-149v201l44 266h61z" />
    <glyph glyph-name="cent" unicode="&#xa2;" horiz-adv-x="438" 
d="M178 -98v89q-70 21 -108 91q-36 68 -36 168q0 104 39 170.5t105 75.5v94h71v-105q29 -18 40 -50h2v55h105v-198h-105q-4 55 -17.5 79.5t-39.5 24.5q-27 0 -37.5 -31.5t-10.5 -114.5q0 -94 11 -126.5t43 -32.5q23 0 35 23.5t16 79.5l113 -42q-25 -153 -155 -165v-85h-71z
" />
    <glyph glyph-name="sterling" unicode="&#xa3;" horiz-adv-x="531" 
d="M503 209l1 -34q6 -189 -124 -189q-72 0 -134 72q-48 -72 -115 -72q-47 0 -78 33t-31 85q0 47 27 77t70 30q37 0 73 -29q-3 47 -29 136h-103v105h81q-10 47 -10 92q0 97 46.5 147.5t136.5 50.5q177 0 180 -179l-135 -4q0 51 -10 71.5t-35 20.5q-42 0 -42 -55
q0 -31 17 -144h103v-105h-85q5 -28 5 -67q0 -64 -23 -124q38 -31 66 -31q23 0 33 21.5t10 72.5v19h105zM185 109q-30 33 -58 33q-19 0 -30 -12t-11 -32q0 -21 11.5 -34t30.5 -13q45 0 57 58z" />
    <glyph glyph-name="currency" unicode="&#xa4;" horiz-adv-x="667" 
d="M77 517l69 70l66 -66q53 36 120 36q68 0 123 -36l66 66l69 -70l-66 -66q37 -61 37 -123q0 -64 -37 -120l66 -64l-69 -69l-66 64q-58 -37 -124 -37q-65 0 -119 37l-66 -64l-69 69l66 64q-37 61 -37 125t37 118zM333 460q-54 0 -92 -38t-38 -92t38 -92.5t92 -38.5
t92.5 38.5t38.5 92.5t-38.5 92t-92.5 38z" />
    <glyph glyph-name="yen" unicode="&#xa5;" horiz-adv-x="573" 
d="M367 179v-74h55v-105h-280v105h58v74h-186v71h186v17l-15 37h-171v71h141l-94 222h-48v105h269v-105h-63l86 -210l90 210h-64v105h228v-105h-49l-96 -222h144v-71h-175l-16 -37v-17h191v-71h-191z" />
    <glyph glyph-name="brokenbar" unicode="&#xa6;" horiz-adv-x="588" 
d="M239 227h106v-356h-106v356zM239 702h106v-357h-106v357z" />
    <glyph glyph-name="section" unicode="&#xa7;" horiz-adv-x="427" 
d="M54 -72h114q0 -29 13 -45q14 -16 41 -16q23 0 37.5 14.5t14.5 36.5t-25 49t-60.5 56t-71.5 62t-61 78t-25 93q0 90 83 160q-41 38 -57.5 70t-16.5 75q0 70 45.5 111t124.5 41q162 0 164 -156h-113q1 31 -14 48t-41 17q-24 0 -38.5 -13.5t-14.5 -34.5q0 -28 25 -57
t60.5 -57t71.5 -59.5t61 -76.5t25 -96q0 -89 -83 -158q74 -71 74 -145q0 -70 -46 -109.5t-126 -39.5t-122 40.5t-39 111.5zM243 128q41 39 41 81q0 63 -102 147q-39 -40 -39 -80q0 -29 21.5 -59.5t78.5 -88.5z" />
    <glyph glyph-name="dieresis" unicode="&#xa8;" 
d="M63 693q26 0 44.5 -18.5t18.5 -44.5t-18.5 -45t-44.5 -19t-45 19t-19 45t19 44.5t45 18.5zM272 693q26 0 44.5 -18.5t18.5 -44.5t-18.5 -45t-44.5 -19t-45 19t-19 45t19 44.5t45 18.5z" />
    <glyph glyph-name="copyright" unicode="&#xa9;" horiz-adv-x="738" 
d="M459 294l79 -27q-19 -61 -61 -93.5t-103 -32.5q-86 0 -137 56t-51 150q0 97 51 153.5t138 56.5q120 0 163 -119l-79 -19q-26 68 -87 68q-48 0 -74.5 -36.5t-26.5 -101.5q0 -64 25 -101t69 -37q71 0 94 83zM369 723q155 0 264.5 -109.5t109.5 -264.5t-109.5 -264.5
t-264.5 -109.5t-264.5 109.5t-109.5 264.5t109.5 264.5t264.5 109.5zM369 49q125 0 212.5 87.5t87.5 212.5t-87.5 212.5t-212.5 87.5t-212.5 -87.5t-87.5 -212.5t87.5 -212.5t212.5 -87.5z" />
    <glyph glyph-name="ordfeminine" unicode="&#xaa;" horiz-adv-x="323" 
d="M305 411h-125v24q-30 -27 -66 -27q-38 0 -62.5 27t-24.5 68q0 43 27 70t69 27q28 0 57 -18v32q0 23 -6.5 32.5t-23.5 9.5q-23 0 -31 -23l-85 16q37 64 128 64q51 0 81.5 -21.5t30.5 -63.5v-155h31v-62zM180 487v44q-13 13 -27 13q-30 0 -30 -37t28 -37q16 0 29 17z" />
    <glyph glyph-name="guillemotleft" unicode="&#xab;" horiz-adv-x="531" 
d="M153 0l-134 245l134 245h127l-133 -245l133 -245h-127zM389 0l-134 245l134 245h127l-133 -245l133 -245h-127z" />
    <glyph glyph-name="logicalnot" unicode="&#xac;" horiz-adv-x="667" 
d="M62 505h543v-343h-105v238h-438v105z" />
    <glyph glyph-name="uni00AD" unicode="&#xad;" 
d="M38 188v118h258v-118h-258z" />
    <glyph glyph-name="registered" unicode="&#xae;" horiz-adv-x="738" 
d="M200 149v397h81h111q57 0 93.5 -28t36.5 -83q0 -45 -29 -75t-79 -36v-2q21 -5 38.5 -24.5t46.5 -68.5l47 -80h-100l-36 72q-27 53 -51 72t-57 19h-21v-163h-81zM281 375h83q32 0 52.5 14.5t20.5 40.5q0 53 -83 53h-73v-108zM369 723q155 0 264.5 -109.5t109.5 -264.5
t-109.5 -264.5t-264.5 -109.5t-264.5 109.5t-109.5 264.5t109.5 264.5t264.5 109.5zM369 49q125 0 212.5 87.5t87.5 212.5t-87.5 212.5t-212.5 87.5t-212.5 -87.5t-87.5 -212.5t87.5 -212.5t212.5 -87.5z" />
    <glyph glyph-name="macron" unicode="&#xaf;" 
d="M-24 669h382v-90h-382v90z" />
    <glyph glyph-name="degree" unicode="&#xb0;" horiz-adv-x="400" 
d="M200 390q-66 0 -113 47t-47 113t47 113t113 47t113 -47t47 -113t-47 -113t-113 -47zM200 625q-31 0 -53 -22t-22 -53t22 -53t53 -22t53 22t22 53t-22 53t-53 22z" />
    <glyph glyph-name="plusminus" unicode="&#xb1;" horiz-adv-x="668" 
d="M62 486h219v204h105v-204h219v-105h-219v-204h-105v204h-219v105zM62 105h543v-105h-543v105z" />
    <glyph glyph-name="twosuperior" unicode="&#xb2;" horiz-adv-x="250" 
d="M233 330h-226q-1 50 11 87.5t30.5 59.5t37 41t32 41.5t13.5 49.5q0 30 -21 30t-21 -34q0 -11 3 -33l-85 4q-1 9 -1 22q0 53 29.5 82.5t81.5 29.5q51 0 82.5 -29t31.5 -76q0 -37 -20.5 -68.5t-45.5 -50t-48.5 -42.5t-28.5 -47h70v55h75v-122z" />
    <glyph glyph-name="threesuperior" unicode="&#xb3;" horiz-adv-x="250" 
d="M8 450l86 7q-1 -42 3.5 -54.5t17.5 -12.5q8 0 12.5 3t6 12t2 17t0.5 25q0 30 -8.5 39.5t-33.5 7.5v71q27 -2 34 4.5t7 33.5q0 39 -21 39q-12 0 -16.5 -11.5t-3.5 -44.5l-82 8q6 116 109 116q51 0 81 -28t30 -75t-38 -77q42 -36 42 -93q0 -53 -31 -84t-83 -31
q-58 0 -86.5 30t-27.5 98z" />
    <glyph glyph-name="acute" unicode="&#xb4;" 
d="M73 534l95 185h189l-198 -185h-86z" />
    <glyph glyph-name="mu" unicode="&#xb5;" horiz-adv-x="611" 
d="M115 -224v714h146v-322q0 -59 37 -59q26 0 53 29v352h146v-490h-144v40h-2q-9 -21 -26.5 -33.5t-37.5 -12.5q-18 0 -28 10v-228h-144z" />
    <glyph glyph-name="paragraph" unicode="&#xb6;" horiz-adv-x="556" 
d="M312 -224h-118v524q-91 7 -141.5 59t-50.5 139v1v2q0 84 54 142.5t157 58.5h341v-128h-55v-798h-118v798h-69v-798z" />
    <glyph glyph-name="periodcentered" unicode="&#xb7;" horiz-adv-x="292" 
d="M68 283v156h156v-156h-156z" />
    <glyph glyph-name="cedilla" unicode="&#xb8;" 
d="M78 -166l5 56q76 -3 76 36q0 26 -45 33q13 18 22 41q101 -6 101 -82q0 -41 -30 -64.5t-82 -23.5q-28 0 -47 4z" />
    <glyph glyph-name="onesuperior" unicode="&#xb9;" horiz-adv-x="250" 
d="M44 330v72h33v201q-16 -5 -33 -7v70q51 9 90 44h41v-308h32v-72h-163z" />
    <glyph glyph-name="ordmasculine" unicode="&#xba;" horiz-adv-x="313" 
d="M22 558q0 68 37.5 111.5t96.5 43.5t96.5 -43.5t37.5 -111.5t-37.5 -111.5t-96.5 -43.5t-96.5 43.5t-37.5 111.5zM156 645q-19 0 -27.5 -19.5t-8.5 -67.5q0 -87 36 -87q20 0 28 20t8 67q0 51 -9 69t-27 18z" />
    <glyph glyph-name="guillemotright" unicode="&#xbb;" horiz-adv-x="531" 
d="M377 0h-126l132 245l-132 245h126l135 -245zM141 0h-126l132 245l-132 245h126l135 -245z" />
    <glyph glyph-name="onequarter" unicode="&#xbc;" horiz-adv-x="604" 
d="M446 0v72h29v30h-102q-4 25 -15 50l125 228h81v-216h24v-62h-24v-30h24v-72h-142zM435 164h40q1 63 4 95l-2 2q-19 -54 -42 -97zM44 330v72h33v201q-16 -5 -33 -7v70q51 9 90 44h41v-308h32v-72h-163zM138 -8l277 718h74l-276 -718h-75z" />
    <glyph glyph-name="onehalf" unicode="&#xbd;" horiz-adv-x="604" 
d="M126 -8l277 718h74l-276 -718h-75zM587 0h-226q-1 50 11 87.5t30.5 59.5t37 41t32 41.5t13.5 49.5q0 30 -21 30t-21 -34q0 -11 3 -33l-85 4q-1 9 -1 22q0 53 29.5 82.5t81.5 29.5q51 0 82.5 -29t31.5 -76q0 -37 -20.5 -68.5t-45.5 -50t-48.5 -42.5t-28.5 -47h70v55h75
v-122zM44 330v72h33v201q-16 -5 -33 -7v70q51 9 90 44h41v-308h32v-72h-163z" />
    <glyph glyph-name="threequarters" unicode="&#xbe;" horiz-adv-x="604" 
d="M138 -8l277 718h74l-276 -718h-75zM8 450l86 7q-1 -42 3.5 -54.5t17.5 -12.5q8 0 12.5 3t6 12t2 17t0.5 25q0 30 -8.5 39.5t-33.5 7.5v71q27 -2 34 4.5t7 33.5q0 39 -21 39q-12 0 -16.5 -11.5t-3.5 -44.5l-82 8q6 116 109 116q51 0 81 -28t30 -75t-38 -77q42 -36 42 -93
q0 -53 -31 -84t-83 -31q-58 0 -86.5 30t-27.5 98zM446 0v72h29v30h-102q-4 25 -15 50l125 228h81v-216h24v-62h-24v-30h24v-72h-142zM435 164h40q1 63 4 95l-2 2q-19 -54 -42 -97z" />
    <glyph glyph-name="questiondown" unicode="&#xbf;" horiz-adv-x="406" 
d="M245 254l13 -164q-19 5 -32 5q-32 0 -46.5 -24t-14.5 -79q0 -65 10.5 -91t35.5 -26q40 0 40 71v48h135q1 -103 -47.5 -160t-130.5 -57q-85 0 -137 58t-52 153q0 78 36.5 134.5t102.5 55.5l5 76h82zM280 490v-156h-156v156h156z" />
    <glyph glyph-name="Agrave" unicode="&#xc0;" horiz-adv-x="552" 
d="M5 0v105h47l75 492h-45v105h388v-105h-47l80 -492h44v-105h-240v105h44l-17 131h-115l-16 -131h43v-105h-241zM231 323h91l-37 292h-19zM384 742h-86l-198 185h189z" />
    <glyph glyph-name="Aacute" unicode="&#xc1;" horiz-adv-x="552" 
d="M5 0v105h47l75 492h-45v105h388v-105h-47l80 -492h44v-105h-240v105h44l-17 131h-115l-16 -131h43v-105h-241zM231 323h91l-37 292h-19zM183 742l95 185h189l-198 -185h-86z" />
    <glyph glyph-name="Acircumflex" unicode="&#xc2;" horiz-adv-x="552" 
d="M5 0v105h47l75 492h-45v105h388v-105h-47l80 -492h44v-105h-240v105h44l-17 131h-115l-16 -131h43v-105h-241zM231 323h91l-37 292h-19zM115 738l90 189h143l90 -189h-93l-68 96l-69 -96h-93z" />
    <glyph glyph-name="Atilde" unicode="&#xc3;" horiz-adv-x="552" 
d="M5 0v105h47l75 492h-45v105h388v-105h-47l80 -492h44v-105h-240v105h44l-17 131h-115l-16 -131h43v-105h-241zM231 323h91l-37 292h-19zM177 768h-68q3 56 33 93t72 37q23 0 68.5 -18t61.5 -18q21 0 30 37h70q-5 -57 -34.5 -93.5t-70.5 -36.5q-27 0 -72 18.5t-57 18.5
q-25 0 -33 -38z" />
    <glyph glyph-name="Adieresis" unicode="&#xc4;" horiz-adv-x="552" 
d="M5 0v105h47l75 492h-45v105h388v-105h-47l80 -492h44v-105h-240v105h44l-17 131h-115l-16 -131h43v-105h-241zM231 323h91l-37 292h-19zM382 901q26 0 44.5 -18.5t18.5 -44.5t-18.5 -45t-44.5 -19t-45 19t-19 45t19 44.5t45 18.5zM173 901q26 0 44.5 -18.5t18.5 -44.5
t-18.5 -45t-44.5 -19t-45 19t-19 45t19 44.5t45 18.5z" />
    <glyph glyph-name="Aring" unicode="&#xc5;" horiz-adv-x="552" 
d="M5 0v105h47l75 492h-45v105h388v-105h-47l80 -492h44v-105h-240v105h44l-17 131h-115l-16 -131h43v-105h-241zM231 323h91l-37 292h-19zM277 941q42 0 71.5 -29.5t29.5 -71.5t-29.5 -72t-71.5 -30t-72 30t-30 72t30 71.5t72 29.5zM276 890q-21 0 -35.5 -14.5t-14.5 -35.5
t14.5 -36t35.5 -15t36 15t15 36t-15 35.5t-36 14.5z" />
    <glyph glyph-name="AE" unicode="&#xc6;" horiz-adv-x="708" 
d="M8 0v105h35l86 492h-33v105h571v-222h-125v117h-92v-186h77v-105h-77v-201h92v124h125v-229h-418v105h34v201h-94l-34 -201h46v-105h-193zM205 399h78v211h-42z" />
    <glyph glyph-name="Ccedilla" unicode="&#xc7;" horiz-adv-x="490" 
d="M157 -166l5 56q76 -3 76 36q0 26 -45 33q10 12 21 38q-79 22 -128.5 113t-49.5 251q0 169 57 260.5t137 91.5q56 0 100 -59h2v48h112v-237h-112q-9 130 -63 130q-32 0 -41 -44.5t-9 -188.5q0 -158 10.5 -206.5t47.5 -48.5q28 0 41.5 32.5t18.5 108.5l128 -38
q-11 -101 -64.5 -161t-133.5 -60v-2q49 -15 49 -69q0 -41 -30 -64.5t-82 -23.5q-28 0 -47 4z" />
    <glyph glyph-name="Egrave" unicode="&#xc8;" horiz-adv-x="531" 
d="M23 0v105h61v492h-61v105h474v-223h-125v118h-121v-186h93v-105h-93v-201h121v124h125v-229h-474zM373 742h-86l-198 185h189z" />
    <glyph glyph-name="Eacute" unicode="&#xc9;" horiz-adv-x="531" 
d="M23 0v105h61v492h-61v105h474v-223h-125v118h-121v-186h93v-105h-93v-201h121v124h125v-229h-474zM172 742l95 185h189l-198 -185h-86z" />
    <glyph glyph-name="Ecircumflex" unicode="&#xca;" horiz-adv-x="531" 
d="M23 0v105h61v492h-61v105h474v-223h-125v118h-121v-186h93v-105h-93v-201h121v124h125v-229h-474zM104 738l90 189h143l90 -189h-93l-68 96l-69 -96h-93z" />
    <glyph glyph-name="Edieresis" unicode="&#xcb;" horiz-adv-x="531" 
d="M23 0v105h61v492h-61v105h474v-223h-125v118h-121v-186h93v-105h-93v-201h121v124h125v-229h-474zM162 901q26 0 44.5 -18.5t18.5 -44.5t-18.5 -45t-44.5 -19t-45 19t-19 45t19 44.5t45 18.5zM371 901q26 0 44.5 -18.5t18.5 -44.5t-18.5 -45t-44.5 -19t-45 19t-19 45
t19 44.5t45 18.5z" />
    <glyph glyph-name="Igrave" unicode="&#xcc;" horiz-adv-x="354" 
d="M24 0v105h68v492h-68v105h307v-105h-72v-492h72v-105h-307zM285 742h-86l-198 185h189z" />
    <glyph glyph-name="Iacute" unicode="&#xcd;" horiz-adv-x="354" 
d="M24 0v105h68v492h-68v105h307v-105h-72v-492h72v-105h-307zM84 742l95 185h189l-198 -185h-86z" />
    <glyph glyph-name="Icircumflex" unicode="&#xce;" horiz-adv-x="354" 
d="M24 0v105h68v492h-68v105h307v-105h-72v-492h72v-105h-307zM16 738l90 189h143l90 -189h-93l-68 96l-69 -96h-93z" />
    <glyph glyph-name="Idieresis" unicode="&#xcf;" horiz-adv-x="354" 
d="M24 0v105h68v492h-68v105h307v-105h-72v-492h72v-105h-307zM74 901q26 0 44.5 -18.5t18.5 -44.5t-18.5 -45t-44.5 -19t-45 19t-19 45t19 44.5t45 18.5zM283 901q26 0 44.5 -18.5t18.5 -44.5t-18.5 -45t-44.5 -19t-45 19t-19 45t19 44.5t45 18.5z" />
    <glyph glyph-name="Eth" unicode="&#xd0;" horiz-adv-x="552" 
d="M23 0v105h50v193h-50v105h50v194h-50v105h243q111 0 179 -94t68 -258q0 -157 -63 -253.5t-184 -96.5h-243zM336 354q0 81 -6.5 131.5t-21 74t-29.5 30.5t-39 7v-194h41v-105h-41v-193q36 0 55 17t30 72t11 160z" />
    <glyph glyph-name="Ntilde" unicode="&#xd1;" horiz-adv-x="552" 
d="M32 0v105h44v492h-44v105h202q78 -183 141 -420h9q-1 26 -4 83.5t-3 94.5v137h-41v105h184v-105h-38v-603h-130q-13 35 -42 110t-45 118.5t-40 115t-44 142.5h-9q9 -115 9 -238v-137h38v-105h-187zM177 768h-68q3 56 33 93t72 37q23 0 68.5 -18t61.5 -18q21 0 30 37h70
q-5 -57 -34.5 -93.5t-70.5 -36.5q-27 0 -72 18.5t-57 18.5q-25 0 -33 -38z" />
    <glyph glyph-name="Ograve" unicode="&#xd2;" horiz-adv-x="552" 
d="M36 351q0 165 65.5 263.5t174.5 98.5t174.5 -98.5t65.5 -263.5t-65.5 -263.5t-174.5 -98.5t-174.5 98.5t-65.5 263.5zM333 351q0 153 -11 198.5t-46 45.5t-46 -45.5t-11 -198.5t11 -198.5t46 -45.5t46 45.5t11 198.5zM384 742h-86l-198 185h189z" />
    <glyph glyph-name="Oacute" unicode="&#xd3;" horiz-adv-x="552" 
d="M36 351q0 165 65.5 263.5t174.5 98.5t174.5 -98.5t65.5 -263.5t-65.5 -263.5t-174.5 -98.5t-174.5 98.5t-65.5 263.5zM333 351q0 153 -11 198.5t-46 45.5t-46 -45.5t-11 -198.5t11 -198.5t46 -45.5t46 45.5t11 198.5zM183 742l95 185h189l-198 -185h-86z" />
    <glyph glyph-name="Ocircumflex" unicode="&#xd4;" horiz-adv-x="552" 
d="M36 351q0 165 65.5 263.5t174.5 98.5t174.5 -98.5t65.5 -263.5t-65.5 -263.5t-174.5 -98.5t-174.5 98.5t-65.5 263.5zM333 351q0 153 -11 198.5t-46 45.5t-46 -45.5t-11 -198.5t11 -198.5t46 -45.5t46 45.5t11 198.5zM115 738l90 189h143l90 -189h-93l-68 96l-69 -96h-93
z" />
    <glyph glyph-name="Otilde" unicode="&#xd5;" horiz-adv-x="552" 
d="M36 351q0 165 65.5 263.5t174.5 98.5t174.5 -98.5t65.5 -263.5t-65.5 -263.5t-174.5 -98.5t-174.5 98.5t-65.5 263.5zM333 351q0 153 -11 198.5t-46 45.5t-46 -45.5t-11 -198.5t11 -198.5t46 -45.5t46 45.5t11 198.5zM177 768h-68q3 56 33 93t72 37q23 0 68.5 -18
t61.5 -18q21 0 30 37h70q-5 -57 -34.5 -93.5t-70.5 -36.5q-27 0 -72 18.5t-57 18.5q-25 0 -33 -38z" />
    <glyph glyph-name="Odieresis" unicode="&#xd6;" horiz-adv-x="552" 
d="M36 351q0 165 65.5 263.5t174.5 98.5t174.5 -98.5t65.5 -263.5t-65.5 -263.5t-174.5 -98.5t-174.5 98.5t-65.5 263.5zM333 351q0 153 -11 198.5t-46 45.5t-46 -45.5t-11 -198.5t11 -198.5t46 -45.5t46 45.5t11 198.5zM173 901q26 0 44.5 -18.5t18.5 -44.5t-18.5 -45
t-44.5 -19t-45 19t-19 45t19 44.5t45 18.5zM382 901q26 0 44.5 -18.5t18.5 -44.5t-18.5 -45t-44.5 -19t-45 19t-19 45t19 44.5t45 18.5z" />
    <glyph glyph-name="multiply" unicode="&#xd7;" horiz-adv-x="667" 
d="M151 586l181 -181l181 181l76 -74l-182 -182l181 -181l-74 -74l-181 181l-182 -182l-74 74l182 182l-182 182z" />
    <glyph glyph-name="Oslash" unicode="&#xd8;" horiz-adv-x="552" 
d="M36 351q0 165 65.5 263.5t174.5 98.5q74 0 133 -50l34 50l73 -44l-51 -79q51 -100 51 -239q0 -165 -65.5 -263.5t-174.5 -98.5q-73 0 -134 51l-30 -54l-76 44l49 84q-49 98 -49 237zM221 342l105 180q-5 39 -16.5 56t-33.5 17q-35 0 -46 -45.5t-11 -198.5v-9h2zM331 364
l-106 -183q5 -43 16 -58.5t35 -15.5q18 0 28.5 9.5t17.5 38.5t9 73.5t2 122.5v13h-2z" />
    <glyph glyph-name="Ugrave" unicode="&#xd9;" horiz-adv-x="521" 
d="M17 597v105h250v-105h-29v-428q0 -75 50 -75q55 0 55 82v421h-30v105h191v-105h-56v-425q0 -82 -49 -132.5t-132 -50.5q-91 0 -143.5 46.5t-52.5 146.5v415h-54zM368 742h-86l-198 185h189z" />
    <glyph glyph-name="Uacute" unicode="&#xda;" horiz-adv-x="521" 
d="M17 597v105h250v-105h-29v-428q0 -75 50 -75q55 0 55 82v421h-30v105h191v-105h-56v-425q0 -82 -49 -132.5t-132 -50.5q-91 0 -143.5 46.5t-52.5 146.5v415h-54zM167 742l95 185h189l-198 -185h-86z" />
    <glyph glyph-name="Ucircumflex" unicode="&#xdb;" horiz-adv-x="521" 
d="M17 597v105h250v-105h-29v-428q0 -75 50 -75q55 0 55 82v421h-30v105h191v-105h-56v-425q0 -82 -49 -132.5t-132 -50.5q-91 0 -143.5 46.5t-52.5 146.5v415h-54zM99 738l90 189h143l90 -189h-93l-68 96l-69 -96h-93z" />
    <glyph glyph-name="Udieresis" unicode="&#xdc;" horiz-adv-x="521" 
d="M17 597v105h250v-105h-29v-428q0 -75 50 -75q55 0 55 82v421h-30v105h191v-105h-56v-425q0 -82 -49 -132.5t-132 -50.5q-91 0 -143.5 46.5t-52.5 146.5v415h-54zM157 901q26 0 44.5 -18.5t18.5 -44.5t-18.5 -45t-44.5 -19t-45 19t-19 45t19 44.5t45 18.5zM366 901
q26 0 44.5 -18.5t18.5 -44.5t-18.5 -45t-44.5 -19t-45 19t-19 45t19 44.5t45 18.5z" />
    <glyph glyph-name="Yacute" unicode="&#xdd;" horiz-adv-x="573" 
d="M142 0v105h58v162l-139 330h-48v105h269v-105h-63l86 -210l90 210h-64v105h228v-105h-49l-143 -330v-162h55v-105h-280zM193 742l95 185h189l-198 -185h-86z" />
    <glyph glyph-name="Thorn" unicode="&#xde;" horiz-adv-x="542" 
d="M72 610h-49v92h265v-92h-49v-38h20q105 0 178.5 -56t73.5 -169q0 -46 -12 -82.5t-31.5 -58.5t-44 -38.5t-50.5 -23t-51 -11.5t-44.5 -3.5t-31.5 0.5h-7v-38h49v-92h-265v92h49v518zM239 467v-232q47 0 71 26t24 91q0 115 -95 115z" />
    <glyph glyph-name="germandbls" unicode="&#xdf;" horiz-adv-x="479" 
d="M12 0v105h56v394q0 214 187 214q90 0 137 -41t47 -120q0 -112 -78 -140q47 -23 67 -68t20 -127q0 -115 -30 -169.5t-99 -54.5q-27 0 -58 12v106q24 3 29.5 22t5.5 98q0 52 -11.5 73t-40.5 20v128q24 0 33.5 19.5t9.5 67.5q0 38 -8.5 53.5t-28.5 15.5q-19 0 -27.5 -14.5
t-8.5 -46.5v-442h16v-105h-218z" />
    <glyph glyph-name="agrave" unicode="&#xe0;" horiz-adv-x="490" 
d="M465 0h-192v38q-45 -45 -101 -45q-58 0 -96 45t-38 114q0 70 41.5 116.5t105.5 46.5q43 0 88 -30v52q0 40 -10.5 56t-35.5 16q-34 0 -48 -38l-131 27q56 106 197 106q72 0 123 -34t51 -114v-251h46v-105zM273 126v74q-19 23 -42 23q-22 0 -34.5 -18t-12.5 -47
q0 -28 12 -44t33 -16q25 0 44 28zM353 534h-86l-198 185h189z" />
    <glyph glyph-name="aacute" unicode="&#xe1;" horiz-adv-x="490" 
d="M465 0h-192v38q-45 -45 -101 -45q-58 0 -96 45t-38 114q0 70 41.5 116.5t105.5 46.5q43 0 88 -30v52q0 40 -10.5 56t-35.5 16q-34 0 -48 -38l-131 27q56 106 197 106q72 0 123 -34t51 -114v-251h46v-105zM273 126v74q-19 23 -42 23q-22 0 -34.5 -18t-12.5 -47
q0 -28 12 -44t33 -16q25 0 44 28zM152 534l95 185h189l-198 -185h-86z" />
    <glyph glyph-name="acircumflex" unicode="&#xe2;" horiz-adv-x="490" 
d="M465 0h-192v38q-45 -45 -101 -45q-58 0 -96 45t-38 114q0 70 41.5 116.5t105.5 46.5q43 0 88 -30v52q0 40 -10.5 56t-35.5 16q-34 0 -48 -38l-131 27q56 106 197 106q72 0 123 -34t51 -114v-251h46v-105zM273 126v74q-19 23 -42 23q-22 0 -34.5 -18t-12.5 -47
q0 -28 12 -44t33 -16q25 0 44 28zM84 530l90 189h143l90 -189h-93l-68 96l-69 -96h-93z" />
    <glyph glyph-name="atilde" unicode="&#xe3;" horiz-adv-x="490" 
d="M465 0h-192v38q-45 -45 -101 -45q-58 0 -96 45t-38 114q0 70 41.5 116.5t105.5 46.5q43 0 88 -30v52q0 40 -10.5 56t-35.5 16q-34 0 -48 -38l-131 27q56 106 197 106q72 0 123 -34t51 -114v-251h46v-105zM273 126v74q-19 23 -42 23q-22 0 -34.5 -18t-12.5 -47
q0 -28 12 -44t33 -16q25 0 44 28zM146 560h-68q3 56 33 93t72 37q23 0 68.5 -18t61.5 -18q21 0 30 37h70q-5 -57 -34.5 -93.5t-70.5 -36.5q-26 0 -72 18.5t-57 18.5q-25 0 -33 -38z" />
    <glyph glyph-name="adieresis" unicode="&#xe4;" horiz-adv-x="490" 
d="M465 0h-192v38q-45 -45 -101 -45q-58 0 -96 45t-38 114q0 70 41.5 116.5t105.5 46.5q43 0 88 -30v52q0 40 -10.5 56t-35.5 16q-34 0 -48 -38l-131 27q56 106 197 106q72 0 123 -34t51 -114v-251h46v-105zM273 126v74q-19 23 -42 23q-22 0 -34.5 -18t-12.5 -47
q0 -28 12 -44t33 -16q25 0 44 28zM142 693q26 0 44.5 -18.5t18.5 -44.5t-18.5 -45t-44.5 -19t-45 19t-19 45t19 44.5t45 18.5zM351 693q26 0 44.5 -18.5t18.5 -44.5t-18.5 -45t-44.5 -19t-45 19t-19 45t19 44.5t45 18.5z" />
    <glyph glyph-name="aring" unicode="&#xe5;" horiz-adv-x="490" 
d="M465 0h-192v38q-45 -45 -101 -45q-58 0 -96 45t-38 114q0 70 41.5 116.5t105.5 46.5q43 0 88 -30v52q0 40 -10.5 56t-35.5 16q-34 0 -48 -38l-131 27q56 106 197 106q72 0 123 -34t51 -114v-251h46v-105zM273 126v74q-19 23 -42 23q-22 0 -34.5 -18t-12.5 -47
q0 -28 12 -44t33 -16q25 0 44 28zM246 733q42 0 71.5 -29.5t29.5 -71.5t-29.5 -72t-71.5 -30t-72 30t-30 72t30 71.5t72 29.5zM245 682q-21 0 -35.5 -14.5t-14.5 -35.5t14.5 -36t35.5 -15t36 15t15 36t-15 35.5t-36 14.5z" />
    <glyph glyph-name="ae" unicode="&#xe6;" horiz-adv-x="677" 
d="M517 153l121 -45q-48 -122 -177 -122q-100 0 -144 79q-73 -79 -140 -79q-60 0 -97.5 44.5t-37.5 115.5q0 76 40.5 121t108.5 45q42 0 84 -31v66q0 33 -11 47.5t-36 14.5q-34 0 -46 -40l-131 26q55 109 195 109q59 0 117 -29q48 29 99 29q27 0 51 -6t50.5 -25t45 -48.5
t29 -81.5t8.5 -120h-225q-1 -76 8.5 -104t36.5 -28q22 0 33.5 13.5t17.5 48.5zM275 116v83q-23 21 -42 21q-23 0 -36 -16t-13 -45q0 -31 12.5 -49.5t34.5 -18.5q19 0 44 25zM421 296h79q1 62 -7 85t-31 23q-25 0 -33 -23.5t-8 -84.5z" />
    <glyph glyph-name="ccedilla" unicode="&#xe7;" horiz-adv-x="438" 
d="M131 -166l5 56q76 -3 76 36q0 26 -45 33q9 12 18 31q-72 17 -111.5 84.5t-39.5 175.5q0 111 45 179.5t117 68.5q68 0 93 -61h2v53h105v-198h-105q-4 55 -17.5 79.5t-39.5 24.5q-27 0 -37.5 -31.5t-10.5 -114.5q0 -94 11 -126.5t43 -32.5q24 0 35 23.5t16 79.5l113 -42
q-14 -88 -59.5 -126t-98.5 -39v-2q44 -14 44 -67q0 -41 -30 -64.5t-82 -23.5q-28 0 -47 4z" />
    <glyph glyph-name="egrave" unicode="&#xe8;" horiz-adv-x="427" 
d="M272 153l121 -45q-22 -58 -68 -90t-108 -32q-185 0 -185 265q0 73 16.5 125t45 78.5t60 38t67.5 11.5q32 0 61 -11.5t57 -36.5t44.5 -73t16.5 -114v-46h-223q0 -82 9.5 -107t35.5 -25q21 0 32.5 14t17.5 48zM177 296h77v24q0 84 -38 84q-21 0 -30 -23.5t-9 -84.5z
M321 534h-86l-198 185h189z" />
    <glyph glyph-name="eacute" unicode="&#xe9;" horiz-adv-x="427" 
d="M272 153l121 -45q-22 -58 -68 -90t-108 -32q-185 0 -185 265q0 73 16.5 125t45 78.5t60 38t67.5 11.5q32 0 61 -11.5t57 -36.5t44.5 -73t16.5 -114v-46h-223q0 -82 9.5 -107t35.5 -25q21 0 32.5 14t17.5 48zM177 296h77v24q0 84 -38 84q-21 0 -30 -23.5t-9 -84.5z
M120 534l95 185h189l-198 -185h-86z" />
    <glyph glyph-name="ecircumflex" unicode="&#xea;" horiz-adv-x="427" 
d="M272 153l121 -45q-22 -58 -68 -90t-108 -32q-185 0 -185 265q0 73 16.5 125t45 78.5t60 38t67.5 11.5q32 0 61 -11.5t57 -36.5t44.5 -73t16.5 -114v-46h-223q0 -82 9.5 -107t35.5 -25q21 0 32.5 14t17.5 48zM177 296h77v24q0 84 -38 84q-21 0 -30 -23.5t-9 -84.5zM52 530
l90 189h143l90 -189h-93l-68 96l-69 -96h-93z" />
    <glyph glyph-name="edieresis" unicode="&#xeb;" horiz-adv-x="427" 
d="M272 153l121 -45q-22 -58 -68 -90t-108 -32q-185 0 -185 265q0 73 16.5 125t45 78.5t60 38t67.5 11.5q32 0 61 -11.5t57 -36.5t44.5 -73t16.5 -114v-46h-223q0 -82 9.5 -107t35.5 -25q21 0 32.5 14t17.5 48zM177 296h77v24q0 84 -38 84q-21 0 -30 -23.5t-9 -84.5z
M117 693q26 0 44.5 -18.5t18.5 -44.5t-18.5 -45t-44.5 -19t-45 19t-19 45t19 44.5t45 18.5zM326 693q26 0 44.5 -18.5t18.5 -44.5t-18.5 -45t-44.5 -19t-45 19t-19 45t19 44.5t45 18.5z" />
    <glyph glyph-name="igrave" unicode="&#xec;" horiz-adv-x="302" 
d="M31 0v105h53v280h-53v105h199v-385h47v-105h-246zM259 534h-86l-198 185h189z" />
    <glyph glyph-name="iacute" unicode="&#xed;" horiz-adv-x="302" 
d="M31 0v105h53v280h-53v105h199v-385h47v-105h-246zM58 534l95 185h189l-198 -185h-86z" />
    <glyph glyph-name="icircumflex" unicode="&#xee;" horiz-adv-x="302" 
d="M31 0v105h53v280h-53v105h199v-385h47v-105h-246zM-10 530l90 189h143l90 -189h-93l-68 96l-69 -96h-93z" />
    <glyph glyph-name="idieresis" unicode="&#xef;" horiz-adv-x="302" 
d="M31 0v105h53v280h-53v105h199v-385h47v-105h-246zM48 693q26 0 44.5 -18.5t18.5 -44.5t-18.5 -45t-44.5 -19t-45 19t-19 45t19 44.5t45 18.5zM257 693q26 0 44.5 -18.5t18.5 -44.5t-18.5 -45t-44.5 -19t-45 19t-19 45t19 44.5t45 18.5z" />
    <glyph glyph-name="eth" unicode="&#xf0;" horiz-adv-x="479" 
d="M104 578l103 49q-30 33 -69 55l76 31q41 -16 81 -44l92 44l43 -38l-93 -45q109 -108 109 -340q0 -85 -18.5 -147.5t-50 -95t-66.5 -47t-74 -14.5q-87 0 -145.5 71.5t-58.5 178.5q0 116 52.5 192t126.5 76q45 0 71 -22l2 2q-17 63 -44 100l-93 -45zM185 245
q0 -147 55 -147q54 0 54 147t-54 147q-55 0 -55 -147z" />
    <glyph glyph-name="ntilde" unicode="&#xf1;" horiz-adv-x="531" 
d="M26 0v105h54v280h-54v105h200v-52h4q6 12 16 23.5t34.5 24t55.5 12.5q55 0 90.5 -41.5t35.5 -116.5v-235h49v-105h-195v316q0 39 -9 54.5t-32 15.5q-19 0 -49 -23v-258h42v-105h-242zM166 560h-68q3 56 33 93t72 37q23 0 68.5 -18t61.5 -18q21 0 30 37h70
q-5 -57 -34.5 -93.5t-70.5 -36.5q-26 0 -72 18.5t-57 18.5q-25 0 -33 -38z" />
    <glyph glyph-name="ograve" unicode="&#xf2;" horiz-adv-x="479" 
d="M33 245q0 114 58 186.5t149 72.5t148.5 -72.5t57.5 -186.5t-57.5 -186.5t-148.5 -72.5t-149 72.5t-58 186.5zM185 245q0 -147 55 -147q54 0 54 147t-54 147q-55 0 -55 -147zM347 534h-86l-198 185h189z" />
    <glyph glyph-name="oacute" unicode="&#xf3;" horiz-adv-x="479" 
d="M33 245q0 114 58 186.5t149 72.5t148.5 -72.5t57.5 -186.5t-57.5 -186.5t-148.5 -72.5t-149 72.5t-58 186.5zM185 245q0 -147 55 -147q54 0 54 147t-54 147q-55 0 -55 -147zM146 534l95 185h189l-198 -185h-86z" />
    <glyph glyph-name="ocircumflex" unicode="&#xf4;" horiz-adv-x="479" 
d="M33 245q0 114 58 186.5t149 72.5t148.5 -72.5t57.5 -186.5t-57.5 -186.5t-148.5 -72.5t-149 72.5t-58 186.5zM185 245q0 -147 55 -147q54 0 54 147t-54 147q-55 0 -55 -147zM78 530l90 189h143l90 -189h-93l-68 96l-69 -96h-93z" />
    <glyph glyph-name="otilde" unicode="&#xf5;" horiz-adv-x="479" 
d="M33 245q0 114 58 186.5t149 72.5t148.5 -72.5t57.5 -186.5t-57.5 -186.5t-148.5 -72.5t-149 72.5t-58 186.5zM185 245q0 -147 55 -147q54 0 54 147t-54 147q-55 0 -55 -147zM140 560h-68q3 56 33 93t72 37q23 0 68.5 -18t61.5 -18q21 0 30 37h70q-5 -57 -34.5 -93.5
t-70.5 -36.5q-26 0 -72 18.5t-57 18.5q-25 0 -33 -38z" />
    <glyph glyph-name="odieresis" unicode="&#xf6;" horiz-adv-x="479" 
d="M33 245q0 114 58 186.5t149 72.5t148.5 -72.5t57.5 -186.5t-57.5 -186.5t-148.5 -72.5t-149 72.5t-58 186.5zM185 245q0 -147 55 -147q54 0 54 147t-54 147q-55 0 -55 -147zM137 693q26 0 44.5 -18.5t18.5 -44.5t-18.5 -45t-44.5 -19t-45 19t-19 45t19 44.5t45 18.5z
M346 693q26 0 44.5 -18.5t18.5 -44.5t-18.5 -45t-44.5 -19t-45 19t-19 45t19 44.5t45 18.5z" />
    <glyph glyph-name="divide" unicode="&#xf7;" horiz-adv-x="668" 
d="M333 595q26 0 44.5 -18.5t18.5 -44.5t-18.5 -44.5t-44.5 -18.5t-44.5 18.5t-18.5 44.5t18.5 44.5t44.5 18.5zM62 383h543v-105h-543v105zM333 192q26 0 44.5 -18.5t18.5 -44.5t-18.5 -44.5t-44.5 -18.5t-44.5 18.5t-18.5 44.5t18.5 44.5t44.5 18.5z" />
    <glyph glyph-name="oslash" unicode="&#xf8;" horiz-adv-x="479" 
d="M187 230l93 127q-12 35 -40 35q-55 0 -55 -147v-15h2zM33 245q0 114 58 186.5t149 72.5q71 0 118 -42l28 42l60 -41l-40 -57q40 -65 40 -161q0 -114 -57.5 -186.5t-148.5 -72.5q-69 0 -117 40l-31 -40l-58 43l41 53q-17 21 -29.5 67.5t-12.5 95.5zM292 256l-92 -127
q13 -31 40 -31q54 0 54 147v11h-2z" />
    <glyph glyph-name="ugrave" unicode="&#xf9;" horiz-adv-x="521" 
d="M449 490v-385h54v-105h-200v39q-57 -47 -110 -47q-55 0 -90.5 41.5t-35.5 116.5v235h-49v105h195v-316q0 -39 9 -54.5t32 -15.5q19 0 49 23v258h-42v105h188zM368 534h-86l-198 185h189z" />
    <glyph glyph-name="uacute" unicode="&#xfa;" horiz-adv-x="521" 
d="M449 490v-385h54v-105h-200v39q-57 -47 -110 -47q-55 0 -90.5 41.5t-35.5 116.5v235h-49v105h195v-316q0 -39 9 -54.5t32 -15.5q19 0 49 23v258h-42v105h188zM167 534l95 185h189l-198 -185h-86z" />
    <glyph glyph-name="ucircumflex" unicode="&#xfb;" horiz-adv-x="521" 
d="M449 490v-385h54v-105h-200v39q-57 -47 -110 -47q-55 0 -90.5 41.5t-35.5 116.5v235h-49v105h195v-316q0 -39 9 -54.5t32 -15.5q19 0 49 23v258h-42v105h188zM99 530l90 189h143l90 -189h-93l-68 96l-69 -96h-93z" />
    <glyph glyph-name="udieresis" unicode="&#xfc;" horiz-adv-x="521" 
d="M449 490v-385h54v-105h-200v39q-57 -47 -110 -47q-55 0 -90.5 41.5t-35.5 116.5v235h-49v105h195v-316q0 -39 9 -54.5t32 -15.5q19 0 49 23v258h-42v105h188zM157 693q26 0 44.5 -18.5t18.5 -44.5t-18.5 -45t-44.5 -19t-45 19t-19 45t19 44.5t45 18.5zM366 693
q26 0 44.5 -18.5t18.5 -44.5t-18.5 -45t-44.5 -19t-45 19t-19 45t19 44.5t45 18.5z" />
    <glyph glyph-name="yacute" unicode="&#xfd;" horiz-adv-x="448" 
d="M101 -222v105h69l21 90l-144 412h-35v105h200v-105h-33l66 -191h2l46 191h-32v105h175v-105h-39l-151 -607h-145zM131 534l95 185h189l-198 -185h-86z" />
    <glyph glyph-name="thorn" unicode="&#xfe;" horiz-adv-x="479" 
d="M18 -224v105h48v716h-48v105h194v-261h2q33 57 88 57q69 0 106 -65t37 -186q0 -123 -36.5 -189t-104.5 -66q-50 0 -92 46v-157h67v-105h-261zM212 294v-106q0 -49 9.5 -70t31.5 -21q25 0 32.5 29.5t7.5 121.5q0 75 -9 104t-32 29q-40 0 -40 -87z" />
    <glyph glyph-name="ydieresis" unicode="&#xff;" horiz-adv-x="448" 
d="M101 -222v105h69l21 90l-144 412h-35v105h200v-105h-33l66 -191h2l46 191h-32v105h175v-105h-39l-151 -607h-145zM121 693q26 0 44.5 -18.5t18.5 -44.5t-18.5 -45t-44.5 -19t-45 19t-19 45t19 44.5t45 18.5zM330 693q26 0 44.5 -18.5t18.5 -44.5t-18.5 -45t-44.5 -19
t-45 19t-19 45t19 44.5t45 18.5z" />
    <glyph glyph-name="dotlessi" unicode="&#x131;" horiz-adv-x="302" 
d="M31 0v105h53v280h-53v105h199v-385h47v-105h-246z" />
    <glyph glyph-name="Lslash" unicode="&#x141;" horiz-adv-x="521" 
d="M25 0v105h62v136l-62 -43v119l62 43v237h-62v105h306v-105h-77v-130l100 74v-120l-100 -73v-243h118v208h125v-313h-472z" />
    <glyph glyph-name="lslash" unicode="&#x142;" horiz-adv-x="281" 
d="M12 0v105h55v145l-62 -48v107l62 47v241h-55v105h201v-233l55 43v-106l-55 -44v-257h48v-105h-249z" />
    <glyph glyph-name="OE" unicode="&#x152;" horiz-adv-x="729" 
d="M692 0h-365q-143 0 -217 89t-74 244q0 369 293 369h363v-224h-125v119h-91v-186h76v-105h-76v-201h91v125h125v-230zM309 105v492q-54 -9 -72 -56t-18 -179q0 -142 15.5 -195t74.5 -62z" />
    <glyph glyph-name="oe" unicode="&#x153;" horiz-adv-x="667" 
d="M506 152l119 -47q-22 -58 -67.5 -88.5t-107.5 -30.5q-68 0 -113 39q-50 -39 -108 -39q-91 0 -144.5 70.5t-53.5 190.5q0 117 54 187t143 70q66 0 113 -40q49 40 112 40q189 0 180 -281h-223v-52q0 -43 9.5 -61.5t35.5 -18.5q21 0 32 14.5t19 46.5zM183 232
q0 -77 9.5 -105.5t32.5 -28.5t31.5 30t8.5 123q0 80 -9 110.5t-33 30.5q-23 0 -31.5 -33t-8.5 -127zM409 296h79q0 64 -8 86t-30 22q-23 0 -32.5 -21.5t-8.5 -86.5z" />
    <glyph glyph-name="Scaron" unicode="&#x160;" horiz-adv-x="438" 
d="M36 0v228h105q-4 -128 62 -128q26 0 39.5 19t13.5 51q0 34 -23.5 67t-56.5 62.5t-66 62t-56.5 79t-23.5 99.5q0 74 40.5 121t104.5 47q37 0 59 -11.5t51 -38.5v44h105v-212h-105q3 113 -60 113q-21 0 -33.5 -14t-12.5 -38q0 -42 35 -77q11 -11 42.5 -38t53.5 -49
q52 -52 74.5 -99.5t22.5 -104.5q0 -82 -45 -135.5t-113 -53.5q-58 0 -108 50v-44h-105zM381 927l-90 -189h-143l-90 189h93l68 -96l69 96h93z" />
    <glyph glyph-name="scaron" unicode="&#x161;" horiz-adv-x="365" 
d="M34 0v133h105q4 -53 42 -53q15 0 23.5 9.5t8.5 24.5q0 19 -19 37t-46.5 36t-55 39.5t-46.5 56.5t-19 78q0 61 31.5 99t82.5 38q45 0 77 -40h2v32h105v-127h-105q-7 51 -41 51q-15 0 -24 -9.5t-9 -24.5q0 -18 14 -34t35.5 -29t46 -30.5t46 -37t35.5 -51t14 -70.5
q0 -62 -31 -99t-83 -37q-20 0 -35 4.5t-20 7.5t-15.5 15t-11.5 13h-2v-32h-105zM344 719l-90 -189h-143l-90 189h93l68 -96l69 96h93z" />
    <glyph glyph-name="Ydieresis" unicode="&#x178;" horiz-adv-x="573" 
d="M142 0v105h58v162l-139 330h-48v105h269v-105h-63l86 -210l90 210h-64v105h228v-105h-49l-143 -330v-162h55v-105h-280zM183 901q26 0 44.5 -18.5t18.5 -44.5t-18.5 -45t-44.5 -19t-45 19t-19 45t19 44.5t45 18.5zM392 901q26 0 44.5 -18.5t18.5 -44.5t-18.5 -45
t-44.5 -19t-45 19t-19 45t19 44.5t45 18.5z" />
    <glyph glyph-name="Zcaron" unicode="&#x17d;" horiz-adv-x="469" 
d="M25 0v105l243 492h-123v-117h-105v222h400v-105l-242 -492h141v126h105v-231h-419zM396 927l-90 -189h-143l-90 189h93l68 -96l69 96h93z" />
    <glyph glyph-name="zcaron" unicode="&#x17e;" horiz-adv-x="406" 
d="M22 0v96l215 308h-109v-70h-93v156h346v-94l-215 -310h125v74h93v-160h-362zM365 719l-90 -189h-143l-90 189h93l68 -96l69 96h93z" />
    <glyph glyph-name="florin" unicode="&#x192;" horiz-adv-x="556" 
d="M442 490l-21 -151h-65l-68 -413q-12 -69 -39 -109.5t-66 -40.5h-106l18 132q39 0 54 15.5t23 62.5l59 353h-59l21 151h60l12 70q13 74 37 113.5t70 39.5h106l-18 -129h-31t-20.5 -5.5t-13.5 -17.5t-10 -37l-7 -34h64z" />
    <glyph glyph-name="circumflex" unicode="&#x2c6;" 
d="M5 530l90 189h143l90 -189h-93l-68 96l-69 -96h-93z" />
    <glyph glyph-name="caron" unicode="&#x2c7;" 
d="M328 719l-90 -189h-143l-90 189h93l68 -96l69 96h93z" />
    <glyph glyph-name="uni02C9" unicode="&#x2c9;" 
d="M-24 669h382v-90h-382v90z" />
    <glyph glyph-name="breve" unicode="&#x2d8;" 
d="M247 702h76q-9 -67 -52 -107t-105 -40q-63 0 -105 39.5t-50 107.5h76q6 -39 25 -56q20 -19 55 -19q68 0 80 75z" />
    <glyph glyph-name="dotaccent" unicode="&#x2d9;" 
d="M167 693q26 0 44.5 -18.5t18.5 -44.5t-18.5 -45t-44.5 -19t-45 19t-19 45t19 44.5t45 18.5z" />
    <glyph glyph-name="ring" unicode="&#x2da;" 
d="M167 733q42 0 71.5 -29.5t29.5 -71.5t-29.5 -72t-71.5 -30t-72 30t-30 72t30 71.5t72 29.5zM166 682q-21 0 -35.5 -14.5t-14.5 -35.5t14.5 -36t35.5 -15t36 15t15 36t-15 35.5t-36 14.5z" />
    <glyph glyph-name="ogonek" unicode="&#x2db;" 
d="M105 0h77q-20 -37 -20 -71q0 -63 55 -63q20 0 40 10v-65q-45 -22 -81 -22q-45 0 -73 28.5t-28 74.5q0 40 30 108z" />
    <glyph glyph-name="tilde" unicode="&#x2dc;" 
d="M67 560h-68q3 56 33 93t72 37q23 0 68.5 -18t61.5 -18q21 0 30 37h70q-5 -57 -34.5 -93.5t-70.5 -36.5q-27 0 -72 18.5t-57 18.5q-25 0 -33 -38z" />
    <glyph glyph-name="hungarumlaut" unicode="&#x2dd;" 
d="M208 534l95 185h189l-198 -185h-86zM-10 534l95 185h189l-198 -185h-86z" />
    <glyph glyph-name="uni03A9" unicode="&#x3a9;" horiz-adv-x="525" 
d="M123 102v3q-87 124 -87 285q0 134 63.5 226.5t165.5 92.5q72 0 124 -49.5t74 -117.5t22 -142q0 -87 -25.5 -166t-61.5 -129v-3h100v-102h-202v73q30 30 50 101q23 82 23 196q0 99 -27 165t-79 66t-81.5 -65t-29.5 -171q0 -104 21.5 -183t51.5 -109v-73h-201v102h99z" />
    <glyph glyph-name="uni03BC" unicode="&#x3bc;" horiz-adv-x="611" 
d="M115 -224v714h146v-322q0 -59 37 -59q26 0 53 29v352h146v-490h-144v40h-2q-9 -21 -26.5 -33.5t-37.5 -12.5q-18 0 -28 10v-228h-144z" />
    <glyph glyph-name="pi" unicode="&#x3c0;" horiz-adv-x="481" 
d="M462 417h-52v-284q0 -84 11 -133h-110q-15 34 -15 133v284h-96q-11 -258 -51 -417h-109q20 91 33.5 213t14.5 204q-44 0 -70 -7l-13 84q40 32 135 32h330z" />
    <glyph glyph-name="uni2010" unicode="&#x2010;" 
d="M38 188v118h258v-118h-258z" />
    <glyph glyph-name="endash" unicode="&#x2013;" horiz-adv-x="500" 
d="M-6 295h512v-90h-512v90z" />
    <glyph glyph-name="emdash" unicode="&#x2014;" horiz-adv-x="1000" 
d="M-6 295h1012v-90h-1012v90z" />
    <glyph glyph-name="quoteleft" unicode="&#x2018;" horiz-adv-x="292" 
d="M224 702v-78q-39 -5 -57 -30.5t-18 -78.5h75v-156h-156v151q0 184 156 192z" />
    <glyph glyph-name="quoteright" unicode="&#x2019;" horiz-adv-x="292" 
d="M68 359v78q39 5 57 30.5t18 78.5h-75v156h156v-151q0 -184 -156 -192z" />
    <glyph glyph-name="quotesinglbase" unicode="&#x201a;" horiz-adv-x="292" 
d="M68 -187v78q39 5 57 30.5t18 78.5h-75v156h156v-151q0 -184 -156 -192z" />
    <glyph glyph-name="quotedblleft" unicode="&#x201c;" horiz-adv-x="521" 
d="M455 702v-78q-39 -5 -57 -30.5t-18 -78.5h75v-156h-156v151q0 184 156 192zM222 702v-78q-39 -5 -57 -30.5t-18 -78.5h75v-156h-156v151q0 184 156 192z" />
    <glyph glyph-name="quotedblright" unicode="&#x201d;" horiz-adv-x="521" 
d="M299 359v78q39 5 57 30.5t18 78.5h-75v156h156v-151q0 -184 -156 -192zM66 359v78q39 5 57 30.5t18 78.5h-75v156h156v-151q0 -184 -156 -192z" />
    <glyph glyph-name="quotedblbase" unicode="&#x201e;" horiz-adv-x="521" 
d="M299 -187v78q39 5 57 30.5t18 78.5h-75v156h156v-151q0 -184 -156 -192zM66 -187v78q39 5 57 30.5t18 78.5h-75v156h156v-151q0 -184 -156 -192z" />
    <glyph glyph-name="dagger" unicode="&#x2020;" horiz-adv-x="427" 
d="M181 -224l-35 376v132q23 23 31.5 48.5t9.5 77.5h-4q-40 0 -53 -37h-100v123h100q8 -20 20 -27t37 -9q0 50 -9 77.5t-32 46.5v118h136v-118q-23 -18 -33 -47q-9 -29 -9 -77q25 2 37 9t20 27h101v-123h-101q-13 37 -53 37h-4q2 -52 10.5 -77.5t31.5 -48.5v-132l-36 -376
h-65z" />
    <glyph glyph-name="daggerdbl" unicode="&#x2021;" horiz-adv-x="427" 
d="M147 -224v118q23 17 33 44q9 28 9 78q-30 -1 -42.5 -8t-17.5 -28h-99v126h99q10 -36 60 -39q1 64 -9 101.5t-33 69.5q24 30 32 68q10 40 10 104q-49 0 -60 -38h-99v124h99q9 -35 60 -36q0 95 -42 123v119h134v-119q-23 -15 -33 -43q-10 -29 -10 -80q51 1 60 36h100v-124
h-100q-11 38 -60 38q0 -121 43 -172q-27 -35 -35 -72q-8 -36 -8 -99q50 3 60 39h100v-126h-100q-5 21 -17 28t-43 8q0 -51 9.5 -78t33.5 -44v-118h-134z" />
    <glyph glyph-name="bullet" unicode="&#x2022;" horiz-adv-x="350" 
d="M176 470q58 0 98.5 -40.5t40.5 -98.5t-40.5 -99t-98.5 -41t-99 41t-41 99t41 98.5t99 40.5z" />
    <glyph glyph-name="ellipsis" unicode="&#x2026;" horiz-adv-x="1000" 
d="M422 0v156h156v-156h-156zM755 0v156h156v-156h-156zM89 0v156h156v-156h-156z" />
    <glyph glyph-name="perthousand" unicode="&#x2030;" horiz-adv-x="854" 
d="M749 128v115q0 41 -4 52.5t-16 11.5t-16.5 -12t-4.5 -53v-113q0 -41 4 -52.5t16 -11.5q13 0 17 11t4 52zM125 -8l277 718h75l-277 -718h-75zM147 458v115q0 41 -4 52.5t-16 11.5t-16.5 -12t-4.5 -53v-113q0 -41 4 -52.5t16 -11.5q13 0 17 11t4 52zM616 186q0 96 25 145
t88 49q58 0 85 -46.5t27 -147.5q0 -98 -26 -146t-86 -48q-58 0 -85.5 44t-27.5 150zM14 516q0 96 25 145t88 49q58 0 85 -46.5t27 -147.5q0 -98 -26 -146t-86 -48q-58 0 -85.5 44t-27.5 150zM364 186q0 96 25 145t88 49q58 0 85 -46.5t27 -147.5q0 -98 -26 -146t-86 -48
q-58 0 -85.5 44t-27.5 150zM497 128v115q0 41 -4 52.5t-16 11.5t-16.5 -12t-4.5 -53v-113q0 -41 4 -52.5t16 -11.5q13 0 17 11t4 52z" />
    <glyph glyph-name="guilsinglleft" unicode="&#x2039;" horiz-adv-x="292" 
d="M151 0l-134 245l134 245h127l-133 -245l133 -245h-127z" />
    <glyph glyph-name="guilsinglright" unicode="&#x203a;" horiz-adv-x="292" 
d="M140 0h-126l132 245l-132 245h126l135 -245z" />
    <glyph glyph-name="fraction" unicode="&#x2044;" horiz-adv-x="104" 
d="M-124 -8l277 718h74l-276 -718h-75z" />
    <glyph glyph-name="Euro" unicode="&#x20ac;" horiz-adv-x="427" 
d="M402 194q-9 -101 -51.5 -154.5t-113.5 -53.5q-73 0 -120.5 65.5t-61.5 198.5h-43v71h38v40v14h-38v71h41q11 130 52 197t101 67q28 0 47.5 -9t39.5 -37h1v38h90v-207h-91q-9 110 -53 110q-24 0 -35 -35t-13 -124h101v-71h-102v-13v-41h102v-71h-100q3 -88 15.5 -123.5
t38.5 -35.5q23 0 33 27t15 89z" />
    <glyph glyph-name="afii61289" unicode="&#x2113;" horiz-adv-x="406" 
d="M352 165l43 -48q-54 -128 -160 -128q-78 0 -113.5 47.5t-37.5 121.5v13q-6 -6 -20.5 -19.5t-21.5 -19.5l-26 64q55 55 67 70v260q0 116 43 178t107 62q54 0 81 -47t27 -127q0 -155 -146 -334v-60q0 -113 65 -113q48 0 92 80zM195 507v-133q84 126 84 228q0 74 -40 74
q-44 0 -44 -169z" />
    <glyph glyph-name="trademark" unicode="&#x2122;" horiz-adv-x="1000" 
d="M220 302v330h-124v70h325v-70h-120v-330h-81zM468 302v400h127l72 -276h2l72 276h127v-400h-77v319h-2l-85 -319h-73l-84 319h-2v-319h-77z" />
    <glyph glyph-name="Omega" unicode="&#x2126;" horiz-adv-x="525" 
d="M123 102v3q-87 124 -87 285q0 134 63.5 226.5t165.5 92.5q72 0 124 -49.5t74 -117.5t22 -142q0 -87 -25.5 -166t-61.5 -129v-3h100v-102h-202v73q30 30 50 101q23 82 23 196q0 99 -27 165t-79 66t-81.5 -65t-29.5 -171q0 -104 21.5 -183t51.5 -109v-73h-201v102h99z" />
    <glyph glyph-name="estimated" unicode="&#x212e;" horiz-adv-x="873" 
d="M838 338h-651q-5 0 -5 -4v-197q0 -13 8 -23q104 -107 246 -107q155 0 260 120h57q-54 -65 -138 -102.5t-180 -37.5q-166 0 -283.5 105.5t-117.5 254.5q0 151 117.5 257t283.5 106q167 0 285 -106t118 -257v-9zM690 364v198q0 14 -9 23q-106 103 -245 103
q-141 0 -245 -106q-9 -9 -9 -25v-193q0 -7 5 -7h499q4 0 4 7z" />
    <glyph glyph-name="partialdiff" unicode="&#x2202;" horiz-adv-x="465" 
d="M88 638l-30 98q63 54 145 54q92 0 156 -94.5t64 -280.5q0 -204 -58 -313.5t-166 -109.5q-77 0 -121 69t-44 164q0 122 51.5 194t123.5 72q36 0 63 -18.5t37 -39.5h1q1 6 1 30q0 87 -34.5 155t-89.5 68q-51 0 -99 -48zM209 98h2q37 0 61 68.5t30 157.5q-6 25 -25 45
t-48 20q-37 0 -59.5 -51.5t-22.5 -120.5q0 -52 16.5 -85.5t45.5 -33.5z" />
    <glyph glyph-name="uni2206" unicode="&#x2206;" horiz-adv-x="514" 
d="M23 0v73l171 638h134l162 -635v-76h-467zM137 100h237l-72 268q-6 27 -22.5 94t-20.5 90h-2q-3 -21 -19 -81.5t-22 -89.5z" />
    <glyph glyph-name="product" unicode="&#x220f;" horiz-adv-x="583" 
d="M557 584h-73v-681h-116v681h-154v-681h-116v681h-74v115h533v-115z" />
    <glyph glyph-name="summation" unicode="&#x2211;" horiz-adv-x="440" 
d="M424 -97h-402v85l187 316l-183 306v89h386v-103h-238v-3l162 -263l-184 -306v-3h272v-118z" />
    <glyph glyph-name="minus" unicode="&#x2212;" horiz-adv-x="667" 
d="M62 383h543v-105h-543v105z" />
    <glyph glyph-name="uni2215" unicode="&#x2215;" horiz-adv-x="104" 
d="M-124 -8l277 718h74l-276 -718h-75z" />
    <glyph glyph-name="uni2219" unicode="&#x2219;" horiz-adv-x="292" 
d="M68 283v156h156v-156h-156z" />
    <glyph glyph-name="radical" unicode="&#x221a;" horiz-adv-x="488" 
d="M487 844l-176 -977h-92l-112 433l-61 -24l-17 72l149 60l70 -287q2 -13 6 -35t6.5 -37.5t3.5 -25.5l1 -1q1 6 5.5 43.5t7.5 61.5l131 717h78z" />
    <glyph glyph-name="infinity" unicode="&#x221e;" horiz-adv-x="685" 
d="M643 289v-1q0 -71 -42.5 -114.5t-100.5 -43.5q-84 0 -155 99q-39 -49 -76.5 -74t-86.5 -25q-57 0 -99 43.5t-42 109.5q0 69 42 112.5t106 43.5q84 0 157 -97q45 53 73 72q40 25 86 25q59 -1 98.5 -42t39.5 -108zM190 196h1q32 0 58 21t59 63q-25 35 -36.5 49t-34.5 29.5
t-49 15.5q-38 0 -59 -25.5t-21 -66.5q0 -36 24 -61t58 -25zM498 374h-1q-11 0 -21.5 -2.5t-20.5 -9.5t-17.5 -12t-17.5 -16t-14.5 -15.5t-14.5 -17t-12 -14.5q41 -53 65.5 -72t57.5 -19t53.5 27.5t20.5 59.5q0 39 -21.5 65t-56.5 26z" />
    <glyph glyph-name="integral" unicode="&#x222b;" horiz-adv-x="359" 
d="M327 855l-11 -88q-14 7 -27 7q-25 0 -40 -25q-21 -32 -21 -168q0 -80 5.5 -233.5t5.5 -246.5q0 -141 -29 -203q-33 -71 -117 -71q-38 0 -64 14l14 92q18 -9 33 -9q23 0 34 19q19 32 19 154q0 94 -5.5 252t-5.5 243q0 89 11 140.5t39 85.5q39 47 107 47q32 0 52 -10z" />
    <glyph glyph-name="approxequal" unicode="&#x2248;" horiz-adv-x="443" 
d="M371 437l41 -35q-17 -43 -46.5 -70.5t-65.5 -27.5q-39 0 -89 34q-44 32 -69 32q-16 0 -30.5 -11.5t-20.5 -21t-18 -32.5l-42 34q18 43 49 70t69 27q12 0 22.5 -2t21 -6.5t16 -7t15.5 -9t12 -7.5l10.5 -7t11 -7.5t9.5 -6t9.5 -5t8.5 -4t9.5 -3t8.5 -0.5q22 0 36.5 16
t31.5 50zM371 269l41 -35q-17 -43 -46.5 -70.5t-65.5 -27.5q-37 0 -89 35q-44 32 -69 32q-12 0 -22.5 -5t-19.5 -17t-13.5 -19.5t-13.5 -24.5l-42 34q18 44 49 70.5t69 26.5q10 0 20 -2t16.5 -3.5t15.5 -6t12.5 -6.5t12 -7.5t9.5 -5.5q5 -3 15 -9.5t15 -9.5t12.5 -7
t13.5 -5.5t12 -1.5q22 0 35.5 15.5t32.5 49.5z" />
    <glyph glyph-name="notequal" unicode="&#x2260;" horiz-adv-x="443" 
d="M330 488l-30 -75h104v-71h-127l-48 -119h175v-70h-198l-38 -94l-53 18l31 76h-106v70h129l47 119h-176v71h199l38 94z" />
    <glyph glyph-name="lessequal" unicode="&#x2264;" horiz-adv-x="443" 
d="M401 100l-356 204v76l356 205v-85l-293 -156v-2l293 -158v-84zM406 -6h-364v72h364v-72z" />
    <glyph glyph-name="greaterequal" unicode="&#x2265;" horiz-adv-x="443" 
d="M47 585l356 -205v-76l-355 -204v84l292 158v2l-293 156v85zM406 -6h-364v72h364v-72z" />
    <glyph glyph-name="lozenge" unicode="&#x25ca;" horiz-adv-x="486" 
d="M445 349l-157 -393h-97l-148 393l156 394h97zM341 346l-77 218q-11 35 -16 72h-4q-8 -46 -17 -72l-81 -212l79 -224q10 -36 14 -67h5q8 47 15 64z" />
    <glyph glyph-name="fi" unicode="&#xfb01;" horiz-adv-x="531" 
d="M20 0v105h49v280h-49v105h49v32q0 90 56 140.5t142 50.5q132 0 185 -129l-146 -47q-2 39 -12 55t-33 16q-25 0 -35.5 -19t-10.5 -63v-36h237v-385h52v-105h-218v105h20v280h-91v-280h21v-105h-216z" />
    <glyph glyph-name="fl" unicode="&#xfb02;" horiz-adv-x="521" 
d="M19 0v105h49v280h-49v105h49v31q0 89 58 140.5t139 51.5q34 0 70 -11h116v-597h51v-105h-218v105h21v280h-91v-280h21v-105h-216zM214 490h91v36q0 44 -10.5 63t-33.5 19q-24 0 -35.5 -19t-11.5 -63v-36z" />
    <glyph glyph-name="one.superior" horiz-adv-x="250" 
d="M44 330v72h33v201q-16 -5 -33 -7v70q51 9 90 44h41v-308h32v-72h-163z" />
    <glyph glyph-name="two.superior" horiz-adv-x="250" 
d="M233 330h-226q-1 50 11 87.5t30.5 59.5t37 41t32 41.5t13.5 49.5q0 30 -21 30t-21 -34q0 -11 3 -33l-85 4q-1 9 -1 22q0 53 29.5 82.5t81.5 29.5q51 0 82.5 -29t31.5 -76q0 -37 -20.5 -68.5t-45.5 -50t-48.5 -42.5t-28.5 -47h70v55h75v-122z" />
    <glyph glyph-name="three.superior" horiz-adv-x="250" 
d="M8 450l86 7q-1 -42 3.5 -54.5t17.5 -12.5q8 0 12.5 3t6 12t2 17t0.5 25q0 30 -8.5 39.5t-33.5 7.5v71q27 -2 34 4.5t7 33.5q0 39 -21 39q-12 0 -16.5 -11.5t-3.5 -44.5l-82 8q6 116 109 116q51 0 81 -28t30 -75t-38 -77q42 -36 42 -93q0 -53 -31 -84t-83 -31
q-58 0 -86.5 30t-27.5 98z" />
    <glyph glyph-name="a.superior" horiz-adv-x="323" 
d="M305 411h-125v24q-30 -27 -66 -27q-38 0 -62.5 27t-24.5 68q0 43 27 70t69 27q28 0 57 -18v32q0 23 -6.5 32.5t-23.5 9.5q-23 0 -31 -23l-85 16q37 64 128 64q51 0 81.5 -21.5t30.5 -63.5v-155h31v-62zM180 487v44q-13 13 -27 13q-30 0 -30 -37t28 -37q16 0 29 17z" />
    <glyph glyph-name="o.superior" horiz-adv-x="313" 
d="M22 558q0 68 37.5 111.5t96.5 43.5t96.5 -43.5t37.5 -111.5t-37.5 -111.5t-96.5 -43.5t-96.5 43.5t-37.5 111.5zM156 645q-19 0 -27.5 -19.5t-8.5 -67.5q0 -87 36 -87q20 0 28 20t8 67q0 51 -9 69t-27 18z" />
    </font>
</defs>
</svg>
