<?xml version="1.0" standalone="no"?>
<!DOCTYPE svg PUBLIC "-//W3C//DTD SVG 1.1//EN" "http://www.w3.org/Graphics/SVG/1.1/DTD/svg11.dtd" >
<svg>
<metadata>
Created by FontForge 20110222 at Mon Oct 21 21:07:20 2013
 By Orthosie Webhosting
(c) 1990, 2002 Adobe Systems Incorporated. All rights reserved.
</metadata>
<defs>
<font id="RockwellStdCondensed" horiz-adv-x="344" >
  <font-face 
    font-family="RockwellStdCondensed"
    font-weight="400"
    font-stretch="condensed"
    units-per-em="1000"
    panose-1="2 6 5 6 5 4 5 2 1 4"
    ascent="679"
    descent="-321"
    x-height="513"
    cap-height="736"
    bbox="-147 -235 1009 931"
    underline-thickness="50"
    underline-position="-50"
    unicode-range="U+0020-FB02"
  />
<missing-glyph horiz-adv-x="500" 
d="M0 0v700h500v-700h-500zM250 395l170 255h-340zM280 350l170 -255v510zM80 50h340l-170 255zM50 605v-510l170 255z" />
    <glyph glyph-name="f_i" unicode="fi" horiz-adv-x="385" 
d="M28 0v85h41v343h-41v85h41v79q0 71 36 113.5t93 42.5q52 0 87.5 -31t43.5 -87l-92 -30q-3 38 -11.5 53t-27.5 15q-37 0 -37 -77v-78h168v-428h38v-85h-153v85h23v343h-76v-343h25v-85h-158z" />
    <glyph glyph-name="f_l" unicode="fl" horiz-adv-x="385" 
d="M28 0v85h41v343h-41v85h41v73q0 79 37.5 120.5t94.5 41.5q28 0 56 -12h72v-651h38v-85h-153v85h23v525q0 58 -37 58q-39 0 -39 -74v-81h46v-85h-46v-343h24v-85h-157z" />
    <glyph glyph-name=".notdef" horiz-adv-x="500" 
d="M0 0v700h500v-700h-500zM250 395l170 255h-340zM280 350l170 -255v510zM80 50h340l-170 255zM50 605v-510l170 255z" />
    <glyph glyph-name=".null" horiz-adv-x="0" 
 />
    <glyph glyph-name="nonmarkingreturn" horiz-adv-x="333" 
 />
    <glyph glyph-name="space" unicode=" " horiz-adv-x="333" 
 />
    <glyph glyph-name="exclam" unicode="!" horiz-adv-x="167" 
d="M58 195l-25 310v231h101v-231l-24 -310h-52zM33 0v121h101v-121h-101z" />
    <glyph glyph-name="quotedbl" unicode="&#x22;" horiz-adv-x="355" 
d="M38 736h97v-122l-31 -163h-35l-31 163v122zM220 736h97v-122l-31 -163h-35l-31 163v122z" />
    <glyph glyph-name="numbersign" unicode="#" horiz-adv-x="668" 
d="M41 496h156l40 194h72l-40 -194h194l40 194h72l-40 -194h90v-70h-105l-35 -170h140v-70h-155l-40 -194h-72l40 194h-194l-40 -194h-72l40 194h-91v70h106l35 170h-141v70zM254 426l-35 -170h194l35 170h-194z" />
    <glyph glyph-name="dollar" unicode="$" horiz-adv-x="448" 
d="M191 94v229q-90 85 -125 142.5t-35 108.5q0 68 44.5 112.5t115.5 49.5v47h57v-51q70 -12 110 -60.5t44 -125.5h-94q-3 41 -17 62.5t-43 31.5v-216q97 -85 133 -141t36 -115q0 -71 -46.5 -118t-122.5 -53v-81h-57v81q-73 9 -115 56t-45 132h97q9 -73 63 -91zM248 269v-177
q31 7 48.5 26t17.5 47q0 49 -66 104zM191 474v169q-59 -10 -59 -68q0 -25 11 -44t48 -57z" />
    <glyph glyph-name="percent" unicode="%" horiz-adv-x="563" 
d="M108 337q-29 0 -48 17t-28 48.5t-12.5 63.5t-3.5 74q0 203 92 203q93 0 93 -203q0 -94 -20 -148.5t-73 -54.5zM86 596v-111q0 -38 2.5 -57.5t7 -25.5t12.5 -6t12.5 6.5t7.5 27t3 57.5v106q0 53 -5.5 72t-17.5 19t-17 -18.5t-5 -69.5zM454 -6q-29 0 -48 17t-28 48.5
t-12.5 63.5t-3.5 74q0 203 92 203q93 0 93 -203q0 -94 -20 -148.5t-73 -54.5zM432 253v-111q0 -38 2.5 -57.5t7 -25.5t12.5 -6t12.5 6.5t7.5 27t3 57.5v106q0 53 -5.5 72t-17.5 19t-17 -18.5t-5 -69.5zM64 0l368 736h61l-368 -736h-61z" />
    <glyph glyph-name="ampersand" unicode="&#x26;" horiz-adv-x="469" 
d="M441 441v-89h-35q-10 -127 -52 -215l18 -48h69v-89h-138l-14 36q-41 -42 -87 -42q-71 0 -121.5 71.5t-50.5 173.5q0 118 105 210q-41 93 -41 159q0 62 36 101t93 39q53 0 88 -34.5t35 -86.5q0 -49 -28 -100.5t-76 -92.5l66 -181h2q22 70 20 188h111zM207 526q51 50 51 93
q0 19 -11 31.5t-28 12.5q-16 0 -26 -12t-10 -29q0 -37 24 -96zM258 121l-89 237q-43 -34 -43 -92q0 -50 27.5 -114t62.5 -64q12 0 24 9.5t18 23.5z" />
    <glyph glyph-name="quotesingle" unicode="'" horiz-adv-x="191" 
d="M47 736h97v-122l-31 -163h-35l-31 163v122z" />
    <glyph glyph-name="parenleft" unicode="(" horiz-adv-x="229" 
d="M208 -121v-53q-87 50 -123 156t-36 305q0 203 36 306.5t123 154.5v-55q-33 -23 -48.5 -109.5t-15.5 -297.5q0 -208 14.5 -295t49.5 -112z" />
    <glyph glyph-name="parenright" unicode=")" horiz-adv-x="229" 
d="M21 -121q35 25 49.5 112t14.5 295q0 211 -15.5 297.5t-48.5 109.5v55q87 -51 123 -154.5t36 -306.5q0 -199 -36 -305t-123 -156v53z" />
    <glyph glyph-name="asterisk" unicode="*" horiz-adv-x="385" 
d="M25 583l26 83l39 -12q28 -40 93 -68q-6 77 -35 112v38h87v-38q-17 -19 -27 -53t-9 -59q71 32 95 68l37 12l29 -83l-37 -12q-21 9 -43 9q-48 0 -77 -9q15 -20 48 -43t51 -26l21 -29l-71 -52l-23 30q3 46 -38 112q-34 -59 -35 -112l-22 -30l-71 49l22 32q54 16 94 69
q-37 9 -62 9q-27 0 -54 -9z" />
    <glyph glyph-name="plus" unicode="+" horiz-adv-x="667" 
d="M295 288h-229v77h229v229h77v-229h229v-77h-229v-229h-77v229z" />
    <glyph glyph-name="comma" unicode="," horiz-adv-x="167" 
d="M33 0v121h101v-121q0 -66 -26.5 -111t-83.5 -54v50q49 17 49 115h-40z" />
    <glyph glyph-name="hyphen" unicode="-" horiz-adv-x="260" 
d="M27 213v87h206v-87h-206z" />
    <glyph glyph-name="period" unicode="." horiz-adv-x="167" 
d="M33 0v121h101v-121h-101z" />
    <glyph glyph-name="slash" unicode="/" horiz-adv-x="510" 
d="M402 736h63l-357 -736h-63z" />
    <glyph glyph-name="zero" unicode="0" horiz-adv-x="365" 
d="M182 -12q-47 0 -78 32t-45 92.5t-19 118.5t-5 138q0 186 34 282.5t113 96.5q46 0 76.5 -31t45 -89.5t20 -118.5t5.5 -140q0 -86 -5.5 -147.5t-20.5 -118t-45.5 -86t-75.5 -29.5zM182 68q26 0 37 36.5t11 120.5v289q0 84 -11.5 119t-36.5 35q-48 0 -48 -147v-296
q0 -157 48 -157z" />
    <glyph glyph-name="one" unicode="1" horiz-adv-x="365" 
d="M94 0v85h44v528q-21 -16 -44 -21v89q61 24 94 67h42v-663h41v-85h-177z" />
    <glyph glyph-name="two" unicode="2" horiz-adv-x="365" 
d="M322 224v-224h-297v59q0 138 91 256l51 67q33 43 44.5 79t11.5 103q0 104 -54 104q-57 0 -57 -98q0 -3 6 -69h-86q-7 34 -7 67q0 86 38 133t108 47q72 0 111.5 -49t39.5 -140q0 -121 -63 -197l-66 -78q-36 -42 -57.5 -96t-23.5 -98h125v134h85z" />
    <glyph glyph-name="three" unicode="3" horiz-adv-x="365" 
d="M124 532h-83q0 116 30 166t100 50q68 0 106 -51.5t38 -145.5q0 -68 -20.5 -105t-65.5 -51v-2q97 -27 97 -178q0 -104 -36.5 -165.5t-110.5 -61.5q-78 0 -109.5 63.5t-31.5 180.5h89q0 -95 10.5 -129.5t42.5 -34.5q17 0 26.5 8t14 30t5.5 45t1 68q0 78 -18.5 106.5
t-64.5 28.5v80q49 0 64 20t15 98q0 66 -11 91t-42 25q-29 0 -38 -31.5t-8 -104.5z" />
    <glyph glyph-name="four" unicode="4" horiz-adv-x="365" 
d="M154 0v85h44v129h-148q-8 46 -33 75l183 459h84v-459h47v-75h-47v-129h36v-85h-166zM198 289v281h-2l-104 -281h106z" />
    <glyph glyph-name="five" unicode="5" horiz-adv-x="365" 
d="M31 214h89q0 -78 10.5 -112t41.5 -34q27 0 37.5 27.5t10.5 107.5q0 113 -10 149.5t-39 36.5q-49 0 -52 -80q-46 32 -74 37l12 390h241v-158h-84v68h-84l-6 -216q38 39 78 39q57 0 87 -59t30 -171q0 -125 -38.5 -188t-108.5 -63q-67 0 -104 59t-37 167z" />
    <glyph glyph-name="six" unicode="6" horiz-adv-x="365" 
d="M321 536h-86q2 59 -10 95.5t-36 36.5q-27 0 -38.5 -36.5t-11.5 -121.5v-103q35 35 81 35q51 0 82.5 -48t31.5 -158q0 -26 -2.5 -53.5t-11.5 -64t-24 -64t-43 -47t-65 -19.5q-39 0 -66 17t-43 45.5t-24.5 77.5t-11.5 99.5t-3 125.5q0 124 5 177.5t18 103.5q15 55 51 84.5
t79 29.5q62 0 96 -56.5t32 -155.5zM139 348v-162q0 -62 11.5 -90t36.5 -28q27 0 37.5 34.5t10.5 132.5q0 77 -11 106.5t-40 29.5q-23 0 -45 -23z" />
    <glyph glyph-name="seven" unicode="7" horiz-adv-x="365" 
d="M85 0v85h41q-2 152 21 282.5t45 188.5t43 90h-128v-104h-85v194h300v-66q-28 -45 -48.5 -109t-30 -120t-15.5 -133.5t-7 -118t-1 -104.5h44v-85h-179z" />
    <glyph glyph-name="eight" unicode="8" horiz-adv-x="365" 
d="M330 214q0 -226 -148 -226q-74 0 -110.5 58.5t-36.5 163.5q0 143 88 187q-77 35 -77 169q0 86 36 134t100 48t100 -48t36 -134q0 -134 -77 -169q44 -24 66.5 -66t22.5 -117zM136 548q0 -114 46 -114t46 114q0 69 -10.5 94.5t-35.5 25.5t-35.5 -27t-10.5 -93zM134 212
q0 -86 11 -115t37 -29q25 0 37 29t12 111q0 86 -9.5 116t-39.5 30q-28 0 -38 -30t-10 -112z" />
    <glyph glyph-name="nine" unicode="9" horiz-adv-x="365" 
d="M44 200h86q-2 -59 10 -95.5t36 -36.5q27 0 38.5 36.5t11.5 121.5v103q-35 -35 -81 -35q-51 0 -82.5 48t-31.5 158q0 26 2.5 53.5t11.5 64t24 64t43 47t65 19.5q39 0 66 -17t43 -45.5t24.5 -77.5t11.5 -99.5t3 -125.5q0 -124 -5 -177.5t-18 -103.5q-15 -55 -51 -84.5
t-79 -29.5q-62 0 -96 56.5t-32 155.5zM226 388v162q0 62 -11.5 90t-36.5 28q-27 0 -37.5 -34.5t-10.5 -132.5q0 -77 11 -106.5t40 -29.5q23 0 45 23z" />
    <glyph glyph-name="colon" unicode=":" horiz-adv-x="167" 
d="M33 0v121h101v-121h-101zM33 392v121h101v-121h-101z" />
    <glyph glyph-name="semicolon" unicode=";" horiz-adv-x="167" 
d="M33 0v121h101v-121q0 -66 -26.5 -111t-83.5 -54v50q49 17 49 115h-40zM33 392v121h101v-121h-101z" />
    <glyph glyph-name="less" unicode="&#x3c;" horiz-adv-x="667" 
d="M170 326l431 -176v-83l-535 224v70l535 225v-84z" />
    <glyph glyph-name="equal" unicode="=" horiz-adv-x="667" 
d="M66 481h535v-77h-535v77zM66 250h535v-77h-535v77z" />
    <glyph glyph-name="greater" unicode="&#x3e;" horiz-adv-x="667" 
d="M497 326l-431 176v83l535 -224v-70l-535 -224v83z" />
    <glyph glyph-name="question" unicode="?" 
d="M212 536q0 72 -9 99.5t-33 27.5q-23 0 -32.5 -22t-9.5 -84v-47h-93v47q0 86 34.5 138.5t101.5 52.5q65 0 101.5 -52.5t36.5 -156.5q0 -182 -103 -201l-16 -135h-45l-19 209h5q10 -2 21 -2q33 0 46.5 28t13.5 98zM117 0v121h101v-121h-101z" />
    <glyph glyph-name="at" unicode="@" horiz-adv-x="1015" 
d="M617 513h76l-61 -363q-7 -35 -2 -51.5t25 -16.5t45.5 15.5t50.5 44t42 77t17 107.5q0 133 -80.5 210.5t-199.5 77.5q-64 0 -122 -24t-104 -69t-73 -116.5t-27 -159.5q0 -160 92 -251t230 -91q76 0 145.5 27.5t108.5 69.5h87q-50 -77 -145.5 -119.5t-196.5 -42.5
q-167 0 -277 112t-110 301q0 188 110 309t281 121q157 0 252.5 -95t95.5 -251q0 -82 -27 -149t-67.5 -106t-82 -59.5t-75.5 -20.5q-65 0 -74 67q-58 -67 -121 -67q-58 0 -101 53.5t-43 154.5q0 133 57.5 225t140.5 92q39 0 66.5 -19t54.5 -64zM368 201q0 -62 21 -96.5
t58 -34.5q36 0 63 32.5t40.5 80.5t19.5 90t6 74q0 110 -76 110q-44 0 -75 -43.5t-44 -99.5t-13 -113z" />
    <glyph glyph-name="A" unicode="A" horiz-adv-x="458" 
d="M185 256l-18 -167h47v-89h-197v89h46l81 558h-51v89h272v-89h-51l81 -558h46v-89h-197v89h47l-18 167h-88zM192 345h74l-31 328h-12z" />
    <glyph glyph-name="B" unicode="B" horiz-adv-x="427" 
d="M79 89v558h-56v89h164q91 0 143.5 -50.5t52.5 -139.5q0 -67 -30 -108.5t-82 -46.5v-2q59 -10 94 -59.5t35 -122.5q0 -93 -54 -150t-160 -57h-163v89h56zM183 647v-218q24 0 36.5 2.5t28.5 12t23 32.5t7 60q0 66 -21 88.5t-74 22.5zM183 340v-251q57 0 83 29t26 94
q0 37 -8 62.5t-18 38t-27 19.5t-28 7.5t-28 0.5z" />
    <glyph glyph-name="C" unicode="C" horiz-adv-x="406" 
d="M274 262l91 -25q-1 -113 -41 -181t-113 -68q-173 0 -173 372q0 388 150 388q52 0 80 -48h2v36h89v-239h-89q0 154 -66 154q-18 0 -27 -8.5t-15.5 -39.5t-8 -82.5t-1.5 -147.5q0 -91 2.5 -143.5t9.5 -86.5t18.5 -46t30.5 -12q62 0 61 177z" />
    <glyph glyph-name="D" unicode="D" horiz-adv-x="438" 
d="M36 0v89h54v558h-54v89h133q120 0 180 -85t60 -286q0 -188 -58.5 -276.5t-178.5 -88.5h-136zM194 647v-558q56 1 78.5 59t22.5 205q0 169 -21.5 232t-79.5 62z" />
    <glyph glyph-name="E" unicode="E" horiz-adv-x="396" 
d="M23 0v89h54v558h-54v89h339v-215h-89v126h-92v-223h75v-89h-75v-246h92v137h89v-226h-339z" />
    <glyph glyph-name="F" unicode="F" horiz-adv-x="375" 
d="M23 0v89h53v558h-53v89h340v-215h-89v126h-94v-223h77v-89h-77v-246h61v-89h-218z" />
    <glyph glyph-name="G" unicode="G" horiz-adv-x="406" 
d="M212 266v89h158v-67q0 -141 -43 -220.5t-123 -79.5q-52 0 -90 38q-45 45 -60.5 118.5t-15.5 218.5q0 192 34.5 288.5t113.5 96.5q42 0 79 -40v28h89v-239h-89q0 154 -59 154q-17 0 -26.5 -9.5t-16 -40t-9 -83t-2.5 -142.5q0 -98 2 -151.5t8.5 -87t16.5 -43t28 -9.5
q29 0 42 37t13 144h-50z" />
    <glyph glyph-name="H" unicode="H" horiz-adv-x="469" 
d="M183 347v-258h35v-89h-195v89h56v558h-56v89h195v-89h-35v-211h103v211h-35v89h195v-89h-56v-558h56v-89h-195v89h35v258h-103z" />
    <glyph glyph-name="I" unicode="I" horiz-adv-x="260" 
d="M22 0v89h56v558h-56v89h217v-89h-57v-558h57v-89h-217z" />
    <glyph glyph-name="J" unicode="J" horiz-adv-x="260" 
d="M28 647v89h208v-89h-53v-677q0 -144 -122 -144q-21 0 -50 7v86q19 -4 28 -4q23 0 31.5 14t8.5 54v664h-51z" />
    <glyph glyph-name="K" unicode="K" horiz-adv-x="448" 
d="M23 0v89h52v558h-52v89h198v-89h-42v-558h42v-89h-198zM247 0v89h47l-106 291l102 267h-45v89h185v-89h-47l-96 -248l113 -310h48v-89h-201z" />
    <glyph glyph-name="L" unicode="L" horiz-adv-x="375" 
d="M24 0v89h53v558h-53v89h213v-89h-56v-558h90v231h89v-320h-336z" />
    <glyph glyph-name="M" unicode="M" horiz-adv-x="594" 
d="M22 0v89h55v558h-55v89h219l34 -188l18 -193h3l24 192l31 189h220v-89h-55v-558h56v-89h-216v89h55v373l8 198h-10l-33 -252l-70 -408h-31l-68 378l-37 282h-10l6 -197v-374h55v-89h-199z" />
    <glyph glyph-name="N" unicode="N" horiz-adv-x="479" 
d="M26 0v89h50v558h-50v89h163l88 -279l46 -203h3l-11 222v171h-50v89h189v-89h-50v-647h-82l-105 328l-57 231h-3l8 -224v-246h50v-89h-189z" />
    <glyph glyph-name="O" unicode="O" horiz-adv-x="417" 
d="M209 -12q-84 0 -127.5 89.5t-43.5 286.5q0 111 15 190t41 119.5t54 57.5t61 17q26 0 49 -10t45.5 -36.5t39 -68.5t26.5 -111t10 -158q0 -376 -170 -376zM209 85q32 0 44 57.5t12 216.5q0 167 -10.5 229.5t-45.5 62.5q-34 0 -45.5 -61.5t-11.5 -229.5q0 -160 12 -217.5
t45 -57.5z" />
    <glyph glyph-name="P" unicode="P" horiz-adv-x="417" 
d="M84 89v558h-60v89h182q96 0 149.5 -61t53.5 -167q0 -64 -18.5 -109.5t-41.5 -67t-59.5 -33.5t-55.5 -13.5t-46 -1.5v-194h61v-89h-225v89h60zM188 647v-275q26 0 41.5 3t34 15t27.5 42t9 77q0 80 -28 109t-84 29z" />
    <glyph glyph-name="Q" unicode="Q" horiz-adv-x="417" 
d="M116 -70l-30 43q37 27 55 38q-103 54 -103 352q0 191 44.5 288t124.5 97q24 0 46 -8.5t45.5 -33.5t41 -65t28.5 -109.5t11 -159.5q0 -159 -29.5 -253.5t-98.5 -122.5q67 -38 104 -38q9 0 17 1l-22 -87q-35 -3 -69 15t-64.5 38t-55.5 20q-23 0 -45 -15zM209 85
q32 0 44 57.5t12 216.5q0 171 -11 231.5t-46 60.5q-33 0 -44.5 -61.5t-11.5 -229.5q0 -160 12 -217.5t45 -57.5z" />
    <glyph glyph-name="R" unicode="R" horiz-adv-x="448" 
d="M182 334v-245h55v-89h-221v89h62v558h-62v89h184q95 0 148.5 -55.5t53.5 -144.5q0 -116 -88 -173l80 -274h44v-89h-124l-91 337q-15 -3 -41 -3zM182 647v-224q56 0 83.5 25.5t27.5 87.5q0 58 -24 84.5t-87 26.5z" />
    <glyph glyph-name="S" unicode="S" horiz-adv-x="385" 
d="M47 0v253h89v-68q0 -59 12 -83t43 -24q23 0 37.5 19.5t14.5 52.5q0 75 -55 146l-50 63q-57 72 -77.5 118t-20.5 107q0 72 32.5 118t83.5 46q41 0 74 -34v22h89v-220h-89v56q0 86 -49 86q-43 0 -43 -54q0 -66 54 -132l49 -61q104 -129 104 -246q0 -77 -37 -127t-93 -50
q-46 0 -79 35v-23h-89z" />
    <glyph glyph-name="T" unicode="T" horiz-adv-x="427" 
d="M406 736v-269h-78v191h-62v-569h58v-89h-220v89h58v569h-62v-191h-78v269h384z" />
    <glyph glyph-name="U" unicode="U" horiz-adv-x="458" 
d="M17 647v89h199v-89h-39v-472q0 -53 13.5 -75t46.5 -22t46.5 22t13.5 75v472h-38v89h182v-89h-55v-468q0 -100 -45 -145.5t-111 -45.5q-75 0 -116 44.5t-41 112.5v502h-56z" />
    <glyph glyph-name="V" unicode="V" horiz-adv-x="448" 
d="M185 -6l-123 653h-51v89h204v-89h-50q60 -292 64 -451h2q4 143 62 451h-50v89h194v-89h-53l-119 -653h-80z" />
    <glyph glyph-name="W" unicode="W" horiz-adv-x="625" 
d="M167 -6l-113 653h-43v89h188v-89h-43q42 -217 58 -442h2q23 227 59 442h-44v89h174v-89h-43q46 -238 62 -442h2q12 192 56 442h-43v89h174v-89h-41l-108 -653h-83q-55 284 -68 425h-2q-9 -104 -60 -425h-84z" />
    <glyph glyph-name="X" unicode="X" horiz-adv-x="458" 
d="M16 0v89h37l121 277l-125 281h-33v89h184v-89h-39l72 -167l59 167h-38v89h178v-89h-44l-107 -278l123 -280h38v-89h-188v89h39l-73 164l-72 -164h43v-89h-175z" />
    <glyph glyph-name="Y" unicode="Y" horiz-adv-x="438" 
d="M120 0v89h52v236l-119 322h-47v89h199v-89h-48l68 -198h2l63 198h-47v89h189v-89h-47l-109 -313v-245h52v-89h-208z" />
    <glyph glyph-name="Z" unicode="Z" 
d="M25 0v84l187 563h-91v-155h-89v244h287v-89l-188 -558h100v156h89v-245h-295z" />
    <glyph glyph-name="bracketleft" unicode="[" horiz-adv-x="250" 
d="M75 -163v899h153v-62h-61v-775h61v-62h-153z" />
    <glyph glyph-name="backslash" unicode="\" horiz-adv-x="510" 
d="M108 736l357 -736h-63l-357 736h63z" />
    <glyph glyph-name="bracketright" unicode="]" horiz-adv-x="250" 
d="M175 736v-899h-153v62h61v775h-61v62h153z" />
    <glyph glyph-name="asciicircum" unicode="^" horiz-adv-x="469" 
d="M111 345h-85l172 391h72l173 -391h-85l-124 292z" />
    <glyph glyph-name="underscore" unicode="_" horiz-adv-x="500" 
d="M506 -125h-512v50h512v-50z" />
    <glyph glyph-name="grave" unicode="`" horiz-adv-x="333" 
d="M236 573h-68l-109 150h99z" />
    <glyph glyph-name="a" unicode="a" horiz-adv-x="375" 
d="M360 85v-85h-132v44h-2q-30 -50 -83 -50q-49 0 -79.5 44t-30.5 114q0 83 36 122.5t86 39.5q43 0 73 -36v88q0 19 -1 30t-5 24t-14.5 19t-26.5 6q-45 0 -50 -66l-85 24q9 57 46 89.5t92 32.5q56 0 96 -36t40 -106v-298h40zM228 101v113q-21 24 -46 24q-52 0 -52 -83
q0 -81 52 -81q24 0 46 27z" />
    <glyph glyph-name="b" unicode="b" horiz-adv-x="385" 
d="M20 0v85h44v566h-44v85h136v-257h2q33 46 79 46q63 0 88.5 -65.5t25.5 -211.5q0 -254 -116 -254q-47 0 -77 58h-2v-52h-136zM156 338v-135q0 -71 12.5 -97.5t37.5 -26.5q48 0 48 125v87q0 85 -11 119.5t-37 34.5q-50 0 -50 -107z" />
    <glyph glyph-name="c" unicode="c" 
d="M232 187l82 -35q-2 -78 -38 -121t-95 -43q-81 0 -114 64.5t-33 203.5q0 132 27 197.5t92 65.5q48 0 74 -48h2v42h85v-186h-85q0 59 -11 85.5t-39 26.5t-38 -31t-10 -113v-78q0 -82 11.5 -113t38.5 -31q31 0 40.5 27t10.5 87z" />
    <glyph glyph-name="d" unicode="d" horiz-adv-x="375" 
d="M355 0h-136v52h-2q-15 -30 -34 -45q-17 -13 -43 -13q-58 0 -87 68.5t-29 185.5q0 146 25.5 211.5t88.5 65.5q46 0 79 -46h2v172h-59v85h151v-651h44v-85zM219 244v81q0 63 -11.5 91.5t-38.5 28.5q-28 0 -38 -33t-10 -121v-116q0 -96 48 -96q31 0 40.5 31.5t9.5 133.5z
" />
    <glyph glyph-name="e" unicode="e" 
d="M226 155l81 -30q-16 -64 -51 -100.5t-81 -36.5q-76 0 -109 66t-33 198q0 273 141 273q55 0 95 -51.5t40 -164.5v-78h-179v-22q0 -136 47 -136q43 0 49 82zM130 304h87v45q0 96 -44 96q-23 0 -33 -26t-10 -93v-22z" />
    <glyph glyph-name="f" unicode="f" horiz-adv-x="250" 
d="M28 0v85h48v343h-48v85h48v80q0 71 33 113t93 42q84 0 112 -91l-84 -27q0 1 -4 11t-6 14t-8.5 8.5t-15.5 4.5q-17 0 -22.5 -15t-5.5 -60v-80h65v-85h-65v-343h70v-85h-210z" />
    <glyph glyph-name="g" unicode="g" horiz-adv-x="375" 
d="M362 513v-85h-43v-404q0 -95 -46 -146.5t-128 -51.5q-62 0 -113 32l44 64q36 -20 65 -20q85 0 85 102v50h-2q-20 -30 -36.5 -42t-40.5 -12q-115 0 -115 261q0 80 8 133t34 89t71 36q42 0 81 -44v38h136zM227 201v54q0 110 -9.5 147t-40.5 37q-28 0 -38 -36.5t-10 -138.5
q0 -104 10.5 -141.5t37.5 -37.5q50 0 50 116z" />
    <glyph glyph-name="h" unicode="h" horiz-adv-x="375" 
d="M20 0v85h38v566h-38v85h130v-245q39 34 73 34q94 0 94 -147v-293h38v-85h-130v387q0 53 -30 53q-19 0 -45 -25v-330h38v-85h-168z" />
    <glyph glyph-name="i" unicode="i" horiz-adv-x="219" 
d="M68 85v343h-37v85h129v-428h29v-85h-158v85h37zM170 689q0 -25 -17 -42t-42 -17t-42 17t-17 42t17 42t42 17t42 -17t17 -42z" />
    <glyph glyph-name="j" unicode="j" horiz-adv-x="198" 
d="M149 513v-538q0 -77 -35 -114.5t-122 -34.5v85q34 -2 49.5 12t15.5 57v448h-37v85h129zM100 748q25 0 42 -17t17 -42t-17 -42t-42 -17t-42 17t-17 42t17 42t42 17z" />
    <glyph glyph-name="k" unicode="k" horiz-adv-x="365" 
d="M20 0v85h40v566h-40v85h132v-465h2l75 160h-43v82h167v-85h-41l-71 -145l78 -198h38v-85h-99l-104 266h-2v-181h43v-85h-175z" />
    <glyph glyph-name="l" unicode="l" horiz-adv-x="198" 
d="M56 85v566h-36v85h128v-651h30v-85h-158v85h36z" />
    <glyph glyph-name="m" unicode="m" horiz-adv-x="552" 
d="M22 0v85h38v343h-40v85h132v-45h2q32 51 79 51t74 -51q35 51 86 51q97 0 97 -139v-295h38v-85h-130v376q0 33 -6.5 45.5t-23.5 12.5q-29 0 -47 -35v-314h38v-85h-130v376q0 32 -7 45t-24 13q-24 0 -46 -35v-314h38v-85h-168z" />
    <glyph glyph-name="n" unicode="n" horiz-adv-x="385" 
d="M25 0v85h38v343h-40v85h132v-41h2q32 47 78 47q40 0 63.5 -33t23.5 -94v-307h38v-85h-130v378q0 32 -6.5 44t-22.5 12q-27 0 -46 -37v-312h38v-85h-168z" />
    <glyph glyph-name="o" unicode="o" 
d="M34 257q0 130 31.5 199t106.5 69q139 0 139 -269q0 -268 -139 -268q-70 0 -104 64.5t-34 204.5zM131 258q0 -81 4 -120.5t12 -52t25 -12.5q25 0 33.5 37.5t8.5 146.5q0 110 -8.5 146.5t-33.5 36.5q-24 0 -32.5 -36t-8.5 -146z" />
    <glyph glyph-name="p" unicode="p" horiz-adv-x="375" 
d="M14 513h136v-52h2q17 32 34 45q18 13 42 13q61 0 89 -68t28 -209q0 -78 -9 -131t-26 -78.5t-35.5 -35t-43.5 -9.5q-46 0 -79 46h-2v-123h50v-85h-186v85h44v517h-44v85zM150 269v-81q0 -63 11.5 -91.5t38.5 -28.5q25 0 36.5 26.5t11.5 104.5v72q0 93 -10 128t-38 35
q-25 0 -37.5 -35t-12.5 -130z" />
    <glyph glyph-name="q" unicode="q" horiz-adv-x="385" 
d="M371 513v-85h-44v-517h44v-85h-186v85h50v123h-2q-33 -46 -79 -46q-63 0 -88.5 65.5t-25.5 211.5q0 117 29 185.5t87 68.5q47 0 77 -58h2v52h136zM235 188v81q0 98 -10.5 131.5t-39.5 33.5q-26 0 -37 -28.5t-11 -99.5v-69q0 -92 9.5 -130.5t38.5 -38.5q50 0 50 120z" />
    <glyph glyph-name="r" unicode="r" horiz-adv-x="281" 
d="M21 0v85h46v343h-46v85h138v-100h2q25 64 49 85t70 21v-97q-58 3 -89.5 -33.5t-31.5 -104.5v-199h52v-85h-190z" />
    <glyph glyph-name="s" unicode="s" horiz-adv-x="313" 
d="M32 0v177h85q3 -103 43 -103q31 0 31 45q0 34 -13 53t-60 56q-48 38 -69 74t-21 83q0 57 26.5 95.5t65.5 38.5q40 0 65 -44h2v38h85v-168h-85q4 95 -37 95q-30 0 -30 -42q0 -31 13 -51t51 -47q56 -40 77.5 -78t21.5 -93q0 -58 -27.5 -96.5t-69.5 -38.5q-38 0 -67 44h-2
v-38h-85z" />
    <glyph glyph-name="t" unicode="t" horiz-adv-x="250" 
d="M152 428v-301q0 -51 41 -51q14 0 37 9v-80q-31 -11 -73 -11q-52 0 -74.5 32.5t-22.5 100.5v301h-45v85h45v84q47 30 92 67v-151h61v-85h-61z" />
    <glyph glyph-name="u" unicode="u" horiz-adv-x="385" 
d="M322 513v-428h41v-85h-133v41h-2q-32 -47 -78 -47q-87 0 -87 127v307h-42v85h134v-378q0 -32 6.5 -44t22.5 -12q27 0 46 37v312h-45v85h137z" />
    <glyph glyph-name="v" unicode="v" horiz-adv-x="406" 
d="M161 -6l-109 438h-41v81h170v-81h-38l60 -282h2l59 282h-39v81h169v-81h-39l-109 -438h-85z" />
    <glyph glyph-name="w" unicode="w" horiz-adv-x="573" 
d="M140 -6l-90 438h-39v81h161v-81h-35l47 -277h2l59 358h85l67 -358h2l42 277h-39v81h160v-81h-39l-88 -438h-84l-65 359h-2l-63 -359h-81z" />
    <glyph glyph-name="x" unicode="x" horiz-adv-x="333" 
d="M21 0v85h36l61 173l-61 170h-36v85h100l44 -141h2l44 141h91v-85h-37l-57 -158l66 -185h40v-85h-103l-49 158h-2l-51 -158h-88z" />
    <glyph glyph-name="y" unicode="y" horiz-adv-x="406" 
d="M62 -174v81h81l26 102l-118 423h-40v81h172v-81h-40l66 -278h2l64 278h-42v81h161v-81h-35l-149 -606h-148z" />
    <glyph glyph-name="z" unicode="z" 
d="M26 0v100l197 328h-105v-87h-78v172h275v-99l-197 -329h122v94h78v-179h-292z" />
    <glyph glyph-name="braceleft" unicode="{" horiz-adv-x="334" 
d="M41 250v74q46 -2 64 29.5t18 120.5v102q0 84 37 128.5t115 43.5v-71q-51 -4 -64 -28t-13 -116v-70q0 -84 -17 -122t-55 -54q38 -16 55 -54t17 -122v-70q0 -92 13 -116t64 -28v-71q-78 -1 -115 43.5t-37 128.5v102q0 89 -18 120.5t-64 29.5z" />
    <glyph glyph-name="bar" unicode="|" horiz-adv-x="527" 
d="M231 736h65v-831h-65v831z" />
    <glyph glyph-name="braceright" unicode="}" horiz-adv-x="334" 
d="M293 324v-74q-46 2 -64 -29.5t-18 -120.5v-102q0 -84 -37 -128.5t-115 -43.5v71q51 4 64 28t13 116v70q0 84 17 122t55 54q-38 16 -55 54t-17 122v70q0 92 -13 116t-64 28v71q78 1 115 -43.5t37 -128.5v-102q0 -89 18 -120.5t64 -29.5z" />
    <glyph glyph-name="asciitilde" unicode="~" horiz-adv-x="656" 
d="M78 272v100q51 59 135 59q54 0 130 -33q80 -34 108 -34q66 0 128 68v-103q-33 -30 -65 -43t-72 -13q-48 0 -124 34q-74 33 -113 33q-33 0 -60.5 -14.5t-66.5 -53.5z" />
    <glyph glyph-name="uni00A0" unicode="&#xa0;" horiz-adv-x="333" 
 />
    <glyph glyph-name="exclamdown" unicode="&#xa1;" horiz-adv-x="167" 
d="M109 318l25 -310v-231h-101v231l24 310h52zM134 513v-121h-101v121h101z" />
    <glyph glyph-name="cent" unicode="&#xa2;" 
d="M155 -90v81q-68 9 -95 78q-26 62 -26 195q0 124 27.5 189.5t93.5 65.5v81h51v-101q19 -16 28 -42h2v56h78v-186h-85q0 59 -10.5 85.5t-39.5 26.5q-27 0 -37.5 -31t-10.5 -107v-63q0 -99 9.5 -132t40.5 -33q27 0 38.5 26t12.5 88l82 -35q-6 -139 -108 -161v-81h-51z" />
    <glyph glyph-name="sterling" unicode="&#xa3;" horiz-adv-x="396" 
d="M323 406l1 -85h-94q5 -60 5 -71q0 -68 -18 -121q41 -36 74 -36q43 0 43 71q0 12 -3 28h48q1 -10 1 -29q0 -175 -87 -175q-51 0 -105 66q-20 -37 -38 -51.5t-42 -14.5q-35 0 -57.5 30.5t-22.5 76.5q0 44 20.5 71.5t52.5 27.5q27 0 58 -23q3 17 3 25q0 40 -20 125h-103
l-1 85h83q-28 157 -28 187q0 67 36.5 111t91.5 44q66 0 103 -49.5t33 -148.5h-90v38q0 38 -12.5 59t-32.5 21q-37 0 -37 -59t31 -203h107zM147 101q-29 33 -47 33q-31 0 -31 -42q0 -18 9 -29.5t24 -11.5q28 0 45 50z" />
    <glyph glyph-name="currency" unicode="&#xa4;" horiz-adv-x="667" 
d="M89 532l52 52l63 -64q59 42 128 42q71 0 130 -42l64 64l51 -52l-63 -64q41 -61 41 -131q0 -69 -41 -126l63 -63l-51 -51l-64 63q-62 -43 -131 -43q-70 0 -127 43l-63 -63l-52 51l64 63q-42 67 -42 132q0 66 42 125zM333 490q-62 0 -106 -44.5t-44 -106.5t44 -106t106 -44
t106 44t44 106t-44 106.5t-106 44.5z" />
    <glyph glyph-name="yen" unicode="&#xa5;" horiz-adv-x="438" 
d="M172 156h-166v57h166v55h-166v57h166l-119 322h-47v89h199v-89h-48l68 -204h2l63 204h-47v89h189v-89h-47l-109 -322h156v-57h-156v-55h156v-57h-156v-67h52v-89h-208v89h52v67z" />
    <glyph glyph-name="brokenbar" unicode="&#xa6;" horiz-adv-x="527" 
d="M231 736h65v-354h-65v354zM231 259h65v-354h-65v354z" />
    <glyph glyph-name="section" unicode="&#xa7;" 
d="M60 -1h69q-4 -103 43 -103q17 0 27.5 14t10.5 38q0 55 -42 94l-50 46q-84 77 -84 198q0 129 85 187q-57 71 -57 147q0 58 31 93t81 35q113 0 108 -172h-68q3 102 -45 102q-17 0 -26.5 -12.5t-9.5 -34.5q0 -43 24 -76q10 -14 52 -53q56 -52 78.5 -101t22.5 -121
q0 -64 -19.5 -104t-66.5 -72q57 -73 57 -144q0 -61 -30.5 -97.5t-82.5 -36.5q-114 0 -108 173zM179 149q51 42 51 127q0 97 -67 152q-49 -43 -49 -131q0 -103 65 -148z" />
    <glyph glyph-name="dieresis" unicode="&#xa8;" horiz-adv-x="333" 
d="M106 684q19 0 32.5 -13.5t13.5 -32.5t-13.5 -32.5t-32.5 -13.5t-32.5 13.5t-13.5 32.5t13.5 32.5t32.5 13.5zM227 684q19 0 32.5 -13.5t13.5 -32.5t-13.5 -32.5t-32.5 -13.5t-32.5 13.5t-13.5 32.5t13.5 32.5t32.5 13.5z" />
    <glyph glyph-name="copyright" unicode="&#xa9;" horiz-adv-x="738" 
d="M487 297l60 -18q-14 -62 -61.5 -98t-115.5 -36q-89 0 -141.5 57t-52.5 153q0 97 53 152.5t145 55.5q63 0 106.5 -30t59.5 -85l-58 -14q-30 75 -111 75q-58 0 -93 -42t-35 -113q0 -70 33 -110.5t90 -40.5q45 0 78 25.5t43 68.5zM369 725q153 0 260.5 -107.5t107.5 -260.5
t-107.5 -261t-260.5 -108t-261 108t-108 261t108 260.5t261 107.5zM369 49q127 0 217 89.5t90 217.5t-90 218t-217 90t-217.5 -90t-90.5 -218q0 -127 90 -217t218 -90z" />
    <glyph glyph-name="ordfeminine" unicode="&#xaa;" horiz-adv-x="240" 
d="M233 487v-67h-90v13l-15 -7q-21 -10 -36 -10q-32 0 -53 28.5t-21 74.5q0 47 22.5 75.5t59.5 28.5q19 0 43 -17v39q0 23 -5 30.5t-21 7.5q-30 0 -30 -38l-63 15q19 88 94 88q43 0 66.5 -26t23.5 -75v-160h25zM140 491v62q-15 7 -25 7q-28 0 -28 -39t29 -39q12 0 24 9z" />
    <glyph glyph-name="guillemotleft" unicode="&#xab;" horiz-adv-x="365" 
d="M257 0l-85 255l85 258h76l-85 -258l85 -255h-76zM117 0l-85 255l85 258h76l-85 -258l85 -255h-76z" />
    <glyph glyph-name="logicalnot" unicode="&#xac;" horiz-adv-x="667" 
d="M66 485h535v-315h-77v238h-458v77z" />
    <glyph glyph-name="uni00AD" unicode="&#xad;" horiz-adv-x="260" 
d="M27 213v87h206v-87h-206z" />
    <glyph glyph-name="registered" unicode="&#xae;" horiz-adv-x="738" 
d="M208 153v396h169q64 0 100.5 -30t36.5 -77q0 -45 -32.5 -76.5t-81.5 -34.5v-2q36 -9 92 -99l48 -77h-78l-35 62q-37 67 -59 86.5t-59 19.5h-38v-168h-63zM271 376h94q40 0 60 16.5t20 43.5q0 59 -79 59h-95v-119zM369 725q153 0 260.5 -107.5t107.5 -260.5t-107.5 -261
t-260.5 -108t-261 108t-108 261t108 260.5t261 107.5zM369 49q127 0 217 89.5t90 217.5t-90 218t-217 90t-217.5 -90t-90.5 -218q0 -127 90 -217t218 -90z" />
    <glyph glyph-name="macron" unicode="&#xaf;" horiz-adv-x="333" 
d="M29 669h275v-63h-275v63z" />
    <glyph glyph-name="degree" unicode="&#xb0;" horiz-adv-x="400" 
d="M200 748q56 0 95.5 -39.5t39.5 -95.5t-39.5 -96t-95.5 -40t-96 40t-40 96t40 95.5t96 39.5zM200 536q34 0 54.5 21t20.5 56q0 34 -20 54t-55 20t-55.5 -20t-20.5 -54q0 -35 21 -56t55 -21z" />
    <glyph glyph-name="plusminus" unicode="&#xb1;" horiz-adv-x="667" 
d="M66 77h535v-77h-535v77zM295 383h-229v77h229v217h77v-217h229v-77h-229v-217h-77v217z" />
    <glyph glyph-name="twosuperior" unicode="&#xb2;" horiz-adv-x="219" 
d="M197 480v-132h-186v26q0 86 50 144l40 46q27 30 27 79q0 46 -25 46q-29 0 -29 -42q0 -7 5 -44h-62q-6 23 -6 44q0 48 24 74.5t68 26.5q46 0 70.5 -27.5t24.5 -78.5q0 -69 -45 -114l-39 -39q-31 -31 -39 -77h61v68h61z" />
    <glyph glyph-name="threesuperior" unicode="&#xb3;" horiz-adv-x="219" 
d="M81 619h-61q-5 129 83 129q42 0 66 -29.5t24 -80.5q0 -57 -33 -80q22 -16 31 -37t9 -57q0 -58 -24 -90t-68 -32q-97 0 -90 142h63q1 -53 5.5 -68t20.5 -15q13 0 18 11t5 40q0 51 -7.5 62.5t-41.5 13.5v59q32 1 38 8t6 44q0 50 -22 50q-15 0 -19 -13.5t-3 -56.5z" />
    <glyph glyph-name="acute" unicode="&#xb4;" horiz-adv-x="333" 
d="M97 573l78 150h99l-109 -150h-68z" />
    <glyph glyph-name="mu" unicode="&#xb5;" horiz-adv-x="556" 
d="M148 -174v687h92v-377q0 -51 31 -51q26 0 44 37v391h92v-513h-90v41h-2q-7 -23 -20.5 -34.5t-27.5 -11.5t-27 9v-178h-92z" />
    <glyph glyph-name="paragraph" unicode="&#xb6;" horiz-adv-x="538" 
d="M55 531q0 89 59.5 147t182.5 58h209v-74h-50v-836h-74v836h-65v-836h-74v515q-90 4 -139 57t-49 133z" />
    <glyph glyph-name="periodcentered" unicode="&#xb7;" horiz-adv-x="167" 
d="M33 307v121h101v-121h-101z" />
    <glyph glyph-name="cedilla" unicode="&#xb8;" horiz-adv-x="333" 
d="M105 -152l5 53q15 -3 21 -3q40 0 40 33q0 29 -34 29q-7 0 -17 -3l11 29q16 4 28 4q32 0 51 -17.5t19 -48.5q0 -37 -24 -58.5t-65 -21.5q-16 0 -35 4z" />
    <glyph glyph-name="onesuperior" unicode="&#xb9;" horiz-adv-x="219" 
d="M52 348v62h26v247q-14 -6 -26 -7v62q38 13 59 36h33v-338h24v-62h-116z" />
    <glyph glyph-name="ordmasculine" unicode="&#xba;" horiz-adv-x="219" 
d="M18 580q0 168 91 168q92 0 92 -167q0 -168 -91 -168q-92 0 -92 167zM86 580q0 -65 4 -82.5t19 -17.5t19.5 18.5t4.5 82.5q0 65 -4.5 82.5t-19.5 17.5q-9 0 -13.5 -6.5t-7 -28t-2.5 -66.5z" />
    <glyph glyph-name="guillemotright" unicode="&#xbb;" horiz-adv-x="365" 
d="M108 513l85 -257l-85 -256h-76l85 256l-85 257h76zM248 513l85 -257l-85 -256h-76l85 256l-85 257h76z" />
    <glyph glyph-name="onequarter" unicode="&#xbc;" horiz-adv-x="563" 
d="M404 0v62h26v47h-86q-5 27 -23 47l113 243h58v-233h28v-57h-28v-47h22v-62h-110zM430 166v104h-2l-44 -104h46zM64 0l368 736h61l-368 -736h-61zM52 348v62h26v247q-14 -6 -26 -7v62q38 13 59 36h33v-338h24v-62h-116z" />
    <glyph glyph-name="onehalf" unicode="&#xbd;" horiz-adv-x="563" 
d="M540 132v-132h-186v26q0 86 50 144l40 46q27 30 27 79q0 46 -25 46q-29 0 -29 -42q0 -7 5 -44h-62q-6 23 -6 44q0 48 24 74.5t68 26.5q46 0 70.5 -27.5t24.5 -78.5q0 -69 -45 -114l-39 -39q-31 -31 -39 -77h61v68h61zM52 348v62h26v247q-14 -6 -26 -7v62q38 13 59 36h33
v-338h24v-62h-116zM64 0l368 736h61l-368 -736h-61z" />
    <glyph glyph-name="threequarters" unicode="&#xbe;" horiz-adv-x="563" 
d="M404 0v62h26v47h-86q-5 27 -23 47l113 243h58v-233h28v-57h-28v-47h22v-62h-110zM430 166v104h-2l-44 -104h46zM64 0l368 736h61l-368 -736h-61zM81 619h-61q-5 129 83 129q42 0 66 -29.5t24 -80.5q0 -57 -33 -80q22 -16 31 -37t9 -57q0 -58 -24 -90t-68 -32
q-97 0 -90 142h63q1 -53 5.5 -68t20.5 -15q13 0 18 11t5 40q0 51 -7.5 62.5t-41.5 13.5v59q32 1 38 8t6 44q0 50 -22 50q-15 0 -19 -13.5t-3 -56.5z" />
    <glyph glyph-name="questiondown" unicode="&#xbf;" 
d="M132 -23q0 -72 9 -99.5t33 -27.5q23 0 32.5 22t9.5 84v47h93v-47q0 -86 -34.5 -138.5t-101.5 -52.5q-65 0 -101.5 52.5t-36.5 156.5q0 182 103 201l16 135h45l19 -209h-5q-10 2 -21 2q-33 0 -46.5 -28t-13.5 -98zM227 513v-121h-101v121h101z" />
    <glyph glyph-name="Agrave" unicode="&#xc0;" horiz-adv-x="458" 
d="M185 256l-18 -167h47v-89h-197v89h46l81 558h-51v89h272v-89h-51l81 -558h46v-89h-197v89h47l-18 167h-88zM192 345h74l-31 328h-12zM299 780h-68l-109 150h99z" />
    <glyph glyph-name="Aacute" unicode="&#xc1;" horiz-adv-x="458" 
d="M185 256l-18 -167h47v-89h-197v89h46l81 558h-51v89h272v-89h-51l81 -558h46v-89h-197v89h47l-18 167h-88zM192 345h74l-31 328h-12zM160 780l78 150h99l-109 -150h-68z" />
    <glyph glyph-name="Acircumflex" unicode="&#xc2;" horiz-adv-x="458" 
d="M185 256l-18 -167h47v-89h-197v89h46l81 558h-51v89h272v-89h-51l81 -558h46v-89h-197v89h47l-18 167h-88zM192 345h74l-31 328h-12zM119 781l59 150h103l59 -150h-70l-40 77l-41 -77h-70z" />
    <glyph glyph-name="Atilde" unicode="&#xc3;" horiz-adv-x="458" 
d="M185 256l-18 -167h47v-89h-197v89h46l81 558h-51v89h272v-89h-51l81 -558h46v-89h-197v89h47l-18 167h-88zM192 345h74l-31 328h-12zM162 784h-53q0 128 72 128q28 0 55.5 -22t36.5 -22q23 0 24 44h53q4 -55 -18 -91.5t-59 -36.5q-23 0 -53 21.5t-38 21.5q-19 0 -20 -43z
" />
    <glyph glyph-name="Adieresis" unicode="&#xc4;" horiz-adv-x="458" 
d="M185 256l-18 -167h47v-89h-197v89h46l81 558h-51v89h272v-89h-51l81 -558h46v-89h-197v89h47l-18 167h-88zM192 345h74l-31 328h-12zM290 891q19 0 32.5 -13.5t13.5 -32.5t-13.5 -32.5t-32.5 -13.5t-32.5 13.5t-13.5 32.5t13.5 32.5t32.5 13.5zM169 891q19 0 32.5 -13.5
t13.5 -32.5t-13.5 -32.5t-32.5 -13.5t-32.5 13.5t-13.5 32.5t13.5 32.5t32.5 13.5z" />
    <glyph glyph-name="Aring" unicode="&#xc5;" horiz-adv-x="458" 
d="M185 256l-18 -167h47v-89h-197v89h46l81 558h-51v89h272v-89h-51l81 -558h46v-89h-197v89h47l-18 167h-88zM192 345h74l-31 328h-12zM230 930q35 0 59.5 -24.5t24.5 -59.5t-24.5 -60t-59.5 -25t-60 25t-25 60t25 59.5t60 24.5zM229 893q-19 0 -33 -13.5t-14 -33.5t14 -34
t33 -14t33.5 14t14.5 34q0 19 -14 33t-34 14z" />
    <glyph glyph-name="AE" unicode="&#xc6;" horiz-adv-x="604" 
d="M14 0v89h51l107 558h-53v89h455v-215h-89v126h-92v-223h76v-89h-76v-246h92v138h89v-227h-333v89h48v246h-79l-48 -246h48v-89h-196zM226 424h63v240h-23z" />
    <glyph glyph-name="Ccedilla" unicode="&#xc7;" horiz-adv-x="406" 
d="M274 262l91 -25q0 -121 -43 -185t-103 -64v-2q46 -14 46 -64q0 -37 -24 -58.5t-65 -21.5q-16 0 -35 4l5 53q15 -3 21 -3q40 0 40 33q0 29 -34 29q-7 0 -17 -3l11 29q6 2 16 4v2q-74 17 -109.5 105.5t-35.5 264.5q0 388 150 388q52 0 80 -48h2v36h89v-239h-89
q0 154 -66 154q-18 0 -27 -8.5t-15.5 -39.5t-8 -82.5t-1.5 -147.5q0 -91 2.5 -143.5t9.5 -86.5t18.5 -46t30.5 -12q62 0 61 177z" />
    <glyph glyph-name="Egrave" unicode="&#xc8;" horiz-adv-x="396" 
d="M23 0v89h54v558h-54v89h339v-215h-89v126h-92v-223h75v-89h-75v-246h92v137h89v-226h-339zM268 780h-68l-109 150h99z" />
    <glyph glyph-name="Eacute" unicode="&#xc9;" horiz-adv-x="396" 
d="M23 0v89h54v558h-54v89h339v-215h-89v126h-92v-223h75v-89h-75v-246h92v137h89v-226h-339zM129 780l78 150h99l-109 -150h-68z" />
    <glyph glyph-name="Ecircumflex" unicode="&#xca;" horiz-adv-x="396" 
d="M23 0v89h54v558h-54v89h339v-215h-89v126h-92v-223h75v-89h-75v-246h92v137h89v-226h-339zM88 781l59 150h103l59 -150h-70l-40 77l-41 -77h-70z" />
    <glyph glyph-name="Edieresis" unicode="&#xcb;" horiz-adv-x="396" 
d="M23 0v89h54v558h-54v89h339v-215h-89v126h-92v-223h75v-89h-75v-246h92v137h89v-226h-339zM138 891q19 0 32.5 -13.5t13.5 -32.5t-13.5 -32.5t-32.5 -13.5t-32.5 13.5t-13.5 32.5t13.5 32.5t32.5 13.5zM259 891q19 0 32.5 -13.5t13.5 -32.5t-13.5 -32.5t-32.5 -13.5
t-32.5 13.5t-13.5 32.5t13.5 32.5t32.5 13.5z" />
    <glyph glyph-name="Igrave" unicode="&#xcc;" horiz-adv-x="260" 
d="M22 0v89h56v558h-56v89h217v-89h-57v-558h57v-89h-217zM200 780h-68l-109 150h99z" />
    <glyph glyph-name="Iacute" unicode="&#xcd;" horiz-adv-x="260" 
d="M22 0v89h56v558h-56v89h217v-89h-57v-558h57v-89h-217zM61 780l78 150h99l-109 -150h-68z" />
    <glyph glyph-name="Icircumflex" unicode="&#xce;" horiz-adv-x="260" 
d="M22 0v89h56v558h-56v89h217v-89h-57v-558h57v-89h-217zM20 781l59 150h103l59 -150h-70l-40 77l-41 -77h-70z" />
    <glyph glyph-name="Idieresis" unicode="&#xcf;" horiz-adv-x="260" 
d="M22 0v89h56v558h-56v89h217v-89h-57v-558h57v-89h-217zM70 891q19 0 32.5 -13.5t13.5 -32.5t-13.5 -32.5t-32.5 -13.5t-32.5 13.5t-13.5 32.5t13.5 32.5t32.5 13.5zM191 891q19 0 32.5 -13.5t13.5 -32.5t-13.5 -32.5t-32.5 -13.5t-32.5 13.5t-13.5 32.5t13.5 32.5
t32.5 13.5z" />
    <glyph glyph-name="Eth" unicode="&#xd0;" horiz-adv-x="438" 
d="M36 0v89h54v235h-54v89h54v234h-54v89h133q120 0 180 -85t60 -286q0 -188 -58.5 -276.5t-178.5 -88.5h-136zM194 647v-234h58v-89h-58v-235q56 1 78.5 59t22.5 205q0 169 -21.5 232t-79.5 62z" />
    <glyph glyph-name="Ntilde" unicode="&#xd1;" horiz-adv-x="479" 
d="M26 0v89h50v558h-50v89h163l88 -279l46 -203h3l-11 222v171h-50v89h189v-89h-50v-647h-82l-105 328l-57 231h-3l8 -224v-246h50v-89h-189zM172 784h-53q0 128 72 128q28 0 55.5 -22t36.5 -22q23 0 24 44h53q4 -55 -18 -91.5t-59 -36.5q-23 0 -53 21.5t-38 21.5
q-19 0 -20 -43z" />
    <glyph glyph-name="Ograve" unicode="&#xd2;" horiz-adv-x="417" 
d="M209 -12q-84 0 -127.5 89.5t-43.5 286.5q0 111 15 190t41 119.5t54 57.5t61 17q26 0 49 -10t45.5 -36.5t39 -68.5t26.5 -111t10 -158q0 -376 -170 -376zM209 85q32 0 44 57.5t12 216.5q0 167 -10.5 229.5t-45.5 62.5q-34 0 -45.5 -61.5t-11.5 -229.5q0 -160 12 -217.5
t45 -57.5zM278 780h-68l-109 150h99z" />
    <glyph glyph-name="Oacute" unicode="&#xd3;" horiz-adv-x="417" 
d="M209 -12q-84 0 -127.5 89.5t-43.5 286.5q0 111 15 190t41 119.5t54 57.5t61 17q26 0 49 -10t45.5 -36.5t39 -68.5t26.5 -111t10 -158q0 -376 -170 -376zM209 85q32 0 44 57.5t12 216.5q0 167 -10.5 229.5t-45.5 62.5q-34 0 -45.5 -61.5t-11.5 -229.5q0 -160 12 -217.5
t45 -57.5zM139 780l78 150h99l-109 -150h-68z" />
    <glyph glyph-name="Ocircumflex" unicode="&#xd4;" horiz-adv-x="417" 
d="M209 -12q-84 0 -127.5 89.5t-43.5 286.5q0 111 15 190t41 119.5t54 57.5t61 17q26 0 49 -10t45.5 -36.5t39 -68.5t26.5 -111t10 -158q0 -376 -170 -376zM209 85q32 0 44 57.5t12 216.5q0 167 -10.5 229.5t-45.5 62.5q-34 0 -45.5 -61.5t-11.5 -229.5q0 -160 12 -217.5
t45 -57.5zM98 781l59 150h103l59 -150h-70l-40 77l-41 -77h-70z" />
    <glyph glyph-name="Otilde" unicode="&#xd5;" horiz-adv-x="417" 
d="M209 -12q-84 0 -127.5 89.5t-43.5 286.5q0 111 15 190t41 119.5t54 57.5t61 17q26 0 49 -10t45.5 -36.5t39 -68.5t26.5 -111t10 -158q0 -376 -170 -376zM209 85q32 0 44 57.5t12 216.5q0 167 -10.5 229.5t-45.5 62.5q-34 0 -45.5 -61.5t-11.5 -229.5q0 -160 12 -217.5
t45 -57.5zM141 784h-53q0 128 72 128q28 0 55.5 -22t36.5 -22q23 0 24 44h53q4 -55 -18 -91.5t-59 -36.5q-23 0 -53 21.5t-38 21.5q-19 0 -20 -43z" />
    <glyph glyph-name="Odieresis" unicode="&#xd6;" horiz-adv-x="417" 
d="M209 -12q-84 0 -127.5 89.5t-43.5 286.5q0 111 15 190t41 119.5t54 57.5t61 17q26 0 49 -10t45.5 -36.5t39 -68.5t26.5 -111t10 -158q0 -376 -170 -376zM209 85q32 0 44 57.5t12 216.5q0 167 -10.5 229.5t-45.5 62.5q-34 0 -45.5 -61.5t-11.5 -229.5q0 -160 12 -217.5
t45 -57.5zM148 891q19 0 32.5 -13.5t13.5 -32.5t-13.5 -32.5t-32.5 -13.5t-32.5 13.5t-13.5 32.5t13.5 32.5t32.5 13.5zM269 891q19 0 32.5 -13.5t13.5 -32.5t-13.5 -32.5t-32.5 -13.5t-32.5 13.5t-13.5 32.5t13.5 32.5t32.5 13.5z" />
    <glyph glyph-name="multiply" unicode="&#xd7;" horiz-adv-x="668" 
d="M387 326l194 -194l-55 -55l-193 193l-192 -192l-54 54l193 193l-193 193l55 55l192 -192l193 193l54 -54z" />
    <glyph glyph-name="Oslash" unicode="&#xd8;" horiz-adv-x="417" 
d="M154 311l104 256q-11 84 -49 84q-34 0 -45.5 -61.5t-11.5 -229.5v-49h2zM209 -12q-66 0 -105 52l-22 -52l-47 38l34 83q-12 28 -21.5 96.5t-9.5 158.5q0 111 15 190t41 119.5t54 57.5t61 17q64 0 101 -54l22 53l50 -33l-37 -90q34 -77 34 -260q0 -376 -170 -376zM263 431
l-104 -256q7 -52 18 -71t32 -19q32 0 44 57.5t12 216.5v72h-2z" />
    <glyph glyph-name="Ugrave" unicode="&#xd9;" horiz-adv-x="458" 
d="M17 647v89h199v-89h-39v-472q0 -53 13.5 -75t46.5 -22t46.5 22t13.5 75v472h-38v89h182v-89h-55v-468q0 -100 -45 -145.5t-111 -45.5q-75 0 -116 44.5t-41 112.5v502h-56zM299 780h-68l-109 150h99z" />
    <glyph glyph-name="Uacute" unicode="&#xda;" horiz-adv-x="458" 
d="M17 647v89h199v-89h-39v-472q0 -53 13.5 -75t46.5 -22t46.5 22t13.5 75v472h-38v89h182v-89h-55v-468q0 -100 -45 -145.5t-111 -45.5q-75 0 -116 44.5t-41 112.5v502h-56zM160 780l78 150h99l-109 -150h-68z" />
    <glyph glyph-name="Ucircumflex" unicode="&#xdb;" horiz-adv-x="458" 
d="M17 647v89h199v-89h-39v-472q0 -53 13.5 -75t46.5 -22t46.5 22t13.5 75v472h-38v89h182v-89h-55v-468q0 -100 -45 -145.5t-111 -45.5q-75 0 -116 44.5t-41 112.5v502h-56zM119 781l59 150h103l59 -150h-70l-40 77l-41 -77h-70z" />
    <glyph glyph-name="Udieresis" unicode="&#xdc;" horiz-adv-x="458" 
d="M17 647v89h199v-89h-39v-472q0 -53 13.5 -75t46.5 -22t46.5 22t13.5 75v472h-38v89h182v-89h-55v-468q0 -100 -45 -145.5t-111 -45.5q-75 0 -116 44.5t-41 112.5v502h-56zM169 891q19 0 32.5 -13.5t13.5 -32.5t-13.5 -32.5t-32.5 -13.5t-32.5 13.5t-13.5 32.5t13.5 32.5
t32.5 13.5zM290 891q19 0 32.5 -13.5t13.5 -32.5t-13.5 -32.5t-32.5 -13.5t-32.5 13.5t-13.5 32.5t13.5 32.5t32.5 13.5z" />
    <glyph glyph-name="Yacute" unicode="&#xdd;" horiz-adv-x="438" 
d="M120 0v89h52v236l-119 322h-47v89h199v-89h-48l68 -198h2l63 198h-47v89h189v-89h-47l-109 -313v-245h52v-89h-208zM150 780l78 150h99l-109 -150h-68z" />
    <glyph glyph-name="Thorn" unicode="&#xde;" horiz-adv-x="417" 
d="M188 647v-53h18q97 0 150 -60.5t53 -167.5q0 -64 -18.5 -109.5t-42 -67t-60 -33.5t-55 -13.5t-45.5 -1.5v-52h61v-89h-225v89h60v558h-60v89h224v-89h-60zM188 505v-275q58 0 85 28t27 109q0 76 -27 107t-85 31z" />
    <glyph glyph-name="germandbls" unicode="&#xdf;" horiz-adv-x="385" 
d="M22 0v85h43v486q0 177 131 177q56 0 96 -38.5t40 -124.5q0 -108 -72 -134v-2q47 -13 70 -62.5t23 -163.5q0 -119 -34.5 -174t-86.5 -55q-10 0 -19 2v83q29 0 36 22.5t7 122.5q0 112 -12 149t-55 37v69q29 4 41 24t12 67q0 56 -10 77t-35 21q-40 0 -40 -71v-512h27v-85
h-162z" />
    <glyph glyph-name="agrave" unicode="&#xe0;" horiz-adv-x="375" 
d="M360 85v-85h-132v44h-2q-30 -50 -83 -50q-49 0 -79.5 44t-30.5 114q0 83 36 122.5t86 39.5q43 0 73 -36v88q0 19 -1 30t-5 24t-14.5 19t-26.5 6q-45 0 -50 -66l-85 24q9 57 46 89.5t92 32.5q56 0 96 -36t40 -106v-298h40zM228 101v113q-21 24 -46 24q-52 0 -52 -83
q0 -81 52 -81q24 0 46 27zM257 573h-68l-109 150h99z" />
    <glyph glyph-name="aacute" unicode="&#xe1;" horiz-adv-x="375" 
d="M360 85v-85h-132v44h-2q-30 -50 -83 -50q-49 0 -79.5 44t-30.5 114q0 83 36 122.5t86 39.5q43 0 73 -36v88q0 19 -1 30t-5 24t-14.5 19t-26.5 6q-45 0 -50 -66l-85 24q9 57 46 89.5t92 32.5q56 0 96 -36t40 -106v-298h40zM228 101v113q-21 24 -46 24q-52 0 -52 -83
q0 -81 52 -81q24 0 46 27zM118 573l78 150h99l-109 -150h-68z" />
    <glyph glyph-name="acircumflex" unicode="&#xe2;" horiz-adv-x="375" 
d="M360 85v-85h-132v44h-2q-30 -50 -83 -50q-49 0 -79.5 44t-30.5 114q0 83 36 122.5t86 39.5q43 0 73 -36v88q0 19 -1 30t-5 24t-14.5 19t-26.5 6q-45 0 -50 -66l-85 24q9 57 46 89.5t92 32.5q56 0 96 -36t40 -106v-298h40zM228 101v113q-21 24 -46 24q-52 0 -52 -83
q0 -81 52 -81q24 0 46 27zM77 574l59 150h103l59 -150h-70l-40 77l-41 -77h-70z" />
    <glyph glyph-name="atilde" unicode="&#xe3;" horiz-adv-x="375" 
d="M360 85v-85h-132v44h-2q-30 -50 -83 -50q-49 0 -79.5 44t-30.5 114q0 83 36 122.5t86 39.5q43 0 73 -36v88q0 19 -1 30t-5 24t-14.5 19t-26.5 6q-45 0 -50 -66l-85 24q9 57 46 89.5t92 32.5q56 0 96 -36t40 -106v-298h40zM228 101v113q-21 24 -46 24q-52 0 -52 -83
q0 -81 52 -81q24 0 46 27zM120 577h-53q0 128 72 128q28 0 55.5 -22t36.5 -22q23 0 24 44h53q4 -55 -18 -91.5t-59 -36.5q-23 0 -53 21.5t-38 21.5q-19 0 -20 -43z" />
    <glyph glyph-name="adieresis" unicode="&#xe4;" horiz-adv-x="375" 
d="M360 85v-85h-132v44h-2q-30 -50 -83 -50q-49 0 -79.5 44t-30.5 114q0 83 36 122.5t86 39.5q43 0 73 -36v88q0 19 -1 30t-5 24t-14.5 19t-26.5 6q-45 0 -50 -66l-85 24q9 57 46 89.5t92 32.5q56 0 96 -36t40 -106v-298h40zM228 101v113q-21 24 -46 24q-52 0 -52 -83
q0 -81 52 -81q24 0 46 27zM127 684q19 0 32.5 -13.5t13.5 -32.5t-13.5 -32.5t-32.5 -13.5t-32.5 13.5t-13.5 32.5t13.5 32.5t32.5 13.5zM248 684q19 0 32.5 -13.5t13.5 -32.5t-13.5 -32.5t-32.5 -13.5t-32.5 13.5t-13.5 32.5t13.5 32.5t32.5 13.5z" />
    <glyph glyph-name="aring" unicode="&#xe5;" horiz-adv-x="375" 
d="M360 85v-85h-132v44h-2q-30 -50 -83 -50q-49 0 -79.5 44t-30.5 114q0 83 36 122.5t86 39.5q43 0 73 -36v88q0 19 -1 30t-5 24t-14.5 19t-26.5 6q-45 0 -50 -66l-85 24q9 57 46 89.5t92 32.5q56 0 96 -36t40 -106v-298h40zM228 101v113q-21 24 -46 24q-52 0 -52 -83
q0 -81 52 -81q24 0 46 27zM188 723q35 0 59.5 -24.5t24.5 -59.5t-24.5 -60t-59.5 -25t-60 25t-25 60t25 59.5t60 24.5zM187 686q-19 0 -33 -14t-14 -33q0 -20 14 -34t33 -14t33.5 14.5t14.5 33.5t-14 33t-34 14z" />
    <glyph glyph-name="ae" unicode="&#xe6;" horiz-adv-x="521" 
d="M215 276v108q0 61 -40 61q-21 0 -31.5 -15.5t-15.5 -50.5l-88 26q5 57 40.5 88.5t94.5 31.5q56 0 96 -33q35 33 78 33q64 0 101 -59t37 -158v-78h-180q0 -84 10.5 -120.5t37.5 -36.5q43 0 46 82l85 -29q-17 -65 -53 -101.5t-83 -36.5q-68 0 -108 72q-52 -72 -102 -72
q-49 0 -78.5 45t-29.5 119q0 73 31.5 117.5t81.5 44.5q47 0 68 -38h2zM215 96v119q-18 22 -38 22q-48 0 -48 -88q0 -81 46 -81q24 0 40 28zM307 303h87v43q0 55 -11 77t-33 22q-43 0 -43 -86v-56z" />
    <glyph glyph-name="ccedilla" unicode="&#xe7;" 
d="M232 187l82 -35q0 -75 -37.5 -119.5t-90.5 -44.5v-2q22 -5 35.5 -22t13.5 -42q0 -37 -24 -58.5t-65 -21.5q-16 0 -35 4l5 53q15 -3 21 -3q40 0 40 33q0 29 -34 29q-7 0 -17 -3l11 29q15 4 21 4v2q-67 7 -95.5 72.5t-28.5 193.5q0 132 27 197.5t92 65.5q48 0 74 -48h2v42
h85v-186h-85q0 59 -11 85.5t-39 26.5t-38 -31t-10 -113v-78q0 -82 11.5 -113t38.5 -31q31 0 40.5 27t10.5 87z" />
    <glyph glyph-name="egrave" unicode="&#xe8;" 
d="M226 155l81 -30q-16 -64 -51 -100.5t-81 -36.5q-76 0 -109 66t-33 198q0 273 141 273q55 0 95 -51.5t40 -164.5v-78h-179v-22q0 -136 47 -136q43 0 49 82zM130 304h87v45q0 96 -44 96q-23 0 -33 -26t-10 -93v-22zM242 573h-68l-109 150h99z" />
    <glyph glyph-name="eacute" unicode="&#xe9;" 
d="M226 155l81 -30q-16 -64 -51 -100.5t-81 -36.5q-76 0 -109 66t-33 198q0 273 141 273q55 0 95 -51.5t40 -164.5v-78h-179v-22q0 -136 47 -136q43 0 49 82zM130 304h87v45q0 96 -44 96q-23 0 -33 -26t-10 -93v-22zM103 573l78 150h99l-109 -150h-68z" />
    <glyph glyph-name="ecircumflex" unicode="&#xea;" 
d="M226 155l81 -30q-16 -64 -51 -100.5t-81 -36.5q-76 0 -109 66t-33 198q0 273 141 273q55 0 95 -51.5t40 -164.5v-78h-179v-22q0 -136 47 -136q43 0 49 82zM130 304h87v45q0 96 -44 96q-23 0 -33 -26t-10 -93v-22zM62 574l59 150h103l59 -150h-70l-40 77l-41 -77h-70z" />
    <glyph glyph-name="edieresis" unicode="&#xeb;" 
d="M226 155l81 -30q-16 -64 -51 -100.5t-81 -36.5q-76 0 -109 66t-33 198q0 273 141 273q55 0 95 -51.5t40 -164.5v-78h-179v-22q0 -136 47 -136q43 0 49 82zM130 304h87v45q0 96 -44 96q-23 0 -33 -26t-10 -93v-22zM112 684q19 0 32.5 -13.5t13.5 -32.5t-13.5 -32.5
t-32.5 -13.5t-32.5 13.5t-13.5 32.5t13.5 32.5t32.5 13.5zM233 684q19 0 32.5 -13.5t13.5 -32.5t-13.5 -32.5t-32.5 -13.5t-32.5 13.5t-13.5 32.5t13.5 32.5t32.5 13.5z" />
    <glyph glyph-name="igrave" unicode="&#xec;" horiz-adv-x="219" 
d="M31 0v85h37v343h-37v85h129v-428h29v-85h-158zM179 573h-68l-109 150h99z" />
    <glyph glyph-name="iacute" unicode="&#xed;" horiz-adv-x="219" 
d="M31 0v85h37v343h-37v85h129v-428h29v-85h-158zM40 573l78 150h99l-109 -150h-68z" />
    <glyph glyph-name="icircumflex" unicode="&#xee;" horiz-adv-x="219" 
d="M31 0v85h37v343h-37v85h129v-428h29v-85h-158zM-1 574l59 150h103l59 -150h-70l-40 77l-41 -77h-70z" />
    <glyph glyph-name="idieresis" unicode="&#xef;" horiz-adv-x="219" 
d="M31 0v85h37v343h-37v85h129v-428h29v-85h-158zM49 684q19 0 32.5 -13.5t13.5 -32.5t-13.5 -32.5t-32.5 -13.5t-32.5 13.5t-13.5 32.5t13.5 32.5t32.5 13.5zM170 684q19 0 32.5 -13.5t13.5 -32.5t-13.5 -32.5t-32.5 -13.5t-32.5 13.5t-13.5 32.5t13.5 32.5t32.5 13.5z" />
    <glyph glyph-name="eth" unicode="&#xf0;" horiz-adv-x="347" 
d="M67 601l74 52q-28 37 -52 54l53 41q28 -17 61 -52l74 52l25 -31l-74 -52q83 -107 83 -359q0 -75 -6 -129t-21 -99t-43.5 -67.5t-70.5 -22.5q-136 0 -136 262q0 275 117 275q30 0 55 -18l1 2q-17 71 -44 111l-71 -50zM131 258q-1 -116 7.5 -150.5t33.5 -34.5t33.5 37.5
t8.5 146.5q0 110 -8.5 146.5t-33.5 36.5q-24 0 -32 -35.5t-9 -146.5z" />
    <glyph glyph-name="ntilde" unicode="&#xf1;" horiz-adv-x="385" 
d="M25 0v85h38v343h-40v85h132v-41h2q32 47 78 47q40 0 63.5 -33t23.5 -94v-307h38v-85h-130v378q0 32 -6.5 44t-22.5 12q-27 0 -46 -37v-312h38v-85h-168zM125 577h-53q0 128 72 128q28 0 55.5 -22t36.5 -22q23 0 24 44h53q4 -55 -18 -91.5t-59 -36.5q-23 0 -53 21.5
t-38 21.5q-19 0 -20 -43z" />
    <glyph glyph-name="ograve" unicode="&#xf2;" 
d="M34 257q0 130 31.5 199t106.5 69q139 0 139 -269q0 -268 -139 -268q-70 0 -104 64.5t-34 204.5zM131 258q0 -81 4 -120.5t12 -52t25 -12.5q25 0 33.5 37.5t8.5 146.5q0 110 -8.5 146.5t-33.5 36.5q-24 0 -32.5 -36t-8.5 -146zM242 573h-68l-109 150h99z" />
    <glyph glyph-name="oacute" unicode="&#xf3;" 
d="M34 257q0 130 31.5 199t106.5 69q139 0 139 -269q0 -268 -139 -268q-70 0 -104 64.5t-34 204.5zM131 258q0 -81 4 -120.5t12 -52t25 -12.5q25 0 33.5 37.5t8.5 146.5q0 110 -8.5 146.5t-33.5 36.5q-24 0 -32.5 -36t-8.5 -146zM103 573l78 150h99l-109 -150h-68z" />
    <glyph glyph-name="ocircumflex" unicode="&#xf4;" 
d="M34 257q0 130 31.5 199t106.5 69q139 0 139 -269q0 -268 -139 -268q-70 0 -104 64.5t-34 204.5zM131 258q0 -81 4 -120.5t12 -52t25 -12.5q25 0 33.5 37.5t8.5 146.5q0 110 -8.5 146.5t-33.5 36.5q-24 0 -32.5 -36t-8.5 -146zM62 574l59 150h103l59 -150h-70l-40 77
l-41 -77h-70z" />
    <glyph glyph-name="otilde" unicode="&#xf5;" 
d="M34 257q0 130 31.5 199t106.5 69q139 0 139 -269q0 -268 -139 -268q-70 0 -104 64.5t-34 204.5zM131 258q0 -81 4 -120.5t12 -52t25 -12.5q25 0 33.5 37.5t8.5 146.5q0 110 -8.5 146.5t-33.5 36.5q-24 0 -32.5 -36t-8.5 -146zM105 577h-53q0 128 72 128q28 0 55.5 -22
t36.5 -22q23 0 24 44h53q4 -55 -18 -91.5t-59 -36.5q-23 0 -53 21.5t-38 21.5q-19 0 -20 -43z" />
    <glyph glyph-name="odieresis" unicode="&#xf6;" 
d="M34 257q0 130 31.5 199t106.5 69q139 0 139 -269q0 -268 -139 -268q-70 0 -104 64.5t-34 204.5zM131 258q0 -81 4 -120.5t12 -52t25 -12.5q25 0 33.5 37.5t8.5 146.5q0 110 -8.5 146.5t-33.5 36.5q-24 0 -32.5 -36t-8.5 -146zM112 684q19 0 32.5 -13.5t13.5 -32.5
t-13.5 -32.5t-32.5 -13.5t-32.5 13.5t-13.5 32.5t13.5 32.5t32.5 13.5zM233 684q19 0 32.5 -13.5t13.5 -32.5t-13.5 -32.5t-32.5 -13.5t-32.5 13.5t-13.5 32.5t13.5 32.5t32.5 13.5z" />
    <glyph glyph-name="divide" unicode="&#xf7;" horiz-adv-x="668" 
d="M66 365h534v-77h-534v77zM333 172q20 0 34 -14t14 -34t-14 -34t-34 -14t-34 14t-14 34t14 34t34 14zM333 577q20 0 34 -14t14 -34t-14 -34t-34 -14t-34 14t-14 34t14 34t34 14z" />
    <glyph glyph-name="oslash" unicode="&#xf8;" 
d="M133 210l74 184q-5 46 -35 46q-25 0 -33 -34.5t-8 -147.5v-48h2zM34 257q0 130 31.5 199t106.5 69q51 0 85 -36l9 24h45l-27 -70q27 -67 27 -187q0 -268 -139 -268q-32 0 -49 8.5t-34 29.5l-10 -26h-45l27 67q-4 8 -9.5 28t-11.5 65t-6 97zM212 309l-76 -190
q2 -25 13 -35.5t23 -10.5q25 0 33.5 37.5t8.5 146.5v52h-2z" />
    <glyph glyph-name="ugrave" unicode="&#xf9;" horiz-adv-x="385" 
d="M322 513v-428h41v-85h-133v41h-2q-32 -47 -78 -47q-87 0 -87 127v307h-42v85h134v-378q0 -32 6.5 -44t22.5 -12q27 0 46 37v312h-45v85h137zM262 573h-68l-109 150h99z" />
    <glyph glyph-name="uacute" unicode="&#xfa;" horiz-adv-x="385" 
d="M322 513v-428h41v-85h-133v41h-2q-32 -47 -78 -47q-87 0 -87 127v307h-42v85h134v-378q0 -32 6.5 -44t22.5 -12q27 0 46 37v312h-45v85h137zM123 573l78 150h99l-109 -150h-68z" />
    <glyph glyph-name="ucircumflex" unicode="&#xfb;" horiz-adv-x="385" 
d="M322 513v-428h41v-85h-133v41h-2q-32 -47 -78 -47q-87 0 -87 127v307h-42v85h134v-378q0 -32 6.5 -44t22.5 -12q27 0 46 37v312h-45v85h137zM82 574l59 150h103l59 -150h-70l-40 77l-41 -77h-70z" />
    <glyph glyph-name="udieresis" unicode="&#xfc;" horiz-adv-x="385" 
d="M322 513v-428h41v-85h-133v41h-2q-32 -47 -78 -47q-87 0 -87 127v307h-42v85h134v-378q0 -32 6.5 -44t22.5 -12q27 0 46 37v312h-45v85h137zM132 684q19 0 32.5 -13.5t13.5 -32.5t-13.5 -32.5t-32.5 -13.5t-32.5 13.5t-13.5 32.5t13.5 32.5t32.5 13.5zM253 684
q19 0 32.5 -13.5t13.5 -32.5t-13.5 -32.5t-32.5 -13.5t-32.5 13.5t-13.5 32.5t13.5 32.5t32.5 13.5z" />
    <glyph glyph-name="yacute" unicode="&#xfd;" horiz-adv-x="406" 
d="M62 -174v81h81l26 102l-118 423h-40v81h172v-81h-40l66 -278h2l64 278h-42v81h161v-81h-35l-149 -606h-148zM134 573l78 150h99l-109 -150h-68z" />
    <glyph glyph-name="thorn" unicode="&#xfe;" horiz-adv-x="367" 
d="M14 -174v85h44v740h-44v85h136v-274l2 -1q17 32 34 45q18 13 42 13q61 0 89 -68t28 -209q0 -78 -9 -131t-26 -78.5t-35.5 -35t-43.5 -9.5q-46 0 -79 46h-2v-123h50v-85h-186zM150 269v-81q0 -63 11.5 -91.5t38.5 -28.5q25 0 36.5 26.5t11.5 104.5v72q0 93 -10 128t-38 35
q-25 0 -37.5 -35t-12.5 -130z" />
    <glyph glyph-name="ydieresis" unicode="&#xff;" horiz-adv-x="406" 
d="M62 -174v81h81l26 102l-118 423h-40v81h172v-81h-40l66 -278h2l64 278h-42v81h161v-81h-35l-149 -606h-148zM143 684q19 0 32.5 -13.5t13.5 -32.5t-13.5 -32.5t-32.5 -13.5t-32.5 13.5t-13.5 32.5t13.5 32.5t32.5 13.5zM264 684q19 0 32.5 -13.5t13.5 -32.5t-13.5 -32.5
t-32.5 -13.5t-32.5 13.5t-13.5 32.5t13.5 32.5t32.5 13.5z" />
    <glyph glyph-name="dotlessi" unicode="&#x131;" horiz-adv-x="219" 
d="M31 0v85h37v343h-37v85h129v-428h29v-85h-158z" />
    <glyph glyph-name="Lslash" unicode="&#x141;" horiz-adv-x="375" 
d="M24 0v89h53v206l-53 -53v88l53 53v264h-53v89h213v-89h-56v-181l107 107v-88l-107 -107v-289h90v231h89v-320h-336z" />
    <glyph glyph-name="lslash" unicode="&#x142;" horiz-adv-x="198" 
d="M20 0v85h36v240l-50 -50v86l50 50v240h-36v85h128v-256l50 50v-86l-50 -50v-309h30v-85h-158z" />
    <glyph glyph-name="OE" unicode="&#x152;" horiz-adv-x="573" 
d="M530 0h-263q-121 0 -179 87t-58 280q0 192 57 280.5t177 88.5h266v-215h-89v126h-91v-223h76v-89h-76v-246h91v138h89v-227zM246 647q-59 2 -80.5 -59t-21.5 -220q0 -158 22 -218.5t80 -60.5v558z" />
    <glyph glyph-name="oe" unicode="&#x153;" horiz-adv-x="521" 
d="M402 157l82 -31q-16 -66 -50.5 -102t-81.5 -36q-49 0 -86 41q-41 -41 -92 -41q-77 0 -109 72t-32 203q0 128 33.5 195t109.5 67q49 0 90 -41q38 41 88 41q58 0 95.5 -54.5t37.5 -162.5v-78h-180q-1 -88 10.5 -122.5t39.5 -34.5q40 0 45 84zM219 259q0 116 -8 148.5
t-36 32.5t-36.5 -36.5t-8.5 -144.5q0 -112 9 -149t35 -37q27 0 36 37.5t9 148.5zM307 303h87v43q0 55 -11 77t-33 22q-43 0 -43 -86v-56z" />
    <glyph glyph-name="Scaron" unicode="&#x160;" horiz-adv-x="385" 
d="M47 0v253h89v-68q0 -59 12 -83t43 -24q23 0 37.5 19.5t14.5 52.5q0 75 -55 146l-50 63q-57 72 -77.5 118t-20.5 107q0 72 32.5 118t83.5 46q41 0 74 -34v22h89v-220h-89v56q0 86 -49 86q-43 0 -43 -54q0 -66 54 -132l49 -61q104 -129 104 -246q0 -77 -37 -127t-93 -50
q-46 0 -79 35v-23h-89zM303 931l-59 -150h-103l-59 150h70l40 -77l41 77h70z" />
    <glyph glyph-name="scaron" unicode="&#x161;" horiz-adv-x="313" 
d="M32 0v177h85q3 -103 43 -103q31 0 31 45q0 34 -13 53t-60 56q-48 38 -69 74t-21 83q0 57 26.5 95.5t65.5 38.5q40 0 65 -44h2v38h85v-168h-85q4 95 -37 95q-30 0 -30 -42q0 -31 13 -51t51 -47q56 -40 77.5 -78t21.5 -93q0 -58 -27.5 -96.5t-69.5 -38.5q-38 0 -67 44h-2
v-38h-85zM267 724l-59 -150h-103l-59 150h70l40 -77l41 77h70z" />
    <glyph glyph-name="Ydieresis" unicode="&#x178;" horiz-adv-x="438" 
d="M120 0v89h52v236l-119 322h-47v89h199v-89h-48l68 -198h2l63 198h-47v89h189v-89h-47l-109 -313v-245h52v-89h-208zM159 891q19 0 32.5 -13.5t13.5 -32.5t-13.5 -32.5t-32.5 -13.5t-32.5 13.5t-13.5 32.5t13.5 32.5t32.5 13.5zM280 891q19 0 32.5 -13.5t13.5 -32.5
t-13.5 -32.5t-32.5 -13.5t-32.5 13.5t-13.5 32.5t13.5 32.5t32.5 13.5z" />
    <glyph glyph-name="Zcaron" unicode="&#x17d;" 
d="M25 0v84l187 563h-91v-155h-89v244h287v-89l-188 -558h100v156h89v-245h-295zM283 931l-59 -150h-103l-59 150h70l40 -77l41 77h70z" />
    <glyph glyph-name="zcaron" unicode="&#x17e;" 
d="M26 0v100l197 328h-105v-87h-78v172h275v-99l-197 -329h122v94h78v-179h-292zM283 724l-59 -150h-103l-59 150h70l40 -77l41 77h70z" />
    <glyph glyph-name="florin" unicode="&#x192;" horiz-adv-x="556" 
d="M24 -162l17 76q50 -10 75 -10q29 0 42 16t20 57l86 492h-97l11 68h98l14 77q13 72 44.5 103t90.5 31q58 0 107 -20l-17 -74q-51 12 -76 12q-30 0 -42.5 -15.5t-21.5 -63.5l-9 -50h100l-12 -68h-100l-93 -516q-12 -68 -41 -97.5t-85 -29.5q-48 0 -111 12z" />
    <glyph glyph-name="circumflex" unicode="&#x2c6;" horiz-adv-x="333" 
d="M56 574l59 150h103l59 -150h-70l-40 77l-41 -77h-70z" />
    <glyph glyph-name="caron" unicode="&#x2c7;" horiz-adv-x="333" 
d="M277 724l-59 -150h-103l-59 150h70l40 -77l41 77h70z" />
    <glyph glyph-name="uni02C9" unicode="&#x2c9;" horiz-adv-x="333" 
d="M29 669h275v-63h-275v63z" />
    <glyph glyph-name="breve" unicode="&#x2d8;" horiz-adv-x="333" 
d="M228 727h58q-2 -68 -34.5 -109.5t-84.5 -41.5t-85 41.5t-35 109.5h58q6 -72 62 -72q55 0 61 72z" />
    <glyph glyph-name="dotaccent" unicode="&#x2d9;" horiz-adv-x="333" 
d="M167 684q19 0 32.5 -13.5t13.5 -32.5t-13.5 -32.5t-32.5 -13.5t-32.5 13.5t-13.5 32.5t13.5 32.5t32.5 13.5z" />
    <glyph glyph-name="ring" unicode="&#x2da;" horiz-adv-x="333" 
d="M167 723q35 0 59.5 -24.5t24.5 -59.5t-24.5 -60t-59.5 -25t-60 25t-25 60t25 59.5t60 24.5zM166 686q-20 0 -33.5 -14t-13.5 -33q0 -20 14 -34t33 -14q20 0 34 14.5t14 33.5t-14 33t-34 14z" />
    <glyph glyph-name="ogonek" unicode="&#x2db;" horiz-adv-x="333" 
d="M136 0h69q-17 -31 -17 -61q0 -54 47 -54q16 0 36 8v-56q-41 -19 -73 -19q-39 0 -63 24.5t-24 64.5q0 36 25 93z" />
    <glyph glyph-name="tilde" unicode="&#x2dc;" horiz-adv-x="333" 
d="M99 577h-53q0 128 72 128q28 0 55.5 -22t36.5 -22q23 0 24 44h53q4 -55 -18 -91.5t-59 -36.5q-23 0 -53 21.5t-38 21.5q-19 0 -20 -43z" />
    <glyph glyph-name="hungarumlaut" unicode="&#x2dd;" horiz-adv-x="333" 
d="M183 572l78 150h99l-109 -150h-68zM50 572l78 150h99l-109 -150h-68z" />
    <glyph glyph-name="uni03A9" unicode="&#x3a9;" horiz-adv-x="450" 
d="M115 80v4q-80 138 -80 323q0 151 53.5 244t139.5 93q88 0 135.5 -95.5t47.5 -233.5q0 -97 -23.5 -185.5t-56.5 -145.5v-4h90v-80h-166v58q30 42 50 130.5t20 201.5q-1 112 -25 190.5t-75 78.5q-49 0 -76.5 -74.5t-27.5 -196.5q0 -104 21 -197.5t49 -132.5v-58h-166v80h90
z" />
    <glyph glyph-name="uni03BC" unicode="&#x3bc;" horiz-adv-x="556" 
d="M148 -174v687h92v-377q0 -51 31 -51q26 0 44 37v391h92v-513h-90v41h-2q-7 -23 -20.5 -34.5t-27.5 -11.5t-27 9v-178h-92z" />
    <glyph glyph-name="pi" unicode="&#x3c0;" horiz-adv-x="410" 
d="M389 464h-46v-330q0 -92 9 -134h-80q-14 37 -14 134v330h-93q-3 -107 -15.5 -243.5t-31.5 -220.5h-81q19 91 31.5 226.5t13.5 237.5q-38 0 -62 -8l-11 64q31 29 111 29h275z" />
    <glyph glyph-name="uni2010" unicode="&#x2010;" horiz-adv-x="260" 
d="M27 213v87h206v-87h-206z" />
    <glyph glyph-name="endash" unicode="&#x2013;" horiz-adv-x="500" 
d="M509 285v-64h-518v64h518z" />
    <glyph glyph-name="emdash" unicode="&#x2014;" horiz-adv-x="1000" 
d="M1009 285v-64h-1018v64h1018z" />
    <glyph glyph-name="quoteleft" unicode="&#x2018;" horiz-adv-x="167" 
d="M134 571v-121h-101v121q0 66 26.5 111t83.5 54v-50q-49 -17 -49 -115h40z" />
    <glyph glyph-name="quoteright" unicode="&#x2019;" horiz-adv-x="167" 
d="M33 615v121h101v-121q0 -66 -26.5 -111t-83.5 -54v50q49 17 49 115h-40z" />
    <glyph glyph-name="quotesinglbase" unicode="&#x201a;" horiz-adv-x="167" 
d="M33 0v121h101v-121q0 -66 -26.5 -111t-83.5 -54v50q49 17 49 115h-40z" />
    <glyph glyph-name="quotedblleft" unicode="&#x201c;" horiz-adv-x="333" 
d="M295 571v-121h-101v121q0 66 26.5 111t83.5 54v-50q-49 -17 -49 -115h40zM130 571v-121h-101v121q0 66 26.5 111t83.5 54v-50q-49 -17 -49 -115h40z" />
    <glyph glyph-name="quotedblright" unicode="&#x201d;" horiz-adv-x="333" 
d="M203 615v121h101v-121q0 -66 -26.5 -111t-83.5 -54v50q49 17 49 115h-40zM38 615v121h101v-121q0 -66 -26.5 -111t-83.5 -54v50q49 17 49 115h-40z" />
    <glyph glyph-name="quotedblbase" unicode="&#x201e;" horiz-adv-x="333" 
d="M203 0v121h101v-121q0 -66 -26.5 -111t-83.5 -54v50q49 17 49 115h-40zM38 0v121h101v-121q0 -66 -26.5 -111t-83.5 -54v50q49 17 49 115h-40z" />
    <glyph glyph-name="dagger" unicode="&#x2020;" 
d="M154 -159l-30 370v99q28 55 30 143q-47 -4 -78 -26h-50v86h50q34 -21 78 -23q3 86 -30 151v95h97v-95q-31 -64 -30 -151q44 2 78 23h50v-86h-50q-31 22 -78 26q8 -90 30 -143v-99l-30 -370h-37z" />
    <glyph glyph-name="daggerdbl" unicode="&#x2021;" 
d="M220 736v-101q-25 -37 -30 -122q39 5 64 25h55v-88h-55q-25 24 -64 24q3 -137 45 -189q-23 -23 -33 -65.5t-12 -116.5q39 0 64 24h55v-88h-55q-26 20 -64 25q5 -85 30 -122v-101h-97v101q26 37 30 122q-38 -5 -63 -25h-56v88h56q25 -24 63 -24q1 132 -44 182
q47 54 44 189q-38 0 -63 -24h-56v88h56q25 -20 63 -25q-4 84 -30 122v101h97z" />
    <glyph glyph-name="bullet" unicode="&#x2022;" horiz-adv-x="350" 
d="M176 453q51 0 86.5 -35.5t35.5 -86.5t-35.5 -87t-86.5 -36t-87 36t-36 87t36 86.5t87 35.5z" />
    <glyph glyph-name="ellipsis" unicode="&#x2026;" horiz-adv-x="1000" 
d="M450 0v121h101v-121h-101zM116 0v121h101v-121h-101zM784 0v121h101v-121h-101z" />
    <glyph glyph-name="perthousand" unicode="&#x2030;" horiz-adv-x="781" 
d="M670 -6q-29 0 -48 17t-28 48.5t-12.5 63.5t-3.5 74q0 203 92 203q93 0 93 -203q0 -94 -20 -148.5t-73 -54.5zM648 253v-111q0 -38 2.5 -57.5t7 -25.5t12.5 -6t12.5 6.5t7.5 27t3 57.5v106q0 53 -5.5 72t-17.5 19t-17 -18.5t-5 -69.5zM455 -6q-29 0 -48 17t-28 48.5
t-12.5 63.5t-3.5 74q0 203 92 203q93 0 93 -203q0 -94 -20 -148.5t-73 -54.5zM433 253v-111q0 -38 2.5 -57.5t7 -25.5t12.5 -6t12.5 6.5t7.5 27t3 57.5v106q0 53 -5.5 72t-17.5 19t-17 -18.5t-5 -69.5zM109 342q-29 0 -48 17t-28 48.5t-12.5 63.5t-3.5 74q0 203 92 203
q93 0 93 -203q0 -94 -20 -148.5t-73 -54.5zM87 601v-111q0 -38 2.5 -57.5t7 -25.5t12.5 -6t12.5 6.5t7.5 27t3 57.5v106q0 53 -5.5 72t-17.5 19t-17 -18.5t-5 -69.5zM72 0l368 736h61l-368 -736h-61z" />
    <glyph glyph-name="guilsinglleft" unicode="&#x2039;" horiz-adv-x="229" 
d="M119 0l-85 255l85 258h77l-86 -258l86 -255h-77z" />
    <glyph glyph-name="guilsinglright" unicode="&#x203a;" horiz-adv-x="229" 
d="M110 513l85 -257l-85 -256h-77l86 256l-86 257h77z" />
    <glyph glyph-name="fraction" unicode="&#x2044;" horiz-adv-x="135" 
d="M-147 0l368 736h61l-368 -736h-61z" />
    <glyph glyph-name="Euro" unicode="&#x20ac;" horiz-adv-x="406" 
d="M378 197q-4 -24 -5.5 -31t-8.5 -35.5t-13.5 -42t-19 -36.5t-26 -34.5t-34 -21t-44.5 -9.5q-48 0 -83.5 25.5t-54 67t-27 84.5t-8.5 87h-44v70h42v19.5v21v15.5h-42v70h42q9 135 54 199.5t99 64.5q53 0 73 -46h2v38h86v-207h-87q1 65 -14 89.5t-42 24.5q-18 0 -30 -16
t-17.5 -48t-7 -49.5t-2.5 -49.5h126v-70h-128v-56h128v-70h-125q0 -21 1.5 -44.5t7 -52t18.5 -47t32 -18.5q26 0 38.5 29t21.5 94z" />
    <glyph glyph-name="afii61289" unicode="&#x2113;" horiz-adv-x="352" 
d="M306 142l34 -36q-45 -114 -132 -114q-133 0 -129 195v16q-6 -7 -19.5 -20.5t-19.5 -20.5l-22 50q37 38 61 72v281q0 123 35.5 182.5t89.5 59.5q43 0 66 -44.5t23 -122.5q0 -172 -131 -359v-59q0 -84 15.5 -120.5t47.5 -36.5q24 0 43 21t38 56zM162 550v-174
q84 144 84 272q0 86 -39 86q-45 0 -45 -184z" />
    <glyph glyph-name="trademark" unicode="&#x2122;" horiz-adv-x="1000" 
d="M618 463l71 273h115v-399h-71v318h-2l-82 -318h-64l-82 318h-2v-318h-71v399h115l71 -273h2zM106 736h290v-63h-110v-336h-71v336h-109v63z" />
    <glyph glyph-name="Omega" unicode="&#x2126;" horiz-adv-x="450" 
d="M115 80v4q-80 138 -80 323q0 151 53.5 244t139.5 93q88 0 135.5 -95.5t47.5 -233.5q0 -97 -23.5 -185.5t-56.5 -145.5v-4h90v-80h-166v58q30 42 50 130.5t20 201.5q-1 112 -25 190.5t-75 78.5q-49 0 -76.5 -74.5t-27.5 -196.5q0 -104 21 -197.5t49 -132.5v-58h-166v80h90
z" />
    <glyph glyph-name="estimated" unicode="&#x212e;" horiz-adv-x="916" 
d="M880 357h-684q-5 0 -5 -4v-207q0 -14 9 -24q109 -112 258 -112q80 0 150.5 33.5t121.5 92.5h61q-57 -68 -145.5 -107.5t-188.5 -39.5q-175 0 -298.5 111t-123.5 268t123.5 268.5t298.5 111.5t299 -111t124 -269v-11zM725 384v208q0 13 -10 25q-111 108 -257 108
q-148 0 -257 -111q-10 -10 -10 -26v-204q0 -6 5 -6h524q5 0 5 6z" />
    <glyph glyph-name="partialdiff" unicode="&#x2202;" horiz-adv-x="400" 
d="M78 699l-24 78q54 52 121 52q78 0 133 -94.5t55 -295.5q0 -221 -49.5 -332.5t-141.5 -111.5q-64 0 -101.5 66t-37.5 171q0 125 47 202t110 77q61 0 88 -58h1q1 7 1 31q0 108 -32.5 185.5t-83.5 77.5q-46 0 -86 -48zM179 78h2q38 0 63 81.5t30 196.5q-8 32 -26 53t-45 21
q-37 0 -61 -60.5t-24 -142.5q0 -71 16 -110t45 -39z" />
    <glyph glyph-name="uni2206" unicode="&#x2206;" horiz-adv-x="441" 
d="M24 0v58l152 690h96l146 -688v-60h-394zM107 78h226l-73 344q-5 29 -19.5 94t-18.5 93h-2q-3 -29 -17.5 -93t-18.5 -84z" />
    <glyph glyph-name="product" unicode="&#x220f;" horiz-adv-x="499" 
d="M475 645h-63v-747h-86v747h-153v-747h-87v747h-62v89h451v-89z" />
    <glyph glyph-name="summation" unicode="&#x2211;" horiz-adv-x="387" 
d="M371 -102h-350v68l174 352l-168 347v69h330v-79h-222v-4l154 -313l-174 -343v-4h256v-93z" />
    <glyph glyph-name="minus" unicode="&#x2212;" horiz-adv-x="667" 
d="M66 365h535v-77h-535v77z" />
    <glyph glyph-name="uni2215" unicode="&#x2215;" horiz-adv-x="135" 
d="M-147 0l368 736h61l-368 -736h-61z" />
    <glyph glyph-name="uni2219" unicode="&#x2219;" horiz-adv-x="167" 
d="M33 307v121h101v-121h-101z" />
    <glyph glyph-name="radical" unicode="&#x221a;" horiz-adv-x="435" 
d="M426 882l-155 -1031h-70l-107 475l-54 -21l-13 58l124 48l69 -324q13 -81 15 -98l1 -1q1 6 2.5 24t3.5 38t4 37l122 795h58z" />
    <glyph glyph-name="infinity" unicode="&#x221e;" horiz-adv-x="636" 
d="M598 306v-1q0 -64 -39 -103t-92 -39q-39 0 -73 21t-74 73q-37 -46 -72 -70t-82 -24q-53 0 -90.5 39t-37.5 99q0 61 37.5 100.5t96.5 39.5q78 0 149 -93q47 52 70 68q38 25 81 25q55 0 90.5 -37t35.5 -98zM173 216h1q23 0 45.5 14t35 27t35.5 41q-23 32 -35.5 47t-36 29.5
t-48.5 14.5q-37 0 -57 -25t-20 -64q1 -36 23.5 -60t56.5 -24zM467 389h-1q-12 0 -25 -5t-22 -10t-21.5 -17t-17.5 -17.5t-17.5 -20t-13.5 -16.5q41 -50 64.5 -68.5t55.5 -18.5q34 0 54.5 26.5t20.5 58.5q0 40 -21 64t-56 24z" />
    <glyph glyph-name="integral" unicode="&#x222b;" horiz-adv-x="318" 
d="M289 892l-11 -69q-12 7 -24 7q-21 0 -36 -27q-21 -35 -21 -182q0 -82 4 -255t4 -265q0 -154 -30 -214q-28 -61 -97 -61q-32 0 -51 13l13 72q16 -7 28 -7q22 0 33 24q18 33 18 170q0 93 -4.5 269.5t-4.5 261.5q0 166 44 228q33 45 91 45q26 0 44 -10z" />
    <glyph glyph-name="approxequal" unicode="&#x2248;" horiz-adv-x="400" 
d="M337 434l34 -26q-13 -40 -39.5 -66t-59.5 -26q-35 0 -81 32q-39 30 -64 30q-22 0 -35.5 -15.5t-28.5 -46.5l-35 25q16 41 43 66t62 25q11 0 21 -2t20 -6.5t15 -7.5t14.5 -9.5t10.5 -6.5q45 -30 62 -30q19 0 32.5 16t28.5 48zM337 285l34 -26q-13 -40 -39.5 -65.5
t-59.5 -25.5q-34 0 -81 32q-43 31 -63 31q-22 0 -36.5 -16.5t-28.5 -47.5l-35 25q34 91 105 91q11 0 21 -2t19.5 -6t15 -7.5t14.5 -9t11 -6.5q5 -3 14 -9l13.5 -9t11.5 -6.5t12.5 -5t10.5 -1.5q19 0 32.5 16t28.5 48z" />
    <glyph glyph-name="notequal" unicode="&#x2260;" horiz-adv-x="400" 
d="M294 482l-29 -72h97v-57h-115l-45 -112h160v-57h-178l-35 -86l-42 15l28 71h-98v57h117l44 112h-161v57h179l35 87z" />
    <glyph glyph-name="lessequal" unicode="&#x2264;" horiz-adv-x="400" 
d="M360 122l-319 196v60l319 197v-70l-266 -155v-2l266 -156v-70zM363 27h-324v59h324v-59z" />
    <glyph glyph-name="greaterequal" unicode="&#x2265;" horiz-adv-x="400" 
d="M44 575l318 -197v-60l-318 -196v70l265 155v2l-265 156v70zM364 27h-325v59h325v-59z" />
    <glyph glyph-name="lozenge" unicode="&#x25ca;" horiz-adv-x="435" 
d="M394 367l-143 -401h-74l-136 401l143 402h74zM315 365l-80 247q-8 29 -14 70h-3q-7 -45 -15 -70l-82 -243l80 -251q7 -26 13 -67h4q11 57 13 64z" />
    <glyph glyph-name="fi" unicode="&#xfb01;" horiz-adv-x="385" 
d="M28 0v85h41v343h-41v85h41v79q0 71 36 113.5t93 42.5q52 0 87.5 -31t43.5 -87l-92 -30q-3 38 -11.5 53t-27.5 15q-37 0 -37 -77v-78h168v-428h38v-85h-153v85h23v343h-76v-343h25v-85h-158z" />
    <glyph glyph-name="fl" unicode="&#xfb02;" horiz-adv-x="385" 
d="M28 0v85h41v343h-41v85h41v73q0 79 37.5 120.5t94.5 41.5q28 0 56 -12h72v-651h38v-85h-153v85h23v525q0 58 -37 58q-39 0 -39 -74v-81h46v-85h-46v-343h24v-85h-157z" />
    <glyph glyph-name="one.superior" horiz-adv-x="219" 
d="M52 348v62h26v247q-14 -6 -26 -7v62q38 13 59 36h33v-338h24v-62h-116z" />
    <glyph glyph-name="two.superior" horiz-adv-x="219" 
d="M197 480v-132h-186v26q0 86 50 144l40 46q27 30 27 79q0 46 -25 46q-29 0 -29 -42q0 -7 5 -44h-62q-6 23 -6 44q0 48 24 74.5t68 26.5q46 0 70.5 -27.5t24.5 -78.5q0 -69 -45 -114l-39 -39q-31 -31 -39 -77h61v68h61z" />
    <glyph glyph-name="three.superior" horiz-adv-x="219" 
d="M81 619h-61q-5 129 83 129q42 0 66 -29.5t24 -80.5q0 -57 -33 -80q22 -16 31 -37t9 -57q0 -58 -24 -90t-68 -32q-97 0 -90 142h63q1 -53 5.5 -68t20.5 -15q13 0 18 11t5 40q0 51 -7.5 62.5t-41.5 13.5v59q32 1 38 8t6 44q0 50 -22 50q-15 0 -19 -13.5t-3 -56.5z" />
    <glyph glyph-name="a.superior" horiz-adv-x="240" 
d="M233 487v-67h-90v13l-15 -7q-21 -10 -36 -10q-32 0 -53 28.5t-21 74.5q0 47 22.5 75.5t59.5 28.5q19 0 43 -17v39q0 23 -5 30.5t-21 7.5q-30 0 -30 -38l-63 15q19 88 94 88q43 0 66.5 -26t23.5 -75v-160h25zM140 491v62q-15 7 -25 7q-28 0 -28 -39t29 -39q12 0 24 9z" />
    <glyph glyph-name="o.superior" horiz-adv-x="219" 
d="M18 580q0 168 91 168q92 0 92 -167q0 -168 -91 -168q-92 0 -92 167zM86 580q0 -65 4 -82.5t19 -17.5t19.5 18.5t4.5 82.5q0 65 -4.5 82.5t-19.5 17.5q-9 0 -13.5 -6.5t-7 -28t-2.5 -66.5z" />
    </font>
</defs>
</svg>
