<?xml version="1.0" standalone="no"?>
<!DOCTYPE svg PUBLIC "-//W3C//DTD SVG 1.1//EN" "http://www.w3.org/Graphics/SVG/1.1/DTD/svg11.dtd" >
<svg>
<metadata>
Created by FontForge 20110222 at Mon Oct 21 21:05:40 2013
 By Orthosie Webhosting
(c) 1990, 2002 Adobe Systems Incorporated. All rights reserved. (c) 1989, 1990, 2002 The Monotype Corporation Plc. All rights reserved.
</metadata>
<defs>
<font id="RockwellStdItalic" horiz-adv-x="552" >
  <font-face 
    font-family="RockwellStdItalic"
    font-weight="400"
    font-style="italic"
    font-stretch="normal"
    units-per-em="1000"
    panose-1="2 6 6 3 3 4 5 9 1 3"
    ascent="679"
    descent="-321"
    x-height="472"
    cap-height="679"
    bbox="-179 -223 1133 916"
    underline-thickness="50"
    underline-position="-50"
    slope="-13"
    unicode-range="U+0020-FB02"
  />
<missing-glyph horiz-adv-x="623" 
d="M123 0v700h500v-700h-500zM373 395l170 255h-340zM403 350l170 -255v510zM203 50h340l-170 255zM173 605v-510l170 255z" />
    <glyph glyph-name="f_i" unicode="fi" 
d="M529 691q23 0 39.5 -16t16.5 -39t-16.5 -39.5t-39.5 -16.5t-39 16.5t-16 39.5t16 39t39 16zM256 472h283l-91 -393h68l-18 -79h-210l18 79h53l73 314h-194l-72 -314h66l-19 -79h-209l19 79h54l72 314h-70l18 79h70l8 34q22 95 61 140t100 45q47 0 95 -30l-36 -61
q-28 19 -51 19q-49 0 -65 -60z" />
    <glyph glyph-name="f_l" unicode="fl" 
d="M394 679h191l-138 -600h63l-18 -79h-207l18 79h55l120 521h-83q-28 19 -51 19q-49 0 -65 -60l-23 -87h61l-18 -79h-61l-72 -314h66l-19 -79h-209l19 79h54l72 314h-70l18 79h70l8 34q22 95 61 140t100 45q32 0 58 -12z" />
    <glyph glyph-name=".notdef" horiz-adv-x="623" 
d="M123 0v700h500v-700h-500zM373 395l170 255h-340zM403 350l170 -255v510zM203 50h340l-170 255zM173 605v-510l170 255z" />
    <glyph glyph-name=".null" horiz-adv-x="0" 
 />
    <glyph glyph-name="nonmarkingreturn" horiz-adv-x="333" 
 />
    <glyph glyph-name="space" unicode=" " horiz-adv-x="250" 
 />
    <glyph glyph-name="exclam" unicode="!" horiz-adv-x="281" 
d="M71 115h118l-27 -115h-118zM171 181h-49l44 287l49 211h94l-45 -195z" />
    <glyph glyph-name="quotedbl" unicode="&#x22;" horiz-adv-x="417" 
d="M162 424l-14 138v117h80v-117l-14 -138h-52zM364 424l-14 138v117h80v-117l-14 -138h-52z" />
    <glyph glyph-name="numbersign" unicode="#" horiz-adv-x="668" 
d="M83 494h156l40 196h72l-40 -196h194l40 196h72l-40 -196h90v-66h-106l-34 -174h140v-66h-155l-41 -196h-71l40 196h-194l-41 -196h-71l40 196h-91v66h106l35 174h-141v66zM295 428l-35 -174h195l35 174h-195z" />
    <glyph glyph-name="dollar" unicode="$" horiz-adv-x="479" 
d="M145 -86l20 86q-63 16 -102 69.5t-23 131.5h85q-10 -49 7 -82t49 -47l56 243q-50 32 -77.5 77t-27.5 94q0 81 52 133t136 55l4 17h66l-5 -24q59 -13 95 -65t10 -128h-78q16 54 1 85t-44 41l-54 -234q127 -77 127 -180q0 -84 -61.5 -140t-151.5 -54l-18 -78h-66zM259 408
l45 195q-42 -5 -67 -33t-25 -70q0 -52 47 -92zM294 275l-49 -212q49 5 80.5 38t31.5 77q0 56 -63 97z" />
    <glyph glyph-name="percent" unicode="%" horiz-adv-x="1000" 
d="M609 122q0 33 9.5 69.5t29.5 72t57.5 58.5t85.5 23q59 0 91.5 -36t32.5 -103q0 -28 -6.5 -57.5t-20.5 -59t-34.5 -52.5t-51.5 -37t-68 -14q-60 0 -92.5 35.5t-32.5 100.5zM680 120q0 -36 16.5 -57.5t44.5 -21.5q46 0 74.5 54.5t28.5 123.5q0 32 -16.5 51.5t-44.5 19.5
q-47 0 -75 -59.5t-28 -110.5zM168 467q0 33 9.5 69.5t29.5 72t57.5 58.5t85.5 23q59 0 91.5 -36t32.5 -103q0 -28 -6.5 -57.5t-20.5 -59t-34.5 -52.5t-51.5 -37t-68 -14q-60 0 -92.5 35.5t-32.5 100.5zM239 465q0 -36 16.5 -57.5t44.5 -21.5q46 0 74.5 54.5t28.5 123.5
q0 32 -16.5 51.5t-44.5 19.5q-47 0 -75 -59.5t-28 -110.5zM163 0l697 679h65l-697 -679h-65z" />
    <glyph glyph-name="ampersand" unicode="&#x26;" horiz-adv-x="625" 
d="M519 351h124l-19 -79h-55q-48 -104 -105 -158l19 -35h97l-18 -79h-133l-27 54q-80 -65 -174 -65q-89 0 -143 53t-54 140q0 159 193 247q-28 64 -28 111q0 64 44.5 107t110.5 43q62 0 101 -34t39 -88q0 -105 -159 -176l97 -203q56 66 90 162zM369 124l-111 232
q-63 -29 -96.5 -71t-33.5 -91q0 -53 34.5 -88.5t86.5 -35.5q63 0 120 54zM405 566q0 25 -14.5 39.5t-38.5 14.5q-31 0 -50 -22.5t-19 -59.5q0 -31 18 -78q104 44 104 106z" />
    <glyph glyph-name="quotesingle" unicode="'" horiz-adv-x="219" 
d="M164 424l-14 138v117h80v-117l-14 -138h-52z" />
    <glyph glyph-name="parenleft" unicode="(" horiz-adv-x="375" 
d="M474 690l-15 -64q-79 -29 -135 -85q-73 -73 -109.5 -197.5t-36.5 -230.5q0 -154 102 -262l-15 -67q-82 53 -128 151t-46 221q0 84 21 163t64 153.5t119.5 132t178.5 85.5z" />
    <glyph glyph-name="parenright" unicode=")" horiz-adv-x="375" 
d="M-52 -216l15 64q79 29 135 85q73 73 109.5 197.5t36.5 230.5q0 154 -102 262l15 67q82 -53 128 -151t46 -221q0 -84 -21 -163t-64 -153.5t-119.5 -132t-178.5 -85.5z" />
    <glyph glyph-name="asterisk" unicode="*" horiz-adv-x="521" 
d="M411 690l-19 -83q-44 -53 -59 -120q74 25 119 66l89 26l7 -86l-86 -27q-27 4 -63.5 1t-58.5 -9q31 -58 73 -77l33 -69l-84 -52l-34 69q4 28 -2.5 60.5t-17.5 52.5q-47 -50 -69 -113l-69 -69l-60 52l65 69q47 17 110 77q-51 16 -118 8l-74 27l47 86l75 -26q32 -44 89 -66
q14 74 -1 120l19 83h89z" />
    <glyph glyph-name="plus" unicode="+" horiz-adv-x="667" 
d="M337 288h-229v77h229v229h77v-229h229v-77h-229v-229h-77v229z" />
    <glyph glyph-name="comma" unicode="," horiz-adv-x="281" 
d="M73 115h118l-27 -115q-14 -57 -52 -95.5t-104 -39.5l10 41q74 13 89 94h-61z" />
    <glyph glyph-name="hyphen" unicode="-" horiz-adv-x="385" 
d="M74 270h282l-15 -66h-282z" />
    <glyph glyph-name="period" unicode="." horiz-adv-x="281" 
d="M72 115h118l-27 -115h-118z" />
    <glyph glyph-name="slash" unicode="/" horiz-adv-x="438" 
d="M392 679h81l-347 -690h-81z" />
    <glyph glyph-name="zero" unicode="0" horiz-adv-x="531" 
d="M73 199q0 51 11 113t35 129.5t58 122.5t85.5 91t111.5 36q79 0 123 -57.5t44 -158.5q0 -65 -18.5 -144.5t-53 -158t-94.5 -131t-132 -52.5q-77 0 -123.5 57.5t-46.5 152.5zM159 186q0 -125 86 -125q42 0 78 36q49 49 91 175t42 228q0 119 -88 119q-44 0 -76 -32
q-47 -47 -90 -174t-43 -227z" />
    <glyph glyph-name="one" unicode="1" horiz-adv-x="531" 
d="M209 79l121 521h-78l18 79h167l-139 -600h71l-18 -79h-238l18 79h78z" />
    <glyph glyph-name="two" unicode="2" horiz-adv-x="531" 
d="M383 234h81l-54 -234h-377q11 65 39.5 121t64 94.5t76.5 72.5t79 62t69.5 56t50.5 62t19 72q0 34 -22 56.5t-56 22.5q-57 0 -97 -59t-52 -133h-85q22 127 84.5 195.5t153.5 68.5q73 0 118 -43t45 -112q0 -52 -21 -96t-54.5 -73t-76.5 -61.5t-83.5 -61t-79.5 -72
t-62 -93.5h204z" />
    <glyph glyph-name="three" unicode="3" horiz-adv-x="531" 
d="M63 224h85q-11 -75 17.5 -119t88.5 -44q59 0 98.5 42.5t39.5 105.5q0 57 -41 85.5t-111 22.5l17 74q59 0 99.5 14.5t58.5 37.5t25 44t7 44q0 41 -24.5 64.5t-66.5 23.5q-90 0 -125 -122h-83q18 90 75 142t137 52q78 0 127 -44.5t49 -115.5q0 -68 -39.5 -115.5
t-110.5 -64.5v-2q98 -38 98 -142q0 -94 -63.5 -156t-166.5 -62q-97 0 -153 64t-38 171z" />
    <glyph glyph-name="four" unicode="4" horiz-adv-x="531" 
d="M306 187h-233q-1 41 -27 79l390 419h74l-100 -432h102l-15 -66h-102l-25 -108h62l-18 -79h-213l18 79h62zM321 253l66 283l-2 2l-263 -285h199z" />
    <glyph glyph-name="five" unicode="5" horiz-adv-x="531" 
d="M71 216h86q-17 -71 9 -113t78 -42q38 0 70 23t50 57t27.5 67.5t9.5 58.5q0 44 -25.5 71t-66.5 27q-56 0 -106 -53q-24 27 -57 44l80 323h333l-40 -172h-81l21 89h-181l-43 -185q46 29 93 29q70 0 115 -51t45 -130q0 -42 -14.5 -86.5t-42 -87t-77.5 -69.5t-112 -27
q-95 0 -143.5 66t-27.5 161z" />
    <glyph glyph-name="six" unicode="6" horiz-adv-x="531" 
d="M551 486h-76q14 61 -8 97t-71 36q-120 0 -177 -234l2 -2q43 42 101 42q70 0 118 -50.5t48 -133.5q0 -114 -62.5 -183t-154.5 -69q-80 0 -126.5 57.5t-46.5 155.5q0 33 8 86.5t29 125.5t52.5 132.5t85 103t119.5 42.5q80 0 128 -53.5t31 -152.5zM193 273q-8 -42 -8 -91
q0 -58 24 -89.5t68 -31.5q61 0 94.5 58.5t33.5 119.5q0 50 -28.5 82t-71.5 32q-67 0 -112 -80z" />
    <glyph glyph-name="seven" unicode="7" horiz-adv-x="531" 
d="M275 79h69l-18 -79h-232l18 79h68q36 128 114.5 268t169.5 249h-243l-21 -88h-81l40 171h422l-17 -74q-89 -111 -173 -261.5t-116 -264.5z" />
    <glyph glyph-name="eight" unicode="8" horiz-adv-x="531" 
d="M216 368q-59 45 -59 118q0 88 58.5 146.5t147.5 58.5q78 0 124.5 -44.5t46.5 -118.5q0 -68 -34 -116.5t-95 -67.5q71 -41 71 -132q0 -94 -66.5 -158.5t-162.5 -64.5q-82 0 -132 47.5t-50 124.5q0 73 40 127.5t111 79.5zM240 484q0 -45 23 -70t64 -25q50 0 86.5 41.5
t36.5 98.5q0 41 -25 65.5t-65 24.5q-56 0 -88 -42.5t-32 -92.5zM157 153q0 -41 26 -66.5t69 -25.5q56 0 95.5 46.5t39.5 112.5q0 44 -27.5 70.5t-72.5 26.5q-46 0 -77.5 -30t-42 -65t-10.5 -69z" />
    <glyph glyph-name="nine" unicode="9" horiz-adv-x="531" 
d="M70 196h78q-13 -61 8.5 -98t69.5 -37q59 0 101.5 56.5t77.5 177.5l-2 2q-49 -40 -99 -40q-75 0 -122.5 52t-47.5 137q0 98 61 171.5t155 73.5q80 0 127.5 -57t47.5 -157q0 -21 -5 -59t-16 -95.5t-34 -114t-53.5 -107t-79.5 -81.5t-108 -31q-80 0 -129.5 55t-29.5 152z
M430 410q10 56 8 102.5t-25 76.5t-65 30q-62 0 -97 -53t-35 -121q0 -50 26.5 -83t70.5 -33q71 0 117 81z" />
    <glyph glyph-name="colon" unicode=":" horiz-adv-x="281" 
d="M72 115h118l-27 -115h-118zM154 472h118l-27 -115h-118z" />
    <glyph glyph-name="semicolon" unicode=";" horiz-adv-x="281" 
d="M73 115h118l-27 -115q-14 -57 -52 -95.5t-104 -39.5l10 41q74 13 89 94h-61zM154 472h118l-27 -115h-118z" />
    <glyph glyph-name="less" unicode="&#x3c;" horiz-adv-x="667" 
d="M170 326l431 -176v-83l-535 224v70l535 225v-84z" />
    <glyph glyph-name="equal" unicode="=" horiz-adv-x="667" 
d="M108 481h535v-77h-535v77zM108 250h535v-77h-535v77z" />
    <glyph glyph-name="greater" unicode="&#x3e;" horiz-adv-x="667" 
d="M497 326l-431 176v83l535 -224v-70l-535 -224v83z" />
    <glyph glyph-name="question" unicode="?" horiz-adv-x="458" 
d="M204 180h-47l41 209q54 -12 91 -3.5t60.5 35t34 54.5t10.5 54q0 39 -23.5 62t-63.5 23q-87 0 -118 -96h-74q20 85 72.5 129t133.5 44q74 0 117 -42.5t43 -115.5q0 -94 -67 -161.5t-166 -57.5zM109 115h118l-27 -115h-118z" />
    <glyph glyph-name="at" unicode="@" horiz-adv-x="1010" 
d="M931 9h91q-70 -106 -174 -162.5t-260 -56.5q-123 0 -218.5 33.5t-155 93.5t-90 139t-30.5 173q0 63 15 128.5t51 133.5t89.5 120t138.5 85.5t190 33.5q188 0 302.5 -111.5t114.5 -270.5q0 -132 -88.5 -241t-206.5 -109q-93 0 -93 81q-69 -80 -149 -80q-76 0 -127 62.5
t-51 156.5q0 118 78.5 214.5t175.5 96.5q93 0 147 -90l17 76h88l-85 -393q-4 -17 7 -29.5t26 -12.5q18 0 48 17.5t62.5 49t55.5 86t23 117.5q0 132 -99.5 219.5t-249.5 87.5q-176 0 -292 -119.5t-116 -301.5q0 -173 107.5 -273.5t313.5 -100.5q237 0 344 147zM372 210
q0 -59 30 -99t75 -40q68 0 122 76t54 170q0 63 -31 101.5t-81 38.5q-41 0 -75 -27t-53.5 -67.5t-30 -80.5t-10.5 -72z" />
    <glyph glyph-name="A" unicode="A" horiz-adv-x="646" 
d="M468 238h-238l-84 -159h73l-18 -79h-241l18 79h63l293 521h-74l19 79h330l-18 -79h-67l56 -521h73l-19 -79h-250l18 79h81zM461 317l-24 283h-18l-145 -283h187z" />
    <glyph glyph-name="B" unicode="B" horiz-adv-x="563" 
d="M84 79l120 521h-62l18 79h195q69 0 111 -10.5t72 -40.5q17 -17 28.5 -47t11.5 -60q0 -67 -39.5 -111.5t-112.5 -59.5v-2q48 -19 75 -58.5t27 -91.5q0 -34 -12.5 -67t-39 -63.5t-75.5 -49t-114 -18.5h-278l19 79h56zM254 394h85q78 0 110.5 35t32.5 84q0 87 -97 87h-83z
M182 79h54h62q63 0 97 37t34 94q0 54 -30.5 79.5t-79.5 25.5h-83z" />
    <glyph glyph-name="C" unicode="C" horiz-adv-x="719" 
d="M620 202l66 -59q-125 -154 -313 -154q-73 0 -131 24.5t-92.5 66.5t-52.5 93t-18 108q0 75 31 148t85.5 131t137 94t178.5 36q66 0 109.5 -15.5t85.5 -53.5l14 58h81l-43 -187h-81q-25 115 -174 115q-91 0 -166.5 -50.5t-115.5 -127t-40 -159.5q0 -85 57 -141.5t143 -56.5
q127 0 239 130z" />
    <glyph glyph-name="D" unicode="D" horiz-adv-x="708" 
d="M83 79l120 521h-67l18 79h231q84 0 148 -23.5t101 -64.5t55 -89.5t18 -104.5q0 -74 -29 -153t-82 -132q-65 -65 -152 -88.5t-217 -23.5h-218l18 79h56zM181 79h72q92 0 150 17.5t99 58.5q46 46 73 112t27 135q0 85 -52 141.5t-164 56.5h-85z" />
    <glyph glyph-name="E" unicode="E" horiz-adv-x="573" 
d="M81 79l121 521h-62l18 79h489l-47 -204h-81l29 125h-248l-49 -210h213l-18 -79h-213l-54 -232h253l30 130h81l-48 -209h-494l18 79h62z" />
    <glyph glyph-name="F" unicode="F" horiz-adv-x="521" 
d="M61 79l120 521h-62l19 79h484l-48 -204h-81l29 125h-243l-48 -208h207l-18 -79h-207l-54 -234h73l-18 -79h-233l18 79h62z" />
    <glyph glyph-name="G" unicode="G" horiz-adv-x="781" 
d="M498 247l18 79h253q-18 -89 -59 -156.5t-94.5 -105.5t-111.5 -56.5t-119 -18.5q-133 0 -217.5 81.5t-84.5 209.5q0 52 17 107.5t53 110t87 97t125.5 69t160.5 26.5q72 0 121 -18t89 -59l16 66h81l-43 -183h-81q-44 113 -190 113q-139 0 -237 -98.5t-98 -237.5
q0 -93 55.5 -147t151.5 -54q86 0 152.5 46.5t97.5 128.5h-143z" />
    <glyph glyph-name="H" unicode="H" horiz-adv-x="677" 
d="M81 79l120 521h-67l18 79h227l-18 -79h-62l-47 -204h284l47 204h-62l18 79h209l-18 -79h-49l-120 -521h62l-19 -79h-222l19 79h62l54 238h-283l-55 -238h62l-19 -79h-219l19 79h59z" />
    <glyph glyph-name="I" unicode="I" horiz-adv-x="292" 
d="M84 79l120 521h-56l18 79h207l-18 -79h-53l-120 -521h62l-19 -79h-216l19 79h56z" />
    <glyph glyph-name="J" unicode="J" horiz-adv-x="292" 
d="M-94 -213l21 91q77 0 112 43t58 145l124 534h-56l18 79h210l-18 -79h-56l-117 -508q-41 -173 -103.5 -238.5t-192.5 -66.5z" />
    <glyph glyph-name="K" unicode="K" horiz-adv-x="594" 
d="M83 79l120 521h-62l18 79h227l-18 -79h-67l-120 -521h62l-19 -79h-222l19 79h62zM251 354l283 246h-74l19 79h232l-18 -79h-46l-285 -251l165 -270h56l-18 -79h-226l18 79h62z" />
    <glyph glyph-name="L" unicode="L" horiz-adv-x="490" 
d="M80 79l121 521h-67l18 79h238l-18 -79h-73l-121 -521h225l47 202h81l-65 -281h-471l18 79h67z" />
    <glyph glyph-name="M" unicode="M" horiz-adv-x="833" 
d="M81 79l121 521h-59l18 79h198l66 -470h2l285 470h207l-18 -79h-62l-121 -521h67l-18 -79h-210l18 79h62l121 519l-2 2l-366 -600h-20l-86 600h-2l-120 -521h56l-18 -79h-196l18 79h59z" />
    <glyph glyph-name="N" unicode="N" horiz-adv-x="698" 
d="M82 79l121 521h-73l18 79h196l175 -540h2l106 461h-67l18 79h215l-18 -79h-67l-140 -606h-99l-189 587h-2l-115 -502h62l-18 -79h-210l18 79h67z" />
    <glyph glyph-name="O" unicode="O" horiz-adv-x="781" 
d="M85 266q0 73 27 147t77 136.5t129.5 101.5t175.5 39q132 0 209.5 -74.5t77.5 -201.5q0 -72 -27.5 -145.5t-77.5 -136.5t-130.5 -103t-175.5 -40q-141 0 -213 80t-72 197zM188 262q0 -85 52 -137.5t135 -52.5q59 0 110.5 24t85.5 62t59 85t36.5 92.5t11.5 85.5
q0 82 -52.5 134t-135.5 52q-87 0 -158.5 -54.5t-107.5 -132.5t-36 -158z" />
    <glyph glyph-name="P" unicode="P" horiz-adv-x="542" 
d="M82 79l121 521h-63l19 79h223q107 0 159.5 -56t52.5 -133q0 -101 -65 -166t-217 -65h-90l-42 -180h79l-18 -79h-239l18 79h62zM240 338h96q46 0 79 14.5t50 38.5t24.5 49t7.5 52q0 47 -28 77.5t-93 30.5h-76z" />
    <glyph glyph-name="Q" unicode="Q" horiz-adv-x="781" 
d="M436 -6v-1q18 -6 42.5 -15t35 -12.5t33.5 -9t38 -4.5t49 1l-60 -81q-38 -6 -78.5 7.5t-70.5 33.5t-71.5 37t-80.5 17q-50 0 -86 -26l-22 34q27 27 73 37v2q-153 71 -153 254q0 73 27.5 146.5t77 135.5t129.5 101t175 39q132 0 209.5 -74.5t77.5 -200.5
q0 -94 -43.5 -185.5t-124 -157t-177.5 -78.5zM188 263q0 -85 52 -137.5t135 -52.5q60 0 111.5 24.5t86 63t59 85.5t35.5 92t11 83q0 82 -52.5 134t-135.5 52q-68 0 -127 -33t-96 -84t-58 -111t-21 -116z" />
    <glyph glyph-name="R" unicode="R" horiz-adv-x="583" 
d="M81 79l120 521h-62l18 79h260q95 0 141 -44.5t46 -117.5q0 -78 -48 -129t-133 -62l59 -247h73l-18 -79h-131l-72 321h-99l-56 -242h62l-18 -79h-216l18 79h56zM253 400h112q73 0 106.5 31.5t33.5 81.5q0 87 -102 87h-104z" />
    <glyph glyph-name="S" unicode="S" horiz-adv-x="521" 
d="M20 0l43 187h81l-14 -61q54 -60 129 -60q53 0 88.5 30t35.5 75q0 32 -18.5 59.5t-46 46t-60 42t-60 46.5t-46 60.5t-18.5 82.5q0 81 56 131.5t146 50.5q87 0 144 -57l11 46h81l-43 -184h-81l12 52q-20 30 -54.5 48t-72.5 18q-49 0 -80 -26.5t-31 -68.5q0 -36 26 -65.5
t63 -53t74 -49.5t63 -67.5t26 -95.5q0 -88 -62 -143t-163 -55q-80 0 -140 47l-8 -36h-81z" />
    <glyph glyph-name="T" unicode="T" horiz-adv-x="583" 
d="M225 79l120 521h-146l-40 -172h-81l58 251h552l-58 -251h-81l40 172h-146l-120 -521h63l-18 -79h-223l18 79h62z" />
    <glyph glyph-name="U" unicode="U" horiz-adv-x="635" 
d="M147 679h222l-19 -79h-62l-92 -402q-16 -70 19 -101t89 -31q66 0 103.5 37t61.5 141l82 356h-59l19 79h213l-19 -79h-56l-81 -354q-32 -140 -82 -190q-67 -67 -188 -67q-51 0 -91 12t-70.5 39t-38.5 71t5 109l87 380h-62z" />
    <glyph glyph-name="V" unicode="V" horiz-adv-x="677" 
d="M202 -7l-29 607h-73l12 79h230l-12 -79h-63l22 -449h2l309 449h-81l12 79h244l-13 -79h-61l-420 -607h-79z" />
    <glyph glyph-name="W" unicode="W" horiz-adv-x="990" 
d="M179 -7l-12 607h-71l13 79h231l-13 -79h-67l9 -432h2l252 432h-76l16 79h271l-16 -79h-64l8 -432h2l250 432h-65l15 79h209l-16 -79h-49l-350 -607h-84l-11 511h-2l-295 -511h-87z" />
    <glyph glyph-name="X" unicode="X" horiz-adv-x="635" 
d="M305 350l-90 250h-66l18 79h208l-19 -79h-51l63 -181l174 181h-67l19 79h211l-19 -79h-45l-243 -256l99 -265h56l-18 -79h-213l18 79h67l-72 196l-186 -196h67l-18 -79h-213l18 79h46z" />
    <glyph glyph-name="Y" unicode="Y" horiz-adv-x="573" 
d="M248 306l-102 294h-67l13 79h223l-12 -79h-67l78 -224l208 224h-79l13 79h235l-13 -79h-60l-272 -294l-52 -227h67l-18 -79h-232l18 79h67z" />
    <glyph glyph-name="Z" unicode="Z" horiz-adv-x="563" 
d="M11 0l18 79l443 521h-225l-29 -125h-81l47 204h429l-18 -79l-444 -521h254l32 137h81l-50 -216h-457z" />
    <glyph glyph-name="bracketleft" unicode="[" horiz-adv-x="313" 
d="M207 -134l-15 -66h-209l207 879h204l-15 -66h-119l-172 -747h119z" />
    <glyph glyph-name="backslash" unicode="\" horiz-adv-x="438" 
d="M392 -11l-347 690h81l347 -690h-81z" />
    <glyph glyph-name="bracketright" unicode="]" horiz-adv-x="313" 
d="M-33 -134h121l173 747h-121l15 66h211l-207 -879h-207z" />
    <glyph glyph-name="asciicircum" unicode="^" horiz-adv-x="427" 
d="M288 679l208 -350h-86l-154 259l-157 -259h-86l211 350h64z" />
    <glyph glyph-name="underscore" unicode="_" horiz-adv-x="500" 
d="M506 -125h-512v50h512v-50z" />
    <glyph glyph-name="grave" unicode="`" horiz-adv-x="333" 
d="M315 550h-68l-186 139h174z" />
    <glyph glyph-name="a" unicode="a" horiz-adv-x="531" 
d="M429 79h61l-18 -79h-143l15 63l-2 2q-26 -32 -68 -52.5t-82 -20.5q-60 0 -101.5 39.5t-41.5 97.5q0 71 57.5 118t143.5 47q65 0 132 -35l17 74q9 39 -16.5 60t-66.5 21q-70 0 -116 -66l-74 33q32 49 87.5 77t119.5 28q80 0 125.5 -41t24.5 -133zM351 124l16 71
q-63 31 -111 31q-51 0 -84.5 -26.5t-33.5 -66.5q0 -31 22.5 -50t60.5 -19q57 0 130 60z" />
    <glyph glyph-name="b" unicode="b" horiz-adv-x="615" 
d="M79 79l120 521h-65l18 79h154l-61 -261l2 -2q71 70 161 70q85 0 137.5 -56t52.5 -147q0 -124 -75.5 -207.5t-187.5 -83.5q-102 0 -167 87l-19 -79h-144l19 79h55zM201 195q0 -57 33.5 -91.5t88.5 -34.5q76 0 131 61.5t55 147.5q0 59 -33 93.5t-90 34.5q-58 0 -102 -36
t-63.5 -82.5t-19.5 -92.5z" />
    <glyph glyph-name="c" unicode="c" horiz-adv-x="500" 
d="M394 143l65 -47q-83 -110 -208 -110q-88 0 -144.5 55.5t-56.5 140.5q0 121 79 212.5t183 91.5q80 0 131 -54l9 40h78l-33 -141h-78q-7 37 -36 61q-28 22 -70 22q-68 0 -118 -65.5t-50 -155.5q0 -62 32 -97t87 -35q39 0 69 19t61 63z" />
    <glyph glyph-name="d" unicode="d" horiz-adv-x="604" 
d="M497 79h65l-18 -79h-154l13 56l-2 2q-61 -66 -155 -66q-86 0 -139 58t-53 152q0 114 78.5 199t183.5 85q101 0 166 -85l46 199h-71l18 79h160zM145 216q0 -77 35.5 -112t89.5 -35q71 0 125 65t54 151q0 56 -34 90t-91 34q-53 0 -95.5 -34t-63 -77.5t-20.5 -81.5z" />
    <glyph glyph-name="e" unicode="e" 
d="M525 215h-371q-15 -62 20 -107t94 -45q72 0 121 68l92 -39q-30 -49 -87.5 -77.5t-124.5 -28.5q-98 0 -156.5 57.5t-58.5 152.5q0 115 82.5 202.5t191.5 87.5q110 0 166 -82.5t31 -188.5zM172 281h269q11 49 -21.5 88.5t-89.5 39.5q-52 0 -93.5 -33.5t-64.5 -94.5z" />
    <glyph glyph-name="f" unicode="f" horiz-adv-x="281" 
d="M169 79h66l-19 -79h-209l19 79h54l72 314h-70l18 79h70l8 34q22 95 61 140t100 45q47 0 95 -30l-36 -61q-28 19 -51 19q-49 0 -65 -60l-23 -87h61l-18 -79h-61z" />
    <glyph glyph-name="g" unicode="g" horiz-adv-x="604" 
d="M504 472h154l-18 -79h-66l-88 -379q-17 -73 -46 -122t-67.5 -73t-75.5 -33t-83 -9q-136 0 -209 80l48 66q75 -74 167 -74q76 0 119 46.5t69 157.5l-2 2q-66 -69 -156 -69q-85 0 -139 59.5t-54 151.5q0 112 79.5 197.5t183.5 85.5q105 0 166 -87zM148 202
q0 -61 33.5 -98.5t89.5 -37.5q83 0 133.5 70.5t50.5 144.5q0 53 -35.5 87.5t-89.5 34.5q-74 0 -128 -59.5t-54 -141.5z" />
    <glyph glyph-name="h" unicode="h" 
d="M448 79h70l-19 -79h-159l76 325q7 31 -6 51.5t-43 20.5q-27 0 -56.5 -13.5t-85.5 -50.5l-58 -254h69l-19 -79h-217l19 79h59l120 521h-59l18 79h148l-60 -262q90 63 154 63q58 0 89.5 -45t13.5 -123z" />
    <glyph glyph-name="i" unicode="i" horiz-adv-x="281" 
d="M87 79l73 314h-64l18 79h153l-91 -393h68l-18 -79h-210l18 79h53zM202 636q0 23 16 39t39 16t39.5 -16t16.5 -39t-16.5 -39.5t-39.5 -16.5t-39 16.5t-16 39.5z" />
    <glyph glyph-name="j" unicode="j" horiz-adv-x="281" 
d="M-50 -134q51 -5 80 21.5t45 94.5l95 411h-63l19 79h152l-103 -445q-13 -57 -20 -83t-22 -58.5t-35 -52.5q-61 -61 -165 -40zM208 636q0 23 16 39t39 16t39.5 -16t16.5 -39t-16.5 -39.5t-39.5 -16.5t-39 16.5t-16 39.5z" />
    <glyph glyph-name="k" unicode="k" horiz-adv-x="521" 
d="M81 79l121 521h-66l18 79h155l-99 -427l206 148v2h-73l16 70h235l-16 -70h-48l-221 -161l107 -162h76l-18 -79h-107l-159 241l-38 -162h71l-18 -79h-216l18 79h56z" />
    <glyph glyph-name="l" unicode="l" horiz-adv-x="281" 
d="M85 79l120 521h-62l18 79h151l-138 -600h63l-18 -79h-207l18 79h55z" />
    <glyph glyph-name="m" unicode="m" horiz-adv-x="844" 
d="M115 472h149l-13 -57q91 65 161 65q37 0 65 -20.5t40 -57.5q100 78 174 78q50 0 81.5 -31t31.5 -80q0 -28 -16 -95l-45 -195h69l-18 -79h-158l72 310q10 42 -3 64.5t-44 22.5q-54 0 -145 -65l-58 -253h70l-18 -79h-159l74 320q8 37 -7 57t-40 20q-46 0 -147 -65l-58 -253
h69l-18 -79h-213l18 79h55l73 314h-60z" />
    <glyph glyph-name="n" unicode="n" 
d="M111 472h150l-13 -54q90 62 153 62q59 0 89.5 -45.5t15.5 -110.5l-56 -245h69l-18 -79h-158l75 323q8 36 -7 55t-39 19q-53 0 -143 -62l-59 -256h69l-18 -79h-215l18 79h57l73 314h-62z" />
    <glyph glyph-name="o" unicode="o" horiz-adv-x="563" 
d="M54 188q0 125 84 211.5t205 86.5q94 0 149.5 -55t55.5 -148q0 -51 -18.5 -104.5t-48.5 -91.5q-38 -47 -97 -74t-123 -27q-94 0 -150.5 55.5t-56.5 146.5zM148 196q0 -58 35 -92t87 -34q77 0 130.5 62t53.5 151q0 54 -34 86.5t-90 32.5q-78 0 -130 -65.5t-52 -140.5z" />
    <glyph glyph-name="p" unicode="p" horiz-adv-x="604" 
d="M110 -133h72l-18 -79h-219l18 79h58l121 526h-66l18 79h156l-14 -57l2 -2q71 67 157 67q82 0 136 -60.5t54 -152.5q0 -115 -77 -198t-184 -83q-105 0 -167 82zM189 191q0 -59 33 -93.5t88 -34.5q80 0 131 62t51 145q0 59 -33.5 94.5t-89.5 35.5q-55 0 -98 -35.5
t-62.5 -82t-19.5 -91.5z" />
    <glyph glyph-name="q" unicode="q" horiz-adv-x="604" 
d="M450 -133h61l-18 -79h-211l18 79h61l44 186l-2 2q-66 -69 -158 -69q-85 0 -139.5 59.5t-54.5 151.5q0 112 80 197.5t184 85.5q103 0 168 -87l18 79h150l-19 -79h-61zM145 197q0 -61 33.5 -97.5t88.5 -36.5q71 0 126.5 65t55.5 149q0 55 -34.5 89t-90.5 34
q-74 0 -126.5 -59.5t-52.5 -143.5z" />
    <glyph glyph-name="r" unicode="r" horiz-adv-x="396" 
d="M169 79h78l-18 -79h-229l18 79h62l72 314h-72l19 79h153l-31 -131l2 -2q82 141 208 141h25l-20 -87q-98 7 -157.5 -47t-80.5 -145z" />
    <glyph glyph-name="s" unicode="s" horiz-adv-x="427" 
d="M29 132h81q0 -31 28 -50q29 -18 78 -18q40 0 65 17t25 44q0 26 -24 44.5t-58.5 31.5t-69 28.5t-58.5 45t-24 70.5q0 59 48.5 97t123.5 38q69 0 120 -41l7 33h81l-30 -131h-81q0 35 -31 52q-26 15 -67 15q-35 0 -58.5 -14.5t-23.5 -43.5q0 -21 36.5 -41t88 -43.5
t73.5 -45.5q35 -35 35 -93q0 -62 -49.5 -98.5t-139.5 -36.5q-85 0 -118 39l-7 -31h-81z" />
    <glyph glyph-name="t" unicode="t" horiz-adv-x="292" 
d="M248 472h66l-18 -79h-66l-62 -264q-14 -57 19 -65.5t84 26.5l-19 -82q-44 -22 -86 -22q-49 0 -75.5 39t-9.5 114l60 254h-54l18 79h54l22 95l108 84z" />
    <glyph glyph-name="u" unicode="u" 
d="M173 156q-10 -42 4 -62.5t43 -20.5q54 0 142 69l58 251h-69l18 79h158l-90 -393h59l-19 -79h-148l13 54q-85 -62 -154 -62q-51 0 -87.5 39t-18.5 114l57 248h-58l18 79h147z" />
    <glyph glyph-name="v" unicode="v" horiz-adv-x="479" 
d="M138 -8l-24 401h-50l9 79h185l-9 -79h-52l16 -282h2l191 282h-63l18 79h190l-18 -79h-42l-272 -401h-81z" />
    <glyph glyph-name="w" unicode="w" horiz-adv-x="740" 
d="M130 -8l-15 401h-53l13 79h175l-13 -79h-46l9 -278h2l178 278h-57l13 79h206l-13 -79h-54l10 -278h2l178 278h-53l12 79h177l-13 -79h-42l-254 -401h-77l-10 312h-2l-198 -312h-75z" />
    <glyph glyph-name="x" unicode="x" horiz-adv-x="510" 
d="M219 247l-83 149h-49l18 76h176l-16 -70h-46l59 -105l119 105h-62l17 70h198l-18 -76h-39l-183 -159l88 -161h41l-17 -76h-179l16 71h57l-64 114l-128 -114h62l-16 -71h-200l17 76h43z" />
    <glyph glyph-name="y" unicode="y" horiz-adv-x="510" 
d="M506 393l-414 -605h-141l18 79h91l93 136l-22 390h-49l9 79h186l-10 -79h-54l16 -277h2l191 277h-65l19 79h193l-19 -79h-44z" />
    <glyph glyph-name="z" unicode="z" horiz-adv-x="417" 
d="M-13 0l19 80l325 323h-160l-22 -99h-78l38 168h345l-18 -80l-324 -320h175l23 101h75l-40 -173h-358z" />
    <glyph glyph-name="braceleft" unicode="{" horiz-adv-x="333" 
d="M68 196v76q60 0 81 38.5t21 109.5v85q0 84 30 129t110 45h41v-72h-15q-53 0 -69 -18t-16 -78v-67q0 -96 -21 -139.5t-81 -70.5q60 -27 81 -70.5t21 -139.5v-68q0 -60 16 -78t69 -18h15v-72h-41q-80 0 -110 45t-30 129v86q0 71 -21 109.5t-81 38.5z" />
    <glyph glyph-name="bar" unicode="|" horiz-adv-x="527" 
d="M265 679h77v-891h-77v891z" />
    <glyph glyph-name="braceright" unicode="}" horiz-adv-x="333" 
d="M345 271v-76q-60 0 -81 -38.5t-21 -109.5v-85q0 -84 -30 -129t-110 -45h-41v72h15q53 0 69 18t16 78v67q0 96 21 139.5t81 70.5q-60 27 -81 70.5t-21 139.5v68q0 60 -16 78t-69 18h-15v72h41q80 0 110 -45t30 -129v-86q0 -71 21 -109.5t81 -38.5z" />
    <glyph glyph-name="asciitilde" unicode="~" horiz-adv-x="583" 
d="M85 272v100q51 59 135 59q54 0 130 -33q80 -34 108 -34q66 0 128 68v-103q-33 -30 -65 -43t-72 -13q-48 0 -124 34q-74 33 -113 33q-33 0 -60.5 -14.5t-66.5 -53.5z" />
    <glyph glyph-name="uni00A0" unicode="&#xa0;" horiz-adv-x="250" 
 />
    <glyph glyph-name="exclamdown" unicode="&#xa1;" horiz-adv-x="281" 
d="M247 357h-118l27 115h118zM147 291h49l-44 -287l-49 -211h-94l45 195z" />
    <glyph glyph-name="cent" unicode="&#xa2;" horiz-adv-x="500" 
d="M458 679l-76 -205q36 -15 61 -42l9 40h78l-34 -140h-78q-12 54 -62 75l-126 -343q90 -29 163 79l66 -47q-47 -64 -116 -92t-140 -13l-77 -207h-42l82 216q-54 23 -85 71.5t-31 109.5q0 78 37.5 152.5t107 119.5t150.5 30l73 196h40zM195 82l124 331q-76 1 -125 -65
t-49 -155q0 -77 50 -111z" />
    <glyph glyph-name="sterling" unicode="&#xa3;" horiz-adv-x="458" 
d="M94 371h92q-12 76 -12 109q0 95 53.5 153t140.5 58q82 0 121.5 -51.5t13.5 -135.5h-88q17 57 1 86t-54 29q-44 0 -71.5 -36t-27.5 -92q0 -14 2.5 -35.5t6.5 -47.5t5 -37h134l-17 -73h-112q4 -100 -40 -190q39 -29 72 -29q27 0 45.5 19t34.5 63h60q-23 -88 -60 -130
t-92 -42q-54 0 -101 54q-40 -54 -91 -54q-34 0 -56.5 24t-22.5 61q0 40 24.5 66.5t61.5 26.5q34 0 74 -25q13 60 6 156h-120zM168 79q-30 35 -55 35q-17 0 -28 -11.5t-11 -28.5q0 -16 10 -26t25 -10q29 0 59 41z" />
    <glyph glyph-name="currency" unicode="&#xa4;" horiz-adv-x="667" 
d="M89 532l52 52l63 -64q59 42 128 42q71 0 130 -42l64 64l51 -52l-63 -64q41 -61 41 -131q0 -69 -41 -126l63 -63l-51 -51l-64 63q-62 -43 -131 -43q-70 0 -127 43l-63 -63l-52 51l64 63q-42 67 -42 132q0 66 42 125zM333 490q-62 0 -106 -44.5t-44 -106.5t44 -106t106 -44
t106 44t44 106t-44 106.5t-106 44.5z" />
    <glyph glyph-name="yen" unicode="&#xa5;" horiz-adv-x="573" 
d="M248 306l-53 154h-139l10 57h109l-29 83h-67l12 79h222l-11 -79h-66l30 -83h179l77 83h-79l13 79h232l-9 -79h-61l-77 -83h114l-10 -57h-156l-145 -154h280l-10 -57h-280l-40 -170h67l-19 -79h-232l19 79h67l40 170h-211l10 57h213zM285 460l29 -84l78 84h-107z" />
    <glyph glyph-name="brokenbar" unicode="&#xa6;" horiz-adv-x="527" 
d="M265 168h77v-380h-77v380zM265 679h77v-380h-77v380z" />
    <glyph glyph-name="section" unicode="&#xa7;" horiz-adv-x="448" 
d="M5 -59l75 26q0 -53 33.5 -81t86.5 -28q44 0 72 21.5t28 55.5q0 31 -27.5 62t-67 58t-79 55.5t-67 66t-27.5 78.5q0 97 131 163q-53 48 -53 116q0 69 51.5 113t132.5 44q85 0 138.5 -46t46.5 -122l-74 -25q6 57 -26 89t-83 32q-46 0 -74.5 -22.5t-28.5 -57.5
q0 -26 19.5 -50.5t49 -42.5t63.5 -40.5t63.5 -44t49 -54t19.5 -70.5q0 -52 -36.5 -96t-103.5 -72q37 -36 52 -65.5t15 -65.5q0 -66 -53 -109t-134 -43t-135.5 44t-56.5 111zM270 111q110 43 110 109q0 29 -25.5 54t-75 56t-68.5 47q-44 -16 -69.5 -44.5t-25.5 -63.5
q0 -34 29.5 -62t124.5 -96z" />
    <glyph glyph-name="dieresis" unicode="&#xa8;" horiz-adv-x="333" 
d="M366 668q22 0 38.5 -16t16.5 -39t-16.5 -39t-38.5 -16t-38.5 16t-16.5 39t16.5 39t38.5 16zM163 668q23 0 39 -16t16 -39t-16 -39t-39 -16t-39 16t-16 39t16 39t39 16z" />
    <glyph glyph-name="copyright" unicode="&#xa9;" horiz-adv-x="740" 
d="M533 300l60 -18q-15 -62 -62.5 -98t-115.5 -36q-88 0 -140.5 57t-52.5 153q0 97 52.5 152.5t144.5 55.5q64 0 107.5 -30t59.5 -85l-58 -14q-30 75 -111 75q-59 0 -94 -42.5t-35 -112.5t33 -110.5t91 -40.5q45 0 77.5 25t43.5 69zM414 728q153 0 261 -107.5t108 -260.5
t-108 -261t-261 -108t-260.5 108t-107.5 261t107.5 260.5t260.5 107.5zM414 667q-128 0 -217.5 -89.5t-89.5 -217.5t90 -218t217 -90q128 0 218 90t90 218q0 127 -90 217t-218 90z" />
    <glyph glyph-name="ordfeminine" unicode="&#xaa;" horiz-adv-x="344" 
d="M340 441h41l-10 -44h-98l10 42l-2 2q-18 -21 -45 -34q-28 -13 -51 -13q-38 0 -64.5 24t-26.5 58q0 43 37 71t93 28q44 0 85 -21l10 40q7 26 -8 39.5t-45 13.5q-43 0 -74 -40l-48 20q21 29 56.5 46.5t75.5 17.5q51 0 80.5 -24.5t18.5 -72.5zM291 473l9 43q-39 19 -71 19
q-33 0 -55 -16t-22 -41q0 -19 14.5 -30.5t38.5 -11.5q39 0 86 37z" />
    <glyph glyph-name="guillemotleft" unicode="&#xab;" horiz-adv-x="458" 
d="M254 253l173 219h97l-183 -235l76 -237h-83zM47 253l173 219h97l-183 -235l76 -237h-83z" />
    <glyph glyph-name="logicalnot" unicode="&#xac;" horiz-adv-x="667" 
d="M108 485h535v-315h-77v238h-458v77z" />
    <glyph glyph-name="uni00AD" unicode="&#xad;" horiz-adv-x="385" 
d="M74 270h282l-15 -66h-282z" />
    <glyph glyph-name="registered" unicode="&#xae;" horiz-adv-x="740" 
d="M253 156v396h170q64 0 100 -30t36 -77q0 -45 -32 -76.5t-81 -34.5v-2q28 -9 55 -44t85 -132h-78q-66 115 -82 135q-29 32 -71 33h-38v-168h-64zM317 379h90q41 0 62.5 16t21.5 44t-20 43.5t-54 15.5h-100v-119zM783 360q0 -153 -108 -261t-261 -108t-260.5 108
t-107.5 261t107.5 260.5t260.5 107.5t261 -107.5t108 -260.5zM722 360q0 127 -90 217t-218 90t-217.5 -89.5t-89.5 -217.5t90 -218t217 -90q128 0 218 90t90 218z" />
    <glyph glyph-name="macron" unicode="&#xaf;" horiz-adv-x="333" 
d="M97 574l9 78h324l-9 -78h-324z" />
    <glyph glyph-name="degree" unicode="&#xb0;" horiz-adv-x="396" 
d="M268 636q-40 0 -68 -28t-28 -68t28 -68t68 -28t68 28t28 68t-28 68t-68 28zM268 690q62 0 106 -44t44 -106t-44 -106t-106 -44t-106 44t-44 106t44 106t106 44z" />
    <glyph glyph-name="plusminus" unicode="&#xb1;" horiz-adv-x="667" 
d="M108 53h535v-77h-535v77zM337 371h-229v77h229v229h77v-229h229v-77h-229v-229h-77v229z" />
    <glyph glyph-name="twosuperior" unicode="&#xb2;" horiz-adv-x="323" 
d="M284 458h60l-34 -126h-233q9 47 37 84.5t60.5 60.5t64 42.5t52.5 42.5t21 49q0 16 -11.5 26.5t-28.5 10.5q-28 0 -51 -27t-32 -71h-61q12 67 48.5 104t91.5 37q43 0 70 -23t27 -59q0 -39 -29 -72t-64.5 -52.5t-70.5 -48t-44 -57.5h109z" />
    <glyph glyph-name="threesuperior" unicode="&#xb3;" horiz-adv-x="323" 
d="M96 453h62q-9 -37 7.5 -59.5t48.5 -22.5t54 20.5t22 51.5q0 27 -24 42t-67 9l10 44q113 0 113 69q0 42 -48 42t-69 -63h-60q12 50 46.5 77.5t84.5 27.5q49 0 79.5 -24t30.5 -62q0 -34 -23 -59t-60 -32v-2q23 -5 38.5 -25t15.5 -45q0 -51 -40.5 -83.5t-102.5 -32.5
q-64 0 -97.5 36.5t-20.5 90.5z" />
    <glyph glyph-name="acute" unicode="&#xb4;" horiz-adv-x="333" 
d="M185 550l80 139h174l-186 -139h-68z" />
    <glyph glyph-name="mu" unicode="&#xb5;" 
d="M133 472h88l-54 -266q-15 -75 11.5 -109.5t79.5 -34.5q59 0 99 40q37 37 60 152l44 218h87l-98 -472h-79l9 39l-2 2q-64 -53 -128 -53q-67 0 -116 61l-60 -261h-86z" />
    <glyph glyph-name="paragraph" unicode="&#xb6;" horiz-adv-x="542" 
d="M237 -212v486q-91 5 -144 59t-53 141t56.5 146t167.5 59h316v-85h-70v-806h-84v806h-105v-806h-84z" />
    <glyph glyph-name="periodcentered" unicode="&#xb7;" horiz-adv-x="292" 
d="M142 387h118l-27 -115h-118z" />
    <glyph glyph-name="cedilla" unicode="&#xb8;" horiz-adv-x="333" 
d="M153 4h41l-17 -41q55 -6 55 -67q0 -42 -33 -67.5t-88 -25.5q-30 0 -60 7l17 44q15 -3 31 -3q27 0 44 11.5t17 30.5q0 31 -41 28z" />
    <glyph glyph-name="onesuperior" unicode="&#xb9;" horiz-adv-x="323" 
d="M182 379l70 259h-45l11 47h111l-83 -306h41l-11 -47h-152l11 47h47z" />
    <glyph glyph-name="ordmasculine" unicode="&#xba;" horiz-adv-x="365" 
d="M88 512q0 75 54.5 127t133.5 52q60 0 96.5 -33t36.5 -88q0 -77 -53.5 -128.5t-133.5 -51.5q-61 0 -97.5 33.5t-36.5 88.5zM152 515q0 -35 20 -54.5t57 -19.5q50 0 84.5 37t34.5 90q0 32 -22 51.5t-59 19.5q-50 0 -82.5 -35t-32.5 -89z" />
    <glyph glyph-name="guillemotright" unicode="&#xbb;" horiz-adv-x="458" 
d="M252 219l-173 -219h-97l183 235l-76 237h83zM459 219l-173 -219h-97l183 235l-76 237h83z" />
    <glyph glyph-name="onequarter" unicode="&#xbc;" horiz-adv-x="1000" 
d="M701 95h-137q0 22 -17 40l233 220h55l-62 -220h62l-10 -40h-62l-11 -48h36l-11 -47h-139l11 47h41zM109 0l697 679h65l-697 -679h-65zM711 135l34 125l-2 2l-134 -127h102zM213 379l70 259h-45l11 47h111l-83 -306h41l-11 -47h-152l11 47h47z" />
    <glyph glyph-name="onehalf" unicode="&#xbd;" horiz-adv-x="1000" 
d="M767 126h60l-34 -126h-233q9 47 37 84.5t60.5 60.5t64 42.5t52.5 42.5t21 49q0 16 -11.5 26.5t-28.5 10.5q-28 0 -51 -27t-32 -71h-61q12 67 48.5 104t91.5 37q43 0 70 -23t27 -59q0 -39 -29 -72t-64.5 -52.5t-70.5 -48t-44 -57.5h109zM109 0l697 679h65l-697 -679h-65z
M213 379l70 259h-45l11 47h111l-83 -306h41l-11 -47h-152l11 47h47z" />
    <glyph glyph-name="threequarters" unicode="&#xbe;" horiz-adv-x="1000" 
d="M740 95h-137q0 22 -17 40l233 220h55l-62 -220h62l-10 -40h-62l-11 -48h36l-11 -47h-139l11 47h41zM148 0l697 679h65l-697 -679h-65zM750 135l34 125l-2 2l-134 -127h102zM127 453h62q-9 -37 7.5 -59.5t48.5 -22.5t54 20.5t22 51.5q0 27 -24 42t-67 9l10 44
q113 0 113 69q0 42 -48 42t-69 -63h-60q12 50 46.5 77.5t84.5 27.5q49 0 79.5 -24t30.5 -62q0 -34 -23 -59t-60 -32v-2q23 -5 38.5 -25t15.5 -45q0 -51 -40.5 -83.5t-102.5 -32.5q-64 0 -97.5 36.5t-20.5 90.5z" />
    <glyph glyph-name="questiondown" unicode="&#xbf;" horiz-adv-x="458" 
d="M266 292h47l-41 -209q-54 12 -91 3.5t-60.5 -35t-34 -54.5t-10.5 -54q0 -39 23.5 -62t63.5 -23q87 0 118 96h74q-20 -85 -72.5 -129t-133.5 -44q-74 0 -117 42.5t-43 115.5q0 94 67 161.5t166 57.5zM361 357h-118l27 115h118z" />
    <glyph glyph-name="Agrave" unicode="&#xc0;" horiz-adv-x="646" 
d="M468 238h-238l-84 -159h73l-18 -79h-241l18 79h63l293 521h-74l19 79h330l-18 -79h-67l56 -521h73l-19 -79h-250l18 79h81zM461 317l-24 283h-18l-145 -283h187zM501 756h-68l-186 139h174z" />
    <glyph glyph-name="Aacute" unicode="&#xc1;" horiz-adv-x="646" 
d="M468 238h-238l-84 -159h73l-18 -79h-241l18 79h63l293 521h-74l19 79h330l-18 -79h-67l56 -521h73l-19 -79h-250l18 79h81zM461 317l-24 283h-18l-145 -283h187zM371 756l80 139h174l-186 -139h-68z" />
    <glyph glyph-name="Acircumflex" unicode="&#xc2;" horiz-adv-x="646" 
d="M468 238h-238l-84 -159h73l-18 -79h-241l18 79h63l293 521h-74l19 79h330l-18 -79h-67l56 -521h73l-19 -79h-250l18 79h81zM461 317l-24 283h-18l-145 -283h187zM291 745l120 149h127l48 -149h-67l-60 78l-100 -78h-68z" />
    <glyph glyph-name="Atilde" unicode="&#xc3;" horiz-adv-x="646" 
d="M468 238h-238l-84 -159h73l-18 -79h-241l18 79h63l293 521h-74l19 79h330l-18 -79h-67l56 -521h73l-19 -79h-250l18 79h81zM461 317l-24 283h-18l-145 -283h187zM562 885h55q6 -63 -19 -99.5t-66 -36.5q-33 0 -83 31t-62 31q-34 0 -36 -55h-56q-2 59 24 95.5t69 36.5
q28 0 78.5 -31t64.5 -31q28 0 31 59z" />
    <glyph glyph-name="Adieresis" unicode="&#xc4;" horiz-adv-x="646" 
d="M468 238h-238l-84 -159h73l-18 -79h-241l18 79h63l293 521h-74l19 79h330l-18 -79h-67l56 -521h73l-19 -79h-250l18 79h81zM461 317l-24 283h-18l-145 -283h187zM552 874q22 0 38.5 -16t16.5 -39t-16.5 -39t-38.5 -16t-38.5 16t-16.5 39t16.5 39t38.5 16zM349 874
q23 0 39 -16t16 -39t-16 -39t-39 -16t-39 16t-16 39t16 39t39 16z" />
    <glyph glyph-name="Aring" unicode="&#xc5;" horiz-adv-x="646" 
d="M468 238h-238l-84 -159h73l-18 -79h-241l18 79h63l293 521h-74l19 79h330l-18 -79h-67l56 -521h73l-19 -79h-250l18 79h81zM461 317l-24 283h-18l-145 -283h187zM446 916q40 0 68 -28t28 -69t-28 -69t-68 -28q-41 0 -69.5 28.5t-28.5 68.5t28.5 68.5t69.5 28.5zM445 878
q-25 0 -42 -17t-17 -42t17 -42t42 -17t42 17t17 42t-17 42t-42 17z" />
    <glyph glyph-name="AE" unicode="&#xc6;" horiz-adv-x="969" 
d="M513 309h-173l-169 -230h73l-18 -79h-246l18 79h70l382 521h-88l18 79h644l-48 -204h-81l29 125h-246l-49 -212h217l-18 -79h-217l-53 -230h253l30 129h81l-48 -208h-512l18 79h80zM531 388l49 212h-26l-156 -212h133z" />
    <glyph glyph-name="Ccedilla" unicode="&#xc7;" horiz-adv-x="719" 
d="M294 -79l29 72q-119 16 -181.5 97.5t-62.5 190.5q0 75 31 148t85.5 131t137 94t178.5 36q66 0 109.5 -15.5t85.5 -53.5l14 58h81l-43 -187h-81q-25 115 -174 115q-91 0 -166.5 -50.5t-115.5 -127t-40 -159.5q0 -85 57 -141.5t143 -56.5q127 0 239 130l66 -59
q-128 -154 -323 -154l-11 -26q55 -6 55 -67q0 -42 -33 -67.5t-88 -25.5q-30 0 -60 7l17 44q15 -3 31 -3q27 0 44 11.5t17 30.5q0 31 -41 28z" />
    <glyph glyph-name="Egrave" unicode="&#xc8;" horiz-adv-x="573" 
d="M81 79l121 521h-62l18 79h489l-47 -204h-81l29 125h-248l-49 -210h213l-18 -79h-213l-54 -232h253l30 130h81l-48 -209h-494l18 79h62zM494 756h-68l-186 139h174z" />
    <glyph glyph-name="Eacute" unicode="&#xc9;" horiz-adv-x="573" 
d="M81 79l121 521h-62l18 79h489l-47 -204h-81l29 125h-248l-49 -210h213l-18 -79h-213l-54 -232h253l30 130h81l-48 -209h-494l18 79h62zM364 756l80 139h174l-186 -139h-68z" />
    <glyph glyph-name="Ecircumflex" unicode="&#xca;" horiz-adv-x="573" 
d="M81 79l121 521h-62l18 79h489l-47 -204h-81l29 125h-248l-49 -210h213l-18 -79h-213l-54 -232h253l30 130h81l-48 -209h-494l18 79h62zM284 745l120 149h127l48 -149h-67l-60 78l-100 -78h-68z" />
    <glyph glyph-name="Edieresis" unicode="&#xcb;" horiz-adv-x="573" 
d="M81 79l121 521h-62l18 79h489l-47 -204h-81l29 125h-248l-49 -210h213l-18 -79h-213l-54 -232h253l30 130h81l-48 -209h-494l18 79h62zM545 874q23 0 39 -16t16 -39t-16 -39t-39 -16t-39 16t-16 39t16 39t39 16zM342 874q22 0 38.5 -16t16.5 -39t-16.5 -39t-38.5 -16
t-38.5 16t-16.5 39t16.5 39t38.5 16z" />
    <glyph glyph-name="Igrave" unicode="&#xcc;" horiz-adv-x="292" 
d="M84 79l120 521h-56l18 79h207l-18 -79h-53l-120 -521h62l-19 -79h-216l19 79h56zM354 756h-68l-186 139h174z" />
    <glyph glyph-name="Iacute" unicode="&#xcd;" horiz-adv-x="292" 
d="M84 79l120 521h-56l18 79h207l-18 -79h-53l-120 -521h62l-19 -79h-216l19 79h56zM224 756l80 139h174l-186 -139h-68z" />
    <glyph glyph-name="Icircumflex" unicode="&#xce;" horiz-adv-x="292" 
d="M84 79l120 521h-56l18 79h207l-18 -79h-53l-120 -521h62l-19 -79h-216l19 79h56zM144 745l120 149h127l48 -149h-67l-60 78l-100 -78h-68z" />
    <glyph glyph-name="Idieresis" unicode="&#xcf;" horiz-adv-x="292" 
d="M84 79l120 521h-56l18 79h207l-18 -79h-53l-120 -521h62l-19 -79h-216l19 79h56zM405 874q23 0 39 -16t16 -39t-16 -39t-39 -16t-39 16t-16 39t16 39t39 16zM202 874q22 0 38.5 -16t16.5 -39t-16.5 -39t-38.5 -16t-38.5 16t-16.5 39t16.5 39t38.5 16z" />
    <glyph glyph-name="Eth" unicode="&#xd0;" horiz-adv-x="708" 
d="M83 79l53 221h-62l17 79h60l52 221h-67l18 79h231q84 0 148 -23.5t101 -64.5t55 -89.5t18 -104.5q0 -74 -29 -153t-82 -132q-65 -65 -152 -88.5t-217 -23.5h-218l18 79h56zM181 79h72q92 0 150 17.5t99 58.5q46 46 73 112t27 135q0 85 -52 141.5t-164 56.5h-85l-52 -221
h153l-15 -79h-153z" />
    <glyph glyph-name="Ntilde" unicode="&#xd1;" horiz-adv-x="698" 
d="M82 79l121 521h-73l18 79h196l175 -540h2l106 461h-67l18 79h215l-18 -79h-67l-140 -606h-99l-189 587h-2l-115 -502h62l-18 -79h-210l18 79h67zM618 885h55q6 -63 -19 -99.5t-66 -36.5q-33 0 -83 31t-62 31q-34 0 -36 -55h-56q-2 59 24 95.5t69 36.5q28 0 78.5 -31
t64.5 -31q28 0 31 59z" />
    <glyph glyph-name="Ograve" unicode="&#xd2;" horiz-adv-x="781" 
d="M85 266q0 73 27 147t77 136.5t129.5 101.5t175.5 39q132 0 209.5 -74.5t77.5 -201.5q0 -72 -27.5 -145.5t-77.5 -136.5t-130.5 -103t-175.5 -40q-141 0 -213 80t-72 197zM188 262q0 -85 52 -137.5t135 -52.5q59 0 110.5 24t85.5 62t59 85t36.5 92.5t11.5 85.5
q0 82 -52.5 134t-135.5 52q-87 0 -158.5 -54.5t-107.5 -132.5t-36 -158zM598 756h-68l-186 139h174z" />
    <glyph glyph-name="Oacute" unicode="&#xd3;" horiz-adv-x="781" 
d="M85 266q0 73 27 147t77 136.5t129.5 101.5t175.5 39q132 0 209.5 -74.5t77.5 -201.5q0 -72 -27.5 -145.5t-77.5 -136.5t-130.5 -103t-175.5 -40q-141 0 -213 80t-72 197zM188 262q0 -85 52 -137.5t135 -52.5q59 0 110.5 24t85.5 62t59 85t36.5 92.5t11.5 85.5
q0 82 -52.5 134t-135.5 52q-87 0 -158.5 -54.5t-107.5 -132.5t-36 -158zM468 756l80 139h174l-186 -139h-68z" />
    <glyph glyph-name="Ocircumflex" unicode="&#xd4;" horiz-adv-x="781" 
d="M85 266q0 73 27 147t77 136.5t129.5 101.5t175.5 39q132 0 209.5 -74.5t77.5 -201.5q0 -72 -27.5 -145.5t-77.5 -136.5t-130.5 -103t-175.5 -40q-141 0 -213 80t-72 197zM188 262q0 -85 52 -137.5t135 -52.5q59 0 110.5 24t85.5 62t59 85t36.5 92.5t11.5 85.5
q0 82 -52.5 134t-135.5 52q-87 0 -158.5 -54.5t-107.5 -132.5t-36 -158zM388 745l120 149h127l48 -149h-67l-60 78l-100 -78h-68z" />
    <glyph glyph-name="Otilde" unicode="&#xd5;" horiz-adv-x="781" 
d="M85 266q0 73 27 147t77 136.5t129.5 101.5t175.5 39q132 0 209.5 -74.5t77.5 -201.5q0 -72 -27.5 -145.5t-77.5 -136.5t-130.5 -103t-175.5 -40q-141 0 -213 80t-72 197zM188 262q0 -85 52 -137.5t135 -52.5q59 0 110.5 24t85.5 62t59 85t36.5 92.5t11.5 85.5
q0 82 -52.5 134t-135.5 52q-87 0 -158.5 -54.5t-107.5 -132.5t-36 -158zM659 885h55q6 -63 -19 -99.5t-66 -36.5q-33 0 -83 31t-62 31q-34 0 -36 -55h-56q-2 59 24 95.5t69 36.5q28 0 78.5 -31t64.5 -31q28 0 31 59z" />
    <glyph glyph-name="Odieresis" unicode="&#xd6;" horiz-adv-x="781" 
d="M85 266q0 73 27 147t77 136.5t129.5 101.5t175.5 39q132 0 209.5 -74.5t77.5 -201.5q0 -72 -27.5 -145.5t-77.5 -136.5t-130.5 -103t-175.5 -40q-141 0 -213 80t-72 197zM188 262q0 -85 52 -137.5t135 -52.5q59 0 110.5 24t85.5 62t59 85t36.5 92.5t11.5 85.5
q0 82 -52.5 134t-135.5 52q-87 0 -158.5 -54.5t-107.5 -132.5t-36 -158zM649 874q23 0 39 -16t16 -39t-16 -39t-39 -16t-39 16t-16 39t16 39t39 16zM446 874q22 0 38.5 -16t16.5 -39t-16.5 -39t-38.5 -16t-38.5 16t-16.5 39t16.5 39t38.5 16z" />
    <glyph glyph-name="multiply" unicode="&#xd7;" horiz-adv-x="668" 
d="M623 520l-194 -194l194 -194l-55 -55l-192 193l-192 -193l-55 55l194 194l-194 194l54 54l193 -193l193 193z" />
    <glyph glyph-name="Oslash" unicode="&#xd8;" horiz-adv-x="781" 
d="M752 650l-39 -44q68 -71 68 -192q0 -54 -16 -112t-50 -114t-81.5 -100.5t-116 -71.5t-147.5 -27q-99 0 -168 42l-41 -44l-47 44l39 43q-68 74 -68 194q0 74 27.5 148t78 135.5t129.5 100t173 38.5q100 0 171 -43l41 45zM645 530l-379 -426q44 -32 109 -32q58 0 108.5 23
t85.5 60.5t60 83.5t37 92t12 87q0 62 -33 112zM220 149l381 427q-47 31 -112 31q-90 0 -161 -56.5t-105.5 -134t-34.5 -152.5q0 -63 32 -115z" />
    <glyph glyph-name="Ugrave" unicode="&#xd9;" horiz-adv-x="635" 
d="M147 679h222l-19 -79h-62l-92 -402q-16 -70 19 -101t89 -31q66 0 103.5 37t61.5 141l82 356h-59l19 79h213l-19 -79h-56l-81 -354q-32 -140 -82 -190q-67 -67 -188 -67q-51 0 -91 12t-70.5 39t-38.5 71t5 109l87 380h-62zM525 756h-68l-186 139h174z" />
    <glyph glyph-name="Uacute" unicode="&#xda;" horiz-adv-x="635" 
d="M147 679h222l-19 -79h-62l-92 -402q-16 -70 19 -101t89 -31q66 0 103.5 37t61.5 141l82 356h-59l19 79h213l-19 -79h-56l-81 -354q-32 -140 -82 -190q-67 -67 -188 -67q-51 0 -91 12t-70.5 39t-38.5 71t5 109l87 380h-62zM395 756l80 139h174l-186 -139h-68z" />
    <glyph glyph-name="Ucircumflex" unicode="&#xdb;" horiz-adv-x="635" 
d="M147 679h222l-19 -79h-62l-92 -402q-16 -70 19 -101t89 -31q66 0 103.5 37t61.5 141l82 356h-59l19 79h213l-19 -79h-56l-81 -354q-32 -140 -82 -190q-67 -67 -188 -67q-51 0 -91 12t-70.5 39t-38.5 71t5 109l87 380h-62zM315 745l120 149h127l48 -149h-67l-60 78
l-100 -78h-68z" />
    <glyph glyph-name="Udieresis" unicode="&#xdc;" horiz-adv-x="635" 
d="M147 679h222l-19 -79h-62l-92 -402q-16 -70 19 -101t89 -31q66 0 103.5 37t61.5 141l82 356h-59l19 79h213l-19 -79h-56l-81 -354q-32 -140 -82 -190q-67 -67 -188 -67q-51 0 -91 12t-70.5 39t-38.5 71t5 109l87 380h-62zM576 874q22 0 38.5 -16t16.5 -39t-16.5 -39
t-38.5 -16t-38.5 16t-16.5 39t16.5 39t38.5 16zM373 874q23 0 39 -16t16 -39t-16 -39t-39 -16t-39 16t-16 39t16 39t39 16z" />
    <glyph glyph-name="Yacute" unicode="&#xdd;" horiz-adv-x="573" 
d="M248 306l-102 294h-67l13 79h223l-12 -79h-67l78 -224l208 224h-79l13 79h235l-13 -79h-60l-272 -294l-52 -227h67l-18 -79h-232l18 79h67zM364 756l80 139h174l-186 -139h-68z" />
    <glyph glyph-name="Thorn" unicode="&#xde;" horiz-adv-x="542" 
d="M82 79l121 521h-63l19 79h227l-18 -79h-68l-11 -50h63q56 0 98.5 -16.5t66.5 -44t35.5 -60t11.5 -68.5q0 -101 -65 -166t-217 -65h-90l-12 -51h79l-18 -79h-239l18 79h62zM210 209h96q46 0 79 14.5t50 38.5t24.5 49t7.5 52q0 47 -28 77.5t-93 30.5h-76z" />
    <glyph glyph-name="germandbls" unicode="&#xdf;" horiz-adv-x="615" 
d="M288 79q29 -8 66 -8q64 0 106 41.5t42 105.5q0 52 -36.5 86.5t-111.5 32.5l16 68q67 0 103.5 32t36.5 82q0 44 -31.5 71t-83.5 27q-101 0 -124 -101l-101 -437h59l-18 -79h-206l18 79h58l99 426q42 178 220 178q89 0 144 -44.5t55 -115.5q0 -52 -31 -92.5t-86 -59.5
q107 -46 107 -161q0 -93 -66 -154.5t-165 -61.5q-39 0 -90 16z" />
    <glyph glyph-name="agrave" unicode="&#xe0;" horiz-adv-x="531" 
d="M429 79h61l-18 -79h-143l15 63l-2 2q-26 -32 -68 -52.5t-82 -20.5q-60 0 -101.5 39.5t-41.5 97.5q0 71 57.5 118t143.5 47q65 0 132 -35l17 74q9 39 -16.5 60t-66.5 21q-70 0 -116 -66l-74 33q32 49 87.5 77t119.5 28q80 0 125.5 -41t24.5 -133zM351 124l16 71
q-63 31 -111 31q-51 0 -84.5 -26.5t-33.5 -66.5q0 -31 22.5 -50t60.5 -19q57 0 130 60zM414 550h-68l-186 139h174z" />
    <glyph glyph-name="aacute" unicode="&#xe1;" horiz-adv-x="531" 
d="M429 79h61l-18 -79h-143l15 63l-2 2q-26 -32 -68 -52.5t-82 -20.5q-60 0 -101.5 39.5t-41.5 97.5q0 71 57.5 118t143.5 47q65 0 132 -35l17 74q9 39 -16.5 60t-66.5 21q-70 0 -116 -66l-74 33q32 49 87.5 77t119.5 28q80 0 125.5 -41t24.5 -133zM351 124l16 71
q-63 31 -111 31q-51 0 -84.5 -26.5t-33.5 -66.5q0 -31 22.5 -50t60.5 -19q57 0 130 60zM284 550l80 139h174l-186 -139h-68z" />
    <glyph glyph-name="acircumflex" unicode="&#xe2;" horiz-adv-x="531" 
d="M429 79h61l-18 -79h-143l15 63l-2 2q-26 -32 -68 -52.5t-82 -20.5q-60 0 -101.5 39.5t-41.5 97.5q0 71 57.5 118t143.5 47q65 0 132 -35l17 74q9 39 -16.5 60t-66.5 21q-70 0 -116 -66l-74 33q32 49 87.5 77t119.5 28q80 0 125.5 -41t24.5 -133zM351 124l16 71
q-63 31 -111 31q-51 0 -84.5 -26.5t-33.5 -66.5q0 -31 22.5 -50t60.5 -19q57 0 130 60zM204 539l120 149h127l48 -149h-67l-60 78l-100 -78h-68z" />
    <glyph glyph-name="atilde" unicode="&#xe3;" horiz-adv-x="531" 
d="M429 79h61l-18 -79h-143l15 63l-2 2q-26 -32 -68 -52.5t-82 -20.5q-60 0 -101.5 39.5t-41.5 97.5q0 71 57.5 118t143.5 47q65 0 132 -35l17 74q9 39 -16.5 60t-66.5 21q-70 0 -116 -66l-74 33q32 49 87.5 77t119.5 28q80 0 125.5 -41t24.5 -133zM351 124l16 71
q-63 31 -111 31q-51 0 -84.5 -26.5t-33.5 -66.5q0 -31 22.5 -50t60.5 -19q57 0 130 60zM475 679h55q6 -63 -19 -99.5t-66 -36.5q-33 0 -83 31t-62 31q-34 0 -36 -55h-56q-2 59 24 95.5t69 36.5q28 0 78.5 -31t64.5 -31q28 0 31 59z" />
    <glyph glyph-name="adieresis" unicode="&#xe4;" horiz-adv-x="531" 
d="M429 79h61l-18 -79h-143l15 63l-2 2q-26 -32 -68 -52.5t-82 -20.5q-60 0 -101.5 39.5t-41.5 97.5q0 71 57.5 118t143.5 47q65 0 132 -35l17 74q9 39 -16.5 60t-66.5 21q-70 0 -116 -66l-74 33q32 49 87.5 77t119.5 28q80 0 125.5 -41t24.5 -133zM351 124l16 71
q-63 31 -111 31q-51 0 -84.5 -26.5t-33.5 -66.5q0 -31 22.5 -50t60.5 -19q57 0 130 60zM465 668q23 0 39 -16t16 -39t-16 -39t-39 -16t-39 16t-16 39t16 39t39 16zM262 668q22 0 38.5 -16t16.5 -39t-16.5 -39t-38.5 -16t-38.5 16t-16.5 39t16.5 39t38.5 16z" />
    <glyph glyph-name="aring" unicode="&#xe5;" horiz-adv-x="531" 
d="M429 79h61l-18 -79h-143l15 63l-2 2q-26 -32 -68 -52.5t-82 -20.5q-60 0 -101.5 39.5t-41.5 97.5q0 71 57.5 118t143.5 47q65 0 132 -35l17 74q9 39 -16.5 60t-66.5 21q-70 0 -116 -66l-74 33q32 49 87.5 77t119.5 28q80 0 125.5 -41t24.5 -133zM351 124l16 71
q-63 31 -111 31q-51 0 -84.5 -26.5t-33.5 -66.5q0 -31 22.5 -50t60.5 -19q57 0 130 60zM359 710q40 0 68 -28t28 -69t-28 -69t-68 -28q-41 0 -69.5 28.5t-28.5 68.5t28.5 68.5t69.5 28.5zM358 672q-25 0 -42 -17t-17 -42t17 -42t42 -17t42 17t17 42t-17 42t-42 17z" />
    <glyph glyph-name="ae" unicode="&#xe6;" horiz-adv-x="865" 
d="M839 216h-374q-9 -71 24.5 -112t92.5 -41q76 0 122 68l91 -41q-71 -104 -211 -104q-136 0 -186 104q-42 -49 -95 -76.5t-103 -27.5q-64 0 -107.5 41t-43.5 102q0 70 59.5 118t145.5 48q62 0 133 -36l19 79q9 35 -16.5 55.5t-68.5 20.5q-76 0 -119 -65l-75 32
q71 105 212 105q99 0 136 -60q69 60 164 60q103 0 164 -71.5t36 -198.5zM644 412q-54 0 -96 -34.5t-63 -95.5h270q9 59 -25 94.5t-86 35.5zM355 119l17 76q-59 34 -112 34q-52 0 -87 -29t-35 -73q0 -32 22 -52.5t57 -20.5q58 0 138 65z" />
    <glyph glyph-name="ccedilla" unicode="&#xe7;" horiz-adv-x="500" 
d="M179 -79l28 69q-71 14 -114 66.5t-43 125.5q0 121 79 212.5t183 91.5q80 0 131 -54l9 40h78l-33 -141h-78q-7 37 -36 61q-28 22 -70 22q-68 0 -118 -65.5t-50 -155.5q0 -62 32 -97t87 -35q39 0 69 19t61 63l65 -47q-83 -110 -212 -110l-10 -23q55 -6 55 -67
q0 -42 -33 -67.5t-88 -25.5q-30 0 -60 7l17 44q15 -3 31 -3q27 0 44 11.5t17 30.5q0 31 -41 28z" />
    <glyph glyph-name="egrave" unicode="&#xe8;" 
d="M525 215h-371q-15 -62 20 -107t94 -45q72 0 121 68l92 -39q-30 -49 -87.5 -77.5t-124.5 -28.5q-98 0 -156.5 57.5t-58.5 152.5q0 115 82.5 202.5t191.5 87.5q110 0 166 -82.5t31 -188.5zM172 281h269q11 49 -21.5 88.5t-89.5 39.5q-52 0 -93.5 -33.5t-64.5 -94.5z
M425 550h-68l-186 139h174z" />
    <glyph glyph-name="eacute" unicode="&#xe9;" 
d="M525 215h-371q-15 -62 20 -107t94 -45q72 0 121 68l92 -39q-30 -49 -87.5 -77.5t-124.5 -28.5q-98 0 -156.5 57.5t-58.5 152.5q0 115 82.5 202.5t191.5 87.5q110 0 166 -82.5t31 -188.5zM172 281h269q11 49 -21.5 88.5t-89.5 39.5q-52 0 -93.5 -33.5t-64.5 -94.5z
M295 550l80 139h174l-186 -139h-68z" />
    <glyph glyph-name="ecircumflex" unicode="&#xea;" 
d="M525 215h-371q-15 -62 20 -107t94 -45q72 0 121 68l92 -39q-30 -49 -87.5 -77.5t-124.5 -28.5q-98 0 -156.5 57.5t-58.5 152.5q0 115 82.5 202.5t191.5 87.5q110 0 166 -82.5t31 -188.5zM172 281h269q11 49 -21.5 88.5t-89.5 39.5q-52 0 -93.5 -33.5t-64.5 -94.5z
M215 539l120 149h127l48 -149h-67l-60 78l-100 -78h-68z" />
    <glyph glyph-name="edieresis" unicode="&#xeb;" 
d="M525 215h-371q-15 -62 20 -107t94 -45q72 0 121 68l92 -39q-30 -49 -87.5 -77.5t-124.5 -28.5q-98 0 -156.5 57.5t-58.5 152.5q0 115 82.5 202.5t191.5 87.5q110 0 166 -82.5t31 -188.5zM172 281h269q11 49 -21.5 88.5t-89.5 39.5q-52 0 -93.5 -33.5t-64.5 -94.5z
M476 668q22 0 38.5 -16t16.5 -39t-16.5 -39t-38.5 -16t-38.5 16t-16.5 39t16.5 39t38.5 16zM273 668q23 0 39 -16t16 -39t-16 -39t-39 -16t-39 16t-16 39t16 39t39 16z" />
    <glyph glyph-name="igrave" unicode="&#xec;" horiz-adv-x="281" 
d="M87 79l73 314h-64l18 79h153l-91 -393h68l-18 -79h-210l18 79h53zM289 550h-68l-186 139h174z" />
    <glyph glyph-name="iacute" unicode="&#xed;" horiz-adv-x="281" 
d="M87 79l73 314h-64l18 79h153l-91 -393h68l-18 -79h-210l18 79h53zM159 550l80 139h174l-186 -139h-68z" />
    <glyph glyph-name="icircumflex" unicode="&#xee;" horiz-adv-x="281" 
d="M87 79l73 314h-64l18 79h153l-91 -393h68l-18 -79h-210l18 79h53zM79 539l120 149h127l48 -149h-67l-60 78l-100 -78h-68z" />
    <glyph glyph-name="idieresis" unicode="&#xef;" horiz-adv-x="281" 
d="M87 79l73 314h-64l18 79h153l-91 -393h68l-18 -79h-210l18 79h53zM340 668q22 0 38.5 -16t16.5 -39t-16.5 -39t-38.5 -16t-38.5 16t-16.5 39t16.5 39t38.5 16zM137 668q23 0 39 -16t16 -39t-16 -39t-39 -16t-39 16t-16 39t16 39t39 16z" />
    <glyph glyph-name="eth" unicode="&#xf0;" horiz-adv-x="635" 
d="M184 195q0 -60 30.5 -91.5t87.5 -31.5q59 0 102 35t60.5 80t17.5 89q0 59 -33 93t-90 34q-74 0 -124.5 -60t-50.5 -148zM624 652l-132 -56q93 -109 93 -261q0 -165 -84 -255.5t-208 -90.5q-92 0 -148 55t-56 146q0 123 84 209.5t199 86.5q58 0 103 -40l2 2
q-16 54 -69 112l-124 -53l-49 37l131 56q-45 38 -77 53l86 37q46 -24 78 -53l124 53z" />
    <glyph glyph-name="ntilde" unicode="&#xf1;" 
d="M111 472h150l-13 -54q90 62 153 62q59 0 89.5 -45.5t15.5 -110.5l-56 -245h69l-18 -79h-158l75 323q8 36 -7 55t-39 19q-53 0 -143 -62l-59 -256h69l-18 -79h-215l18 79h57l73 314h-62zM486 679h55q6 -63 -19 -99.5t-66 -36.5q-33 0 -83 31t-62 31q-34 0 -36 -55h-56
q-2 59 24 95.5t69 36.5q28 0 78.5 -31t64.5 -31q28 0 31 59z" />
    <glyph glyph-name="ograve" unicode="&#xf2;" horiz-adv-x="563" 
d="M54 188q0 125 84 211.5t205 86.5q94 0 149.5 -55t55.5 -148q0 -51 -18.5 -104.5t-48.5 -91.5q-38 -47 -97 -74t-123 -27q-94 0 -150.5 55.5t-56.5 146.5zM148 196q0 -58 35 -92t87 -34q77 0 130.5 62t53.5 151q0 54 -34 86.5t-90 32.5q-78 0 -130 -65.5t-52 -140.5z
M430 550h-68l-186 139h174z" />
    <glyph glyph-name="oacute" unicode="&#xf3;" horiz-adv-x="563" 
d="M54 188q0 125 84 211.5t205 86.5q94 0 149.5 -55t55.5 -148q0 -51 -18.5 -104.5t-48.5 -91.5q-38 -47 -97 -74t-123 -27q-94 0 -150.5 55.5t-56.5 146.5zM148 196q0 -58 35 -92t87 -34q77 0 130.5 62t53.5 151q0 54 -34 86.5t-90 32.5q-78 0 -130 -65.5t-52 -140.5z
M300 550l80 139h174l-186 -139h-68z" />
    <glyph glyph-name="ocircumflex" unicode="&#xf4;" horiz-adv-x="563" 
d="M54 188q0 125 84 211.5t205 86.5q94 0 149.5 -55t55.5 -148q0 -51 -18.5 -104.5t-48.5 -91.5q-38 -47 -97 -74t-123 -27q-94 0 -150.5 55.5t-56.5 146.5zM148 196q0 -58 35 -92t87 -34q77 0 130.5 62t53.5 151q0 54 -34 86.5t-90 32.5q-78 0 -130 -65.5t-52 -140.5z
M220 539l120 149h127l48 -149h-67l-60 78l-100 -78h-68z" />
    <glyph glyph-name="otilde" unicode="&#xf5;" horiz-adv-x="563" 
d="M54 188q0 125 84 211.5t205 86.5q94 0 149.5 -55t55.5 -148q0 -51 -18.5 -104.5t-48.5 -91.5q-38 -47 -97 -74t-123 -27q-94 0 -150.5 55.5t-56.5 146.5zM148 196q0 -58 35 -92t87 -34q77 0 130.5 62t53.5 151q0 54 -34 86.5t-90 32.5q-78 0 -130 -65.5t-52 -140.5z
M491 679h55q6 -63 -19 -99.5t-66 -36.5q-33 0 -83 31t-62 31q-34 0 -36 -55h-56q-2 59 24 95.5t69 36.5q28 0 78.5 -31t64.5 -31q28 0 31 59z" />
    <glyph glyph-name="odieresis" unicode="&#xf6;" horiz-adv-x="563" 
d="M54 188q0 125 84 211.5t205 86.5q94 0 149.5 -55t55.5 -148q0 -51 -18.5 -104.5t-48.5 -91.5q-38 -47 -97 -74t-123 -27q-94 0 -150.5 55.5t-56.5 146.5zM148 196q0 -58 35 -92t87 -34q77 0 130.5 62t53.5 151q0 54 -34 86.5t-90 32.5q-78 0 -130 -65.5t-52 -140.5z
M481 668q23 0 39 -16t16 -39t-16 -39t-39 -16t-39 16t-16 39t16 39t39 16zM278 668q22 0 38.5 -16t16.5 -39t-16.5 -39t-38.5 -16t-38.5 16t-16.5 39t16.5 39t38.5 16z" />
    <glyph glyph-name="divide" unicode="&#xf7;" horiz-adv-x="668" 
d="M66 365h534v-77h-534v77zM333 172q20 0 34 -14t14 -34t-14 -34t-34 -14t-34 14t-14 34t14 34t34 14zM333 577q20 0 34 -14t14 -34t-14 -34t-34 -14t-34 14t-14 34t14 34t34 14z" />
    <glyph glyph-name="oslash" unicode="&#xf8;" horiz-adv-x="563" 
d="M534 472l-38 -45q52 -54 52 -145q0 -123 -82 -209.5t-204 -86.5q-71 0 -124 34l-40 -45l-32 25l40 47q-52 53 -52 143q0 123 84.5 209.5t203.5 86.5q73 0 123 -32l38 44zM433 355l-234 -265q32 -20 73 -20q85 0 133.5 66t48.5 144q0 45 -21 75zM170 120l232 263
q-30 19 -74 19q-75 0 -127.5 -65t-52.5 -141q0 -40 22 -76z" />
    <glyph glyph-name="ugrave" unicode="&#xf9;" 
d="M173 156q-10 -42 4 -62.5t43 -20.5q54 0 142 69l58 251h-69l18 79h158l-90 -393h59l-19 -79h-148l13 54q-85 -62 -154 -62q-51 0 -87.5 39t-18.5 114l57 248h-58l18 79h147zM425 550h-68l-186 139h174z" />
    <glyph glyph-name="uacute" unicode="&#xfa;" 
d="M173 156q-10 -42 4 -62.5t43 -20.5q54 0 142 69l58 251h-69l18 79h158l-90 -393h59l-19 -79h-148l13 54q-85 -62 -154 -62q-51 0 -87.5 39t-18.5 114l57 248h-58l18 79h147zM295 550l80 139h174l-186 -139h-68z" />
    <glyph glyph-name="ucircumflex" unicode="&#xfb;" 
d="M173 156q-10 -42 4 -62.5t43 -20.5q54 0 142 69l58 251h-69l18 79h158l-90 -393h59l-19 -79h-148l13 54q-85 -62 -154 -62q-51 0 -87.5 39t-18.5 114l57 248h-58l18 79h147zM215 539l120 149h127l48 -149h-67l-60 78l-100 -78h-68z" />
    <glyph glyph-name="udieresis" unicode="&#xfc;" 
d="M173 156q-10 -42 4 -62.5t43 -20.5q54 0 142 69l58 251h-69l18 79h158l-90 -393h59l-19 -79h-148l13 54q-85 -62 -154 -62q-51 0 -87.5 39t-18.5 114l57 248h-58l18 79h147zM476 668q22 0 38.5 -16t16.5 -39t-16.5 -39t-38.5 -16t-38.5 16t-16.5 39t16.5 39t38.5 16z
M273 668q23 0 39 -16t16 -39t-16 -39t-39 -16t-39 16t-16 39t16 39t39 16z" />
    <glyph glyph-name="yacute" unicode="&#xfd;" horiz-adv-x="510" 
d="M506 393l-414 -605h-141l18 79h91l93 136l-22 390h-49l9 79h186l-10 -79h-54l16 -277h2l191 277h-65l19 79h193l-19 -79h-44zM274 550l80 139h174l-186 -139h-68z" />
    <glyph glyph-name="thorn" unicode="&#xfe;" horiz-adv-x="604" 
d="M111 -133h71l-18 -79h-219l18 79h59l169 733h-67l18 79h156l-61 -264l2 -2q70 67 156 67q82 0 136 -60.5t54 -152.5q0 -115 -77 -198t-184 -83q-106 0 -167 82zM190 190q0 -59 32.5 -93t87.5 -34q75 0 128.5 60.5t53.5 145.5q0 60 -33.5 95t-90.5 35t-99.5 -38t-60.5 -84
t-18 -87z" />
    <glyph glyph-name="ydieresis" unicode="&#xff;" horiz-adv-x="510" 
d="M506 393l-414 -605h-141l18 79h91l93 136l-22 390h-49l9 79h186l-10 -79h-54l16 -277h2l191 277h-65l19 79h193l-19 -79h-44zM455 668q23 0 39 -16t16 -39t-16 -39t-39 -16t-39 16t-16 39t16 39t39 16zM252 668q22 0 38.5 -16t16.5 -39t-16.5 -39t-38.5 -16t-38.5 16
t-16.5 39t16.5 39t38.5 16z" />
    <glyph glyph-name="dotlessi" unicode="&#x131;" horiz-adv-x="281" 
d="M87 79l73 314h-64l18 79h153l-91 -393h68l-18 -79h-210l18 79h53z" />
    <glyph glyph-name="Lslash" unicode="&#x141;" horiz-adv-x="490" 
d="M241 348l-63 -269h225l47 202h81l-65 -281h-471l18 79h67l46 198l-92 -63l21 88l91 62l55 236h-67l18 79h238l-18 -79h-73l-38 -164l123 84l-21 -88z" />
    <glyph glyph-name="lslash" unicode="&#x142;" horiz-adv-x="281" 
d="M234 339l-60 -260h63l-18 -79h-207l18 79h55l41 176l-2 2l-74 -63l19 82l76 63l60 261h-62l18 79h151l-59 -255l2 -2l77 65l-21 -84z" />
    <glyph glyph-name="OE" unicode="&#x152;" horiz-adv-x="1000" 
d="M869 208h81l-48 -208h-496q-173 0 -257 77t-84 200q0 40 11 87.5t42.5 104.5t79.5 102.5t130.5 76.5t186.5 31h536l-47 -204h-81l29 125h-251l-49 -211h219l-18 -79h-219l-53 -231h258zM603 600h-77q-170 0 -260 -90q-45 -45 -70.5 -107.5t-25.5 -125.5q0 -90 57.5 -144
t181.5 -54h74z" />
    <glyph glyph-name="oe" unicode="&#x153;" horiz-adv-x="927" 
d="M904 217h-373q-11 -72 25 -113t89 -41q67 0 124 69l92 -39q-78 -107 -213 -107q-58 0 -105 23t-74 64q-89 -87 -206 -87q-95 0 -154 57t-59 149q0 119 86 206.5t203 87.5q55 0 104 -20t74 -63q72 83 188 83q111 0 166 -77.5t33 -191.5zM549 283h271q9 59 -25.5 95
t-87.5 36q-105 0 -158 -131zM147 187q0 -53 36 -85.5t90 -32.5q84 0 132.5 67.5t48.5 146.5q0 53 -33 86.5t-85 33.5q-60 0 -105 -36.5t-64.5 -84.5t-19.5 -95z" />
    <glyph glyph-name="Scaron" unicode="&#x160;" horiz-adv-x="521" 
d="M20 0l43 187h81l-14 -61q54 -60 129 -60q53 0 88.5 30t35.5 75q0 32 -18.5 59.5t-46 46t-60 42t-60 46.5t-46 60.5t-18.5 82.5q0 81 56 131.5t146 50.5q87 0 144 -57l11 46h81l-43 -184h-81l12 52q-20 30 -54.5 48t-72.5 18q-49 0 -80 -26.5t-31 -68.5q0 -36 26 -65.5
t63 -53t74 -49.5t63 -67.5t26 -95.5q0 -88 -62 -143t-163 -55q-80 0 -140 47l-8 -36h-81zM578 893l-120 -150h-128l-47 150h67l59 -78l101 78h68z" />
    <glyph glyph-name="scaron" unicode="&#x161;" horiz-adv-x="427" 
d="M29 132h81q0 -31 28 -50q29 -18 78 -18q40 0 65 17t25 44q0 26 -24 44.5t-58.5 31.5t-69 28.5t-58.5 45t-24 70.5q0 59 48.5 97t123.5 38q69 0 120 -41l7 33h81l-30 -131h-81q0 35 -31 52q-26 15 -67 15q-35 0 -58.5 -14.5t-23.5 -43.5q0 -21 36.5 -41t88 -43.5
t73.5 -45.5q35 -35 35 -93q0 -62 -49.5 -98.5t-139.5 -36.5q-85 0 -118 39l-7 -31h-81zM472 687l-120 -150h-128l-47 150h67l59 -78l101 78h68z" />
    <glyph glyph-name="Ydieresis" unicode="&#x178;" horiz-adv-x="573" 
d="M248 306l-102 294h-67l13 79h223l-12 -79h-67l78 -224l208 224h-79l13 79h235l-13 -79h-60l-272 -294l-52 -227h67l-18 -79h-232l18 79h67zM545 874q23 0 39 -16t16 -39t-16 -39t-39 -16t-39 16t-16 39t16 39t39 16zM342 874q22 0 38.5 -16t16.5 -39t-16.5 -39t-38.5 -16
t-38.5 16t-16.5 39t16.5 39t38.5 16z" />
    <glyph glyph-name="Zcaron" unicode="&#x17d;" horiz-adv-x="563" 
d="M11 0l18 79l443 521h-225l-29 -125h-81l47 204h429l-18 -79l-444 -521h254l32 137h81l-50 -216h-457zM599 893l-120 -150h-128l-47 150h67l59 -78l101 78h68z" />
    <glyph glyph-name="zcaron" unicode="&#x17e;" horiz-adv-x="417" 
d="M-13 0l19 80l325 323h-160l-22 -99h-78l38 168h345l-18 -80l-324 -320h175l23 101h75l-40 -173h-358zM467 687l-120 -150h-128l-47 150h67l59 -78l101 78h68z" />
    <glyph glyph-name="florin" unicode="&#x192;" 
d="M22 -199l17 76q44 -10 75 -10q29 0 41.5 15.5t18.5 47.5l89 521h-99l12 66h97l22 100q13 59 45 85t85 26q47 0 105 -19l-17 -74q-52 10 -76 10q-47 0 -58 -49l-16 -79h100l-12 -66h-99l-93 -535q-13 -69 -43 -98.5t-84 -29.5q-42 0 -110 13z" />
    <glyph glyph-name="circumflex" unicode="&#x2c6;" horiz-adv-x="333" 
d="M105 539l120 149h127l48 -149h-67l-60 78l-100 -78h-68z" />
    <glyph glyph-name="caron" unicode="&#x2c7;" horiz-adv-x="333" 
d="M425 687l-120 -150h-128l-47 150h67l59 -78l101 78h68z" />
    <glyph glyph-name="uni02C9" unicode="&#x2c9;" horiz-adv-x="333" 
d="M97 574l9 78h324l-9 -78h-324z" />
    <glyph glyph-name="breve" unicode="&#x2d8;" horiz-adv-x="333" 
d="M355 683h48q-17 -64 -57.5 -101t-93.5 -37q-52 0 -82.5 37t-31.5 101h52q3 -34 21.5 -52.5t47.5 -18.5q28 0 53.5 19t42.5 52z" />
    <glyph glyph-name="dotaccent" unicode="&#x2d9;" horiz-adv-x="333" 
d="M222 668q22 0 38.5 -16t16.5 -39t-16.5 -39t-38.5 -16t-38.5 16t-16.5 39t16.5 39t38.5 16z" />
    <glyph glyph-name="ring" unicode="&#x2da;" horiz-adv-x="333" 
d="M260 710q40 0 68 -28t28 -69t-28 -69t-68 -28q-41 0 -69.5 28.5t-28.5 68.5t28.5 68.5t69.5 28.5zM259 672q-25 0 -42 -17t-17 -42t17 -42t42 -17t42 17t17 42t-17 42t-42 17z" />
    <glyph glyph-name="ogonek" unicode="&#x2db;" horiz-adv-x="333" 
d="M95 0h78q-21 -44 -21 -79q0 -23 16 -38t41 -15q14 0 35 5l-7 -67q-37 -18 -73 -18q-46 0 -72 27t-26 75q0 55 29 110z" />
    <glyph glyph-name="tilde" unicode="&#x2dc;" horiz-adv-x="333" 
d="M376 679h55q6 -63 -19 -99.5t-66 -36.5q-33 0 -83 31t-62 31q-34 0 -36 -55h-56q-2 59 24 95.5t69 36.5q28 0 78.5 -31t64.5 -31q28 0 31 59z" />
    <glyph glyph-name="hungarumlaut" unicode="&#x2dd;" horiz-adv-x="333" 
d="M308 550l80 139h174l-186 -139h-68zM102 550l80 139h174l-186 -139h-68z" />
    <glyph glyph-name="uni03A9" unicode="&#x3a9;" horiz-adv-x="685" 
d="M165 64l1 3q-28 32 -45.5 74.5t-23.5 100.5t10 123q32 140 134.5 231t226.5 91t180 -94t26 -223q-22 -97 -78 -176.5t-121 -126.5l-1 -3h143l-15 -64h-232l11 47q68 40 127 120t84 188q13 47 9 95t-18.5 86t-48.5 62t-82 24q-93 0 -168 -77t-102 -193q-21 -111 0 -189.5
t70 -115.5l-11 -47h-232l15 64h141z" />
    <glyph glyph-name="uni03BC" unicode="&#x3bc;" 
d="M133 472h88l-54 -266q-15 -75 11.5 -109.5t79.5 -34.5q59 0 99 40q37 37 60 152l44 218h87l-98 -472h-79l9 39l-2 2q-64 -53 -128 -53q-67 0 -116 61l-60 -261h-86z" />
    <glyph glyph-name="pi" unicode="&#x3c0;" horiz-adv-x="548" 
d="M588 437h-76l-68 -295q-23 -94 -19 -142h-76q-9 28 16 136l69 301h-168q-28 -103 -79 -237t-91 -200h-76q44 76 93.5 206t75.5 231q-71 0 -107 -12v52q47 27 146 27h382z" />
    <glyph glyph-name="uni2010" unicode="&#x2010;" horiz-adv-x="385" 
d="M74 270h282l-15 -66h-282z" />
    <glyph glyph-name="endash" unicode="&#x2013;" horiz-adv-x="500" 
d="M14 291h512v-83h-512v83z" />
    <glyph glyph-name="emdash" unicode="&#x2014;" horiz-adv-x="1000" 
d="M19 291h1012v-83h-1012v83z" />
    <glyph glyph-name="quoteleft" unicode="&#x2018;" horiz-adv-x="281" 
d="M253 429h-118l27 115q14 57 52 95.5t104 39.5l-10 -41q-74 -13 -89 -94h61z" />
    <glyph glyph-name="quoteright" unicode="&#x2019;" horiz-adv-x="281" 
d="M194 679h118l-27 -115q-14 -57 -52 -95.5t-104 -39.5l10 41q74 13 89 94h-61z" />
    <glyph glyph-name="quotesinglbase" unicode="&#x201a;" horiz-adv-x="281" 
d="M73 115h118l-27 -115q-14 -57 -52 -95.5t-104 -39.5l10 41q74 13 89 94h-61z" />
    <glyph glyph-name="quotedblleft" unicode="&#x201c;" horiz-adv-x="490" 
d="M464 429h-118l27 115q14 57 52 95.5t104 39.5l-10 -41q-74 -13 -89 -94h61zM246 429h-118l27 115q14 57 52 95.5t104 39.5l-10 -41q-74 -13 -89 -94h61z" />
    <glyph glyph-name="quotedblright" unicode="&#x201d;" horiz-adv-x="490" 
d="M410 679h118l-27 -115q-14 -57 -52 -95.5t-104 -39.5l10 41q74 13 89 94h-61zM192 679h118l-27 -115q-14 -57 -52 -95.5t-104 -39.5l10 41q74 13 89 94h-61z" />
    <glyph glyph-name="quotedblbase" unicode="&#x201e;" horiz-adv-x="490" 
d="M289 115h118l-27 -115q-14 -57 -52 -95.5t-104 -39.5l10 41q74 13 89 94h-61zM71 115h118l-27 -115q-14 -57 -52 -95.5t-104 -39.5l10 41q74 13 89 94h-61z" />
    <glyph glyph-name="dagger" unicode="&#x2020;" horiz-adv-x="490" 
d="M546 469l-20 -89h-104q-10 8 -21 12q-6 3 -20 7q-21 6 -58 7q-18 -103 -2 -155l-140 -463h-45l87 463q41 52 67 155q-73 0 -131 -26h-93l20 89h94q13 -9 23 -13q11 -5 30 -10q29 -7 65 -7q19 89 0 137l26 114h98l-26 -114q-46 -52 -65 -137q65 1 112 30h103z" />
    <glyph glyph-name="daggerdbl" unicode="&#x2021;" horiz-adv-x="490" 
d="M533 472l-20 -86h-97q-16 11 -20 13q-7 4 -21 8q-20 7 -53 7q-20 -89 3 -173q-58 -67 -84 -181q65 2 108 26h96l-21 -86h-97q-20 17 -43 24q-20 8 -51 8q-10 -77 5 -126l-28 -118h-95l28 118q43 67 59 126q-62 -3 -110 -32h-95l21 86h95q6 -4 20 -11q13 -5 23 -8
q30 -7 53 -7q22 93 -4 181q59 72 85 173q-69 -3 -109 -28h-95l20 86h95q6 -5 18 -10q10 -5 22 -8q27 -7 56 -8q16 82 0 130l26 114h95l-26 -114l-6 -10q-24 -35 -34 -57t-23 -63q65 3 107 26h97z" />
    <glyph glyph-name="bullet" unicode="&#x2022;" horiz-adv-x="354" 
d="M219 462q51 0 87 -35.5t36 -86.5t-36 -87t-87 -36t-86.5 36t-35.5 87t35.5 86.5t86.5 35.5z" />
    <glyph glyph-name="ellipsis" unicode="&#x2026;" horiz-adv-x="1000" 
d="M743 0v120h120v-120h-120zM410 0v120h120v-120h-120zM77 0v120h120v-120h-120z" />
    <glyph glyph-name="perthousand" unicode="&#x2030;" horiz-adv-x="1083" 
d="M827 122q0 33 9.5 69.5t29.5 72t57.5 58.5t85.5 23q59 0 91.5 -36t32.5 -103q0 -28 -6.5 -57.5t-20.5 -59t-34.5 -52.5t-51.5 -37t-68 -14q-60 0 -92.5 35.5t-32.5 100.5zM898 120q0 -36 16.5 -57.5t44.5 -21.5q46 0 74.5 54.5t28.5 123.5q0 32 -16.5 51.5t-44.5 19.5
q-47 0 -75 -59.5t-28 -110.5zM431 122q0 33 9.5 69.5t29.5 72t57.5 58.5t85.5 23q59 0 91.5 -36t32.5 -103q0 -28 -6.5 -57.5t-20.5 -59t-34.5 -52.5t-51.5 -37t-68 -14q-60 0 -92.5 35.5t-32.5 100.5zM502 120q0 -36 16.5 -57.5t44.5 -21.5q46 0 74.5 54.5t28.5 123.5
q0 32 -16.5 51.5t-44.5 19.5q-47 0 -75 -59.5t-28 -110.5zM32 467q0 33 9.5 69.5t29.5 72t57.5 58.5t85.5 23q59 0 91.5 -36t32.5 -103q0 -28 -6.5 -57.5t-20.5 -59t-34.5 -52.5t-51.5 -37t-68 -14q-60 0 -92.5 35.5t-32.5 100.5zM103 465q0 -36 16.5 -57.5t44.5 -21.5
q46 0 74.5 54.5t28.5 123.5q0 32 -16.5 51.5t-44.5 19.5q-47 0 -75 -59.5t-28 -110.5zM7 0l697 679h65l-697 -679h-65z" />
    <glyph glyph-name="guilsinglleft" unicode="&#x2039;" horiz-adv-x="260" 
d="M56 253l173 219h97l-183 -235l76 -237h-83z" />
    <glyph glyph-name="guilsinglright" unicode="&#x203a;" horiz-adv-x="260" 
d="M254 219l-173 -219h-97l183 235l-76 237h83z" />
    <glyph glyph-name="fraction" unicode="&#x2044;" horiz-adv-x="323" 
d="M-179 0l697 679h65l-697 -679h-65z" />
    <glyph glyph-name="Euro" unicode="&#x20ac;" horiz-adv-x="531" 
d="M612 679l-29 -177h-64q-4 60 -39 88.5t-88 28.5q-65 0 -116.5 -50t-80.5 -130h226l-11 -69h-234q-7 -33 -8 -60h234l-11 -69h-224q6 -78 42.5 -129t92.5 -51q47 0 83.5 24t77.5 84l55 -46q-44 -73 -97 -103.5t-124 -30.5q-97 0 -152 72t-64 180h-51l11 69h39q4 40 8 60
h-51l11 69h57q36 110 113.5 181t179.5 71q43 0 80 -15.5t57 -42.5l10 46h67z" />
    <glyph glyph-name="afii61289" unicode="&#x2113;" horiz-adv-x="466" 
d="M407 148l28 -32q-91 -122 -209 -122q-78 0 -105.5 49.5t-12.5 127.5q0 4 2 12q-11 -7 -64 -45l-13 45q91 66 92 67l61 263q28 121 84 177t119 56q59 0 79.5 -44t4.5 -114q-37 -160 -277 -353l-8 -34q-16 -73 4.5 -109t64.5 -36q77 0 150 92zM261 517l-48 -206
q180 159 207 277q23 100 -43 100q-31 0 -63.5 -41.5t-52.5 -129.5z" />
    <glyph glyph-name="trademark" unicode="&#x2122;" horiz-adv-x="1000" 
d="M240 281v339h-129v59h324v-59h-129v-339h-66zM481 281v398h98l99 -318h2l96 318h98v-398h-61v334h-2l-102 -334h-60l-105 334h-2v-334h-61z" />
    <glyph glyph-name="Omega" unicode="&#x2126;" horiz-adv-x="685" 
d="M165 64l1 3q-28 32 -45.5 74.5t-23.5 100.5t10 123q32 140 134.5 231t226.5 91t180 -94t26 -223q-22 -97 -78 -176.5t-121 -126.5l-1 -3h143l-15 -64h-232l11 47q68 40 127 120t84 188q13 47 9 95t-18.5 86t-48.5 62t-82 24q-93 0 -168 -77t-102 -193q-21 -111 0 -189.5
t70 -115.5l-11 -47h-232l15 64h141z" />
    <glyph glyph-name="estimated" unicode="&#x212e;" horiz-adv-x="969" 
d="M936 330h-632q-5 0 -5 -4v-191q0 -12 8 -22q102 -104 239 -104q150 0 252 117h56q-54 -63 -135 -99.5t-174 -36.5q-161 0 -275 102.5t-114 247.5t114 248t275 103q162 0 276.5 -103t114.5 -248v-10zM792 355v192q0 14 -9 23q-102 100 -237 100t-238 -103q-9 -9 -9 -24
v-188q0 -6 5 -6h484q4 0 4 6z" />
    <glyph glyph-name="partialdiff" unicode="&#x2202;" horiz-adv-x="525" 
d="M211 649l-13 57q80 54 174 54q102 0 151 -95t8 -271q-41 -179 -132.5 -290t-211.5 -111q-88 0 -121 67t-12 157q25 111 101 180t160 69q57 0 91 -30t43 -61h2q1 6 4.5 21t5.5 20q28 122 -5 200.5t-108 78.5q-72 0 -137 -46zM209 58h1q63 0 122 71t92 171q-4 37 -33 69.5
t-78 32.5q-58 0 -111.5 -54.5t-70.5 -130.5q-16 -70 5 -114.5t73 -44.5z" />
    <glyph glyph-name="uni2206" unicode="&#x2206;" horiz-adv-x="620" 
d="M-6 0l11 52l385 642h90l85 -641l-12 -53h-559zM86 64h399l-51 360q-2 17 -11 85.5t-10 94.5h-4q-10 -21 -46.5 -83.5t-47.5 -81.5z" />
    <glyph glyph-name="product" unicode="&#x220f;" horiz-adv-x="789" 
d="M764 605h-103v-698h-76v698h-261v-698h-76v698h-104v71h620v-71z" />
    <glyph glyph-name="summation" unicode="&#x2211;" horiz-adv-x="649" 
d="M628 -93h-486v51l254 333l-243 331v54h460v-67h-354v-3l225 -304l-244 -319v-3h388v-73z" />
    <glyph glyph-name="minus" unicode="&#x2212;" horiz-adv-x="667" 
d="M108 365h535v-77h-535v77z" />
    <glyph glyph-name="uni2215" unicode="&#x2215;" horiz-adv-x="323" 
d="M-179 0l697 679h65l-697 -679h-65z" />
    <glyph glyph-name="uni2219" unicode="&#x2219;" horiz-adv-x="292" 
d="M142 387h118l-27 -115h-118z" />
    <glyph glyph-name="radical" unicode="&#x221a;" horiz-adv-x="671" 
d="M673 805l-212 -949h-67l-152 447l-72 -27l-15 47l135 52l119 -354q13 -52 17 -71l1 -1q6 38 13 73l176 783h57z" />
    <glyph glyph-name="infinity" unicode="&#x221e;" horiz-adv-x="808" 
d="M760 281v-1q0 -68 -44 -111t-104 -43q-44 0 -83.5 26.5t-91.5 87.5q-32 -37 -53.5 -57.5t-56.5 -38.5t-72 -18q-59 0 -101.5 43.5t-42.5 107.5q0 66 43 109.5t109 43.5q49 0 90 -29.5t87 -84.5q35 40 52 57t53 37t74 20q63 0 102 -41.5t39 -107.5zM262 174h1q13 0 25 2.5
t24.5 10.5t20.5 12.5t22 18t18.5 18t19.5 21t17 18.5q-52 63 -75 81q-37 28 -78 28q-44 0 -70 -31.5t-25 -76.5q0 -44 28 -73t72 -29zM614 384h-1q-18 0 -36 -7t-35 -21t-28 -24t-28 -28.5t-21 -23.5q53 -59 84 -82.5t67 -23.5q43 0 68.5 31.5t25.5 71.5q0 49 -27 78t-69 29
z" />
    <glyph glyph-name="integral" unicode="&#x222b;" horiz-adv-x="470" 
d="M453 815l-12 -55q-13 10 -35 10q-30 0 -48 -23q-32 -39 -32 -172q0 -75 6.5 -239.5t6.5 -245.5q0 -133 -40 -195q-32 -52 -98 -52q-37 0 -64 16l13 56q22 -11 43 -11q28 0 44 22q32 40 32 165q0 81 -6.5 248t-6.5 243q0 81 12 129t40 78q36 39 92 39q31 0 53 -13z" />
    <glyph glyph-name="approxequal" unicode="&#x2248;" horiz-adv-x="597" 
d="M523 418l30 -27q-47 -92 -123 -92q-28 0 -50 8.5t-62 31.5q-56 32 -89 32q-30 0 -51 -18.5t-43 -52.5l-32 27q48 92 133 92q16 0 33.5 -5t25.5 -8.5t27 -14.5l20 -11q4 -2 15.5 -8.5t15.5 -8.5t13.5 -6t15 -5.5t14 -3t16.5 -1.5q28 0 49 17t42 54zM523 253l30 -27
q-47 -92 -124 -92q-27 0 -49 8.5t-62 31.5q-58 33 -88 33q-31 0 -51.5 -18.5t-43.5 -53.5l-32 27q48 92 132 92q14 0 26.5 -2.5t25 -7.5t19.5 -8.5t20 -10.5t16 -9q2 -1 14.5 -8.5t15.5 -9t13 -6t15.5 -6t14.5 -3t17 -1.5q28 0 48 17t43 54z" />
    <glyph glyph-name="notequal" unicode="&#x2260;" horiz-adv-x="617" 
d="M463 487l-42 -93h147v-50h-167l-64 -139h231v-49h-250l-52 -113l-39 18l44 95h-142v49h162l63 139h-225v50h244l51 111z" />
    <glyph glyph-name="lessequal" unicode="&#x2264;" horiz-adv-x="635" 
d="M583 94l-432 217v52l432 217v-60l-379 -181v-2l379 -184v-59zM586 4h-440v51h440v-51z" />
    <glyph glyph-name="greaterequal" unicode="&#x2265;" horiz-adv-x="634" 
d="M152 580l432 -217v-52l-432 -217v59l379 183v2l-379 182v60zM585 4h-438v51h438v-51z" />
    <glyph glyph-name="lozenge" unicode="&#x25ca;" horiz-adv-x="673" 
d="M621 338l-193 -382h-63l-190 382l193 382h62zM550 336l-133 266q-13 31 -18 52h-3q-8 -29 -18 -52l-133 -262l134 -269q10 -23 17 -50h4q8 30 17 49z" />
    <glyph glyph-name="fi" unicode="&#xfb01;" 
d="M529 691q23 0 39.5 -16t16.5 -39t-16.5 -39.5t-39.5 -16.5t-39 16.5t-16 39.5t16 39t39 16zM256 472h283l-91 -393h68l-18 -79h-210l18 79h53l73 314h-194l-72 -314h66l-19 -79h-209l19 79h54l72 314h-70l18 79h70l8 34q22 95 61 140t100 45q47 0 95 -30l-36 -61
q-28 19 -51 19q-49 0 -65 -60z" />
    <glyph glyph-name="fl" unicode="&#xfb02;" 
d="M394 679h191l-138 -600h63l-18 -79h-207l18 79h55l120 521h-83q-28 19 -51 19q-49 0 -65 -60l-23 -87h61l-18 -79h-61l-72 -314h66l-19 -79h-209l19 79h54l72 314h-70l18 79h70l8 34q22 95 61 140t100 45q32 0 58 -12z" />
    <glyph glyph-name="one.superior" horiz-adv-x="323" 
d="M182 379l70 259h-45l11 47h111l-83 -306h41l-11 -47h-152l11 47h47z" />
    <glyph glyph-name="two.superior" horiz-adv-x="323" 
d="M284 458h60l-34 -126h-233q9 47 37 84.5t60.5 60.5t64 42.5t52.5 42.5t21 49q0 16 -11.5 26.5t-28.5 10.5q-28 0 -51 -27t-32 -71h-61q12 67 48.5 104t91.5 37q43 0 70 -23t27 -59q0 -39 -29 -72t-64.5 -52.5t-70.5 -48t-44 -57.5h109z" />
    <glyph glyph-name="three.superior" horiz-adv-x="323" 
d="M96 453h62q-9 -37 7.5 -59.5t48.5 -22.5t54 20.5t22 51.5q0 27 -24 42t-67 9l10 44q113 0 113 69q0 42 -48 42t-69 -63h-60q12 50 46.5 77.5t84.5 27.5q49 0 79.5 -24t30.5 -62q0 -34 -23 -59t-60 -32v-2q23 -5 38.5 -25t15.5 -45q0 -51 -40.5 -83.5t-102.5 -32.5
q-64 0 -97.5 36.5t-20.5 90.5z" />
    <glyph glyph-name="a.superior" horiz-adv-x="344" 
d="M340 441h41l-10 -44h-98l10 42l-2 2q-18 -21 -45 -34q-28 -13 -51 -13q-38 0 -64.5 24t-26.5 58q0 43 37 71t93 28q44 0 85 -21l10 40q7 26 -8 39.5t-45 13.5q-43 0 -74 -40l-48 20q21 29 56.5 46.5t75.5 17.5q51 0 80.5 -24.5t18.5 -72.5zM291 473l9 43q-39 19 -71 19
q-33 0 -55 -16t-22 -41q0 -19 14.5 -30.5t38.5 -11.5q39 0 86 37z" />
    <glyph glyph-name="o.superior" horiz-adv-x="365" 
d="M88 512q0 75 54.5 127t133.5 52q60 0 96.5 -33t36.5 -88q0 -77 -53.5 -128.5t-133.5 -51.5q-61 0 -97.5 33.5t-36.5 88.5zM152 515q0 -35 20 -54.5t57 -19.5q50 0 84.5 37t34.5 90q0 32 -22 51.5t-59 19.5q-50 0 -82.5 -35t-32.5 -89z" />
    </font>
</defs>
</svg>
