<?xml version="1.0" standalone="no"?>
<!DOCTYPE svg PUBLIC "-//W3C//DTD SVG 1.1//EN" "http://www.w3.org/Graphics/SVG/1.1/DTD/svg11.dtd" >
<svg>
<metadata>
Created by FontForge 20110222 at Mon Oct 21 21:05:54 2013
 By Orthosie Webhosting
(c) 1990, 2002 Adobe Systems Incorporated. All rights reserved. (c) 1989, 1990, 2002 The Monotype Corporation Plc. All rights reserved.
</metadata>
<defs>
<font id="RockwellStdLightItalic" horiz-adv-x="510" >
  <font-face 
    font-family="RockwellStdLightItalic"
    font-weight="300"
    font-style="italic"
    font-stretch="normal"
    units-per-em="1000"
    panose-1="2 4 3 3 2 1 2 9 2 3"
    ascent="679"
    descent="-321"
    x-height="473"
    cap-height="679"
    bbox="-97 -222 1142 909"
    underline-thickness="50"
    underline-position="-50"
    slope="-13"
    unicode-range="U+0020-FB02"
  />
<missing-glyph horiz-adv-x="645" 
d="M145 0v700h500v-700h-500zM395 395l170 255h-340zM425 350l170 -255v510zM225 50h340l-170 255zM195 605v-510l170 255z" />
    <glyph glyph-name="f_i" unicode="fi" horiz-adv-x="521" 
d="M548 691q15 0 25.5 -10.5t10.5 -25.5t-10.5 -25.5t-25.5 -10.5t-25.5 10.5t-10.5 25.5t10.5 25.5t25.5 10.5zM535 473l-100 -431h76l-9 -42h-195l9 42h70l90 389h-246l-90 -389h74l-10 -42h-189l10 42h66l89 389h-73l9 42h74l16 67q36 150 147 150q34 0 91 -28l-18 -36
q-41 22 -75 22q-37 0 -61 -29t-38 -90l-13 -56h296z" />
    <glyph glyph-name="f_l" unicode="fl" horiz-adv-x="521" 
d="M409 679h175l-147 -637h77l-10 -42h-196l10 42h70l137 595h-116q-2 1 -8 3t-8 3l-10 2q-14 3 -31 3q-72 0 -100 -119l-13 -56h77l-10 -42h-76l-90 -389h73l-10 -42h-188l10 42h66l89 389h-73l9 42h74l16 67q36 150 148 150q26 0 55 -11z" />
    <glyph glyph-name=".notdef" horiz-adv-x="645" 
d="M145 0v700h500v-700h-500zM395 395l170 255h-340zM425 350l170 -255v510zM225 50h340l-170 255zM195 605v-510l170 255z" />
    <glyph glyph-name=".null" horiz-adv-x="0" 
 />
    <glyph glyph-name="nonmarkingreturn" horiz-adv-x="333" 
 />
    <glyph glyph-name="space" unicode=" " horiz-adv-x="250" 
 />
    <glyph glyph-name="exclam" unicode="!" horiz-adv-x="240" 
d="M77 0l21 94h54l-21 -94h-54zM136 180l54 277l48 222h54l-44 -192l-88 -307h-24z" />
    <glyph glyph-name="quotedbl" unicode="&#x22;" horiz-adv-x="281" 
d="M129 460l-14 126v104h56v-104l-14 -126h-28zM285 460l-14 126v104h56v-104l-14 -126h-28z" />
    <glyph glyph-name="numbersign" unicode="#" horiz-adv-x="668" 
d="M329 698h47l-42 -204h190l42 204h47l-42 -204h80v-45h-90l-39 -194h129v-45h-139l-44 -203h-47l44 203h-188l-44 -203h-47l44 203h-84v45h92l40 194h-132v45h141zM325 449l-40 -194h190l39 194h-189z" />
    <glyph glyph-name="dollar" unicode="$" horiz-adv-x="458" 
d="M158 -90l19 86q-63 15 -100 69.5t-25 123.5h44q-7 -62 18 -99.5t73 -51.5l67 290q-57 39 -82 77t-25 85q0 78 52.5 129.5t133.5 51.5l5 20h43l-6 -26q59 -14 92 -63.5t14 -126.5h-42q14 61 -7 100.5t-66 49.5l-64 -276q69 -44 97.5 -85.5t28.5 -90.5q0 -78 -59.5 -131.5
t-149.5 -51.5l-18 -80h-43zM265 375l59 254q-57 -1 -93 -40.5t-36 -99.5q0 -58 70 -114zM291 302l-62 -270h2q62 0 105.5 41t43.5 100q0 39 -20 66.5t-69 62.5z" />
    <glyph glyph-name="percent" unicode="%" horiz-adv-x="927" 
d="M526 135q0 85 60 146.5t142 61.5q70 0 112.5 -40t42.5 -106q0 -85 -62.5 -147t-148.5 -62q-64 0 -105 41t-41 106zM567 135q0 -50 30 -80.5t81 -30.5q72 0 118 57t46 115q0 50 -31 80.5t-82 30.5q-64 0 -113 -52t-49 -120zM180 483q0 85 60 146.5t142 61.5
q70 0 112.5 -40t42.5 -106q0 -85 -62.5 -147t-148.5 -62q-64 0 -105 41t-41 106zM221 483q0 -50 30 -80.5t81 -30.5q72 0 118 57t46 115q0 50 -31 80.5t-82 30.5q-64 0 -113 -52t-49 -120zM192 0l636 679h44l-637 -679h-43z" />
    <glyph glyph-name="ampersand" unicode="&#x26;" horiz-adv-x="604" 
d="M472 0l-38 75q-88 -85 -184 -85q-77 0 -129 53t-52 132q0 74 50 144t149 98q-36 75 -36 132q0 60 41 100.5t101 40.5q53 0 88.5 -34t35.5 -84q0 -110 -162 -171l117 -245q69 92 96 178h113l-10 -42h-70q-46 -105 -110 -178l36 -72h87l-10 -42h-113zM414 116l-127 263
q-165 -59 -165 -201q0 -62 38 -101t98 -39q83 0 156 78zM316 439q69 21 101.5 58t32.5 77q0 31 -22 52.5t-54 21.5q-38 0 -63.5 -28.5t-25.5 -71.5q0 -50 31 -109z" />
    <glyph glyph-name="quotesingle" unicode="'" horiz-adv-x="219" 
d="M174 460l-14 126v104h56v-104l-14 -126h-28z" />
    <glyph glyph-name="parenleft" unicode="(" horiz-adv-x="375" 
d="M506 690l-11 -44q-138 -40 -227 -181t-89 -327q0 -96 30 -178.5t81 -127.5l-10 -45q-147 113 -147 357q0 113 33 212t87.5 166.5t119.5 110.5t133 57z" />
    <glyph glyph-name="parenright" unicode=")" horiz-adv-x="375" 
d="M-84 -213l11 44q138 40 227 181t89 327q0 96 -30 178.5t-81 127.5l10 45q147 -113 147 -357q0 -113 -33 -212t-87.5 -166.5t-119.5 -110.5t-133 -57z" />
    <glyph glyph-name="asterisk" unicode="*" horiz-adv-x="490" 
d="M233 359l-56 -49l-35 43l56 48q38 12 98 72q-70 45 -107 45l-67 40l30 49l64 -40q3 -5 7 -10.5t7.5 -9.5t10.5 -9.5t11 -9t13.5 -9.5t13.5 -9t15.5 -10t15.5 -10q19 92 8 117l17 72l56 -13l-16 -70q-28 -34 -40 -111q94 13 118 27l76 6l4 -56l-74 -8q-43 16 -124 7
q32 -79 65 -108l30 -68l-51 -22l-32 69q5 31 -34 122q-66 -61 -80 -95z" />
    <glyph glyph-name="plus" unicode="+" horiz-adv-x="667" 
d="M421 343h240v-45h-240v-240h-45v240h-240v45h240v240h45v-240z" />
    <glyph glyph-name="comma" unicode="," horiz-adv-x="240" 
d="M100 94h54l-24 -103q-13 -56 -34 -84.5t-61 -33.5l8 34q21 3 31.5 22.5t23.5 60.5q2 7 3 10h-23z" />
    <glyph glyph-name="hyphen" unicode="-" horiz-adv-x="354" 
d="M71 210l10 42h277l-10 -42h-277z" />
    <glyph glyph-name="period" unicode="." horiz-adv-x="240" 
d="M100 94h54l-22 -94h-54z" />
    <glyph glyph-name="slash" unicode="/" horiz-adv-x="281" 
d="M300 690h47l-234 -699h-47z" />
    <glyph glyph-name="zero" unicode="0" 
d="M95 191q0 73 20.5 158.5t56 162t92.5 127.5t122 51q73 0 115.5 -54t42.5 -148q0 -67 -19 -149.5t-53.5 -162t-92 -133t-125.5 -53.5q-72 0 -115.5 55t-43.5 146zM143 195q0 -78 29.5 -120.5t84.5 -42.5q54 0 101.5 51.5t76 126t45 149.5t16.5 130q0 76 -30.5 117.5
t-85.5 41.5q-51 0 -97 -49t-75.5 -120.5t-47 -148t-17.5 -135.5z" />
    <glyph glyph-name="one" unicode="1" 
d="M222 42l138 595h-92l9 42h141l-147 -637h81l-9 -42h-222l9 42h92z" />
    <glyph glyph-name="two" unicode="2" 
d="M381 42l42 182h43l-52 -224h-351q9 61 36.5 113.5t64.5 89.5t80 70.5t84 63t74.5 58.5t54 64.5t20.5 75.5q0 49 -30 81t-76 32q-62 0 -110 -58t-68 -158h-44q21 120 81.5 189t145.5 69q65 0 107 -43.5t42 -110.5q0 -52 -25.5 -97t-64 -76t-87.5 -66.5t-93.5 -68
t-83.5 -81.5t-56 -105h266z" />
    <glyph glyph-name="three" unicode="3" 
d="M93 217h44q-11 -91 28 -138t107 -47q62 0 113.5 46.5t51.5 122.5q0 64 -49.5 101.5t-128.5 29.5l11 44q101 -3 160.5 40.5t59.5 113.5q0 52 -34 85t-87 33q-108 0 -146 -147h-43q12 75 62 132t130 57q72 0 117 -44t45 -115t-42.5 -117t-122.5 -61v-2q57 -12 86.5 -54
t29.5 -96q0 -74 -59 -142.5t-155 -68.5q-92 0 -143 62.5t-35 164.5z" />
    <glyph glyph-name="four" unicode="4" 
d="M311 42l36 156h-263q-3 28 -18 49l394 443h43l-104 -450h103l-9 -42h-103l-36 -156h77l-10 -42h-197l10 42h77zM356 240l85 367l-2 2l-326 -369h243z" />
    <glyph glyph-name="five" unicode="5" 
d="M91 208h45q-17 -82 19 -129t94 -47q74 0 131 67t57 154q0 55 -32 90.5t-81 35.5q-59 0 -115 -56q-19 19 -45 31l85 325h310l-39 -167h-43l29 125h-224l-68 -263l2 -2q49 49 118 49q65 0 108 -49t43 -122q0 -104 -72 -182t-167 -78q-81 0 -129.5 62.5t-25.5 155.5z" />
    <glyph glyph-name="six" unicode="6" 
d="M532 487h-45q8 77 -16.5 119t-76.5 42q-40 0 -74.5 -29.5t-59 -78.5t-40 -91.5t-27.5 -89.5l2 -2q70 71 142 71q68 0 112.5 -52t44.5 -131q0 -105 -63 -180t-152 -75q-65 0 -113 50.5t-48 144.5q0 100 45.5 241.5t108.5 204.5q59 59 127 59q76 0 110.5 -57t22.5 -146z
M176 281q-23 -114 8.5 -181.5t99.5 -67.5q64 0 113 64t49 149q0 63 -31 102t-82 39q-39 0 -82 -29.5t-75 -75.5z" />
    <glyph glyph-name="seven" unicode="7" 
d="M123 42h79q86 320 312 595h-301l-29 -124h-43l38 166h396l-8 -40q-113 -143 -191.5 -286.5t-123.5 -310.5h77l-9 -42h-206z" />
    <glyph glyph-name="eight" unicode="8" 
d="M253 364q-71 40 -71 122q0 84 56 144t135 60q71 0 116 -44.5t45 -114.5q0 -71 -38.5 -122t-102.5 -64v-2q82 -41 82 -136q0 -92 -63.5 -154.5t-152.5 -62.5q-73 0 -121.5 47t-48.5 118q0 69 41 130t123 79zM227 488q0 -52 31.5 -83.5t82.5 -31.5q66 0 107 44.5t41 112.5
q0 48 -30 83t-87 35q-68 0 -106.5 -49.5t-38.5 -110.5zM137 153q0 -54 35 -87.5t92 -33.5q70 0 115.5 50.5t45.5 121.5q0 59 -33.5 93t-91.5 34q-69 0 -116 -51.5t-47 -126.5z" />
    <glyph glyph-name="nine" unicode="9" 
d="M111 193h45q-8 -77 16.5 -119t76.5 -42q40 0 74.5 29.5t59 78.5t40 91.5t27.5 89.5l-2 2q-70 -71 -142 -71q-68 0 -112.5 52t-44.5 131q0 105 63 180t152 75q65 0 113 -50.5t48 -144.5q0 -100 -45.5 -241.5t-108.5 -204.5q-59 -59 -127 -59q-76 0 -110.5 57t-22.5 146z
M467 399q23 114 -8.5 181.5t-99.5 67.5q-64 0 -113 -64t-49 -149q0 -63 31 -102t82 -39q39 0 82 29.5t75 75.5z" />
    <glyph glyph-name="colon" unicode=":" horiz-adv-x="240" 
d="M100 94h54l-22 -94h-54zM187 473h54l-22 -94h-54z" />
    <glyph glyph-name="semicolon" unicode=";" horiz-adv-x="240" 
d="M100 94h54l-24 -103q-13 -56 -34 -84.5t-61 -33.5l8 34q21 3 31.5 22.5t23.5 60.5q2 7 3 10h-23zM187 473h54l-22 -94h-54z" />
    <glyph glyph-name="less" unicode="&#x3c;" horiz-adv-x="667" 
d="M136 341l524 223v-50l-463 -193l463 -193v-50l-524 223v40z" />
    <glyph glyph-name="equal" unicode="=" horiz-adv-x="667" 
d="M136 458h525v-45h-525v45zM136 231h525v-45h-525v45z" />
    <glyph glyph-name="greater" unicode="&#x3e;" horiz-adv-x="667" 
d="M600 321l-463 193v50l524 -223v-40l-524 -223v50z" />
    <glyph glyph-name="question" unicode="?" horiz-adv-x="438" 
d="M198 177l34 199q83 -24 149.5 25.5t66.5 136.5q0 49 -32 79.5t-85 30.5q-48 0 -82.5 -29t-50.5 -83h-42q18 73 66.5 113.5t116.5 40.5q70 0 113.5 -42.5t43.5 -110.5q0 -94 -71 -158.5t-160 -51.5l-44 -150h-23zM139 0l22 94h54l-22 -94h-54z" />
    <glyph glyph-name="at" unicode="@" horiz-adv-x="802" 
d="M635 495h60l-88 -414q-7 -37 22 -37q25 0 56.5 19t62.5 52.5t52 89.5t21 121q0 57 -17.5 110t-53.5 100.5t-102 76t-153 28.5q-167 0 -273.5 -109.5t-106.5 -281.5q0 -170 106.5 -275t278.5 -105q105 0 191 40t136 113h50q-56 -96 -158 -144t-220 -48q-190 0 -307.5 116
t-117.5 304q0 88 28.5 166t81 137t134 93.5t180.5 34.5q78 0 142 -23t104 -59.5t67.5 -84t39 -95t11.5 -94.5q0 -87 -36 -161.5t-101 -121.5q-60 -43 -115 -43q-41 0 -52 22t-4 65l-2 2q-76 -89 -164 -89q-73 0 -121 58.5t-48 147.5q0 72 29.5 140.5t88 114.5t130.5 46
q98 0 149 -94zM594 326q0 61 -35 100t-90 39q-60 0 -105 -46.5t-64 -104t-19 -111.5q0 -68 35.5 -112.5t89.5 -44.5q76 0 132 92.5t56 187.5z" />
    <glyph glyph-name="A" unicode="A" horiz-adv-x="656" 
d="M-19 0l10 42h86l315 595h-88l10 42h295l-10 -42h-78l68 -595h88l-10 -42h-228l10 42h86l-24 215h-271l-112 -215h84l-10 -42h-221zM263 299h245l-37 346h-27z" />
    <glyph glyph-name="B" unicode="B" horiz-adv-x="552" 
d="M90 42l137 595h-81l10 42h229q88 0 133.5 -47.5t45.5 -116.5q0 -63 -37 -106.5t-105 -60.5v-2q96 -43 96 -149q0 -88 -62.5 -142.5t-162.5 -54.5h-279l10 42h66zM144 42h142q75 0 127 41t52 114q0 59 -38.5 98t-106.5 39h-109zM221 376h128q86 0 126.5 44.5t40.5 98.5
t-36 86t-102 32h-97z" />
    <glyph glyph-name="C" unicode="C" horiz-adv-x="740" 
d="M658 172l32 -28q-52 -71 -131 -112.5t-163 -41.5q-75 0 -132.5 25.5t-91 68t-50 92t-16.5 103.5q0 109 58 204t156.5 151t211.5 56q150 0 207 -109l23 98h43l-43 -186h-35q-12 73 -63.5 114t-131.5 41q-151 0 -262 -110t-111 -260q0 -110 65 -178t170 -68q147 0 264 140z
" />
    <glyph glyph-name="D" unicode="D" horiz-adv-x="698" 
d="M95 42l137 595h-76l10 42h242q137 0 221 -78t84 -212q0 -160 -106 -274.5t-272 -114.5h-321l10 42h71zM149 42h174q70 0 128 22t95.5 57.5t64 82t38 93.5t11.5 94q0 107 -67 176.5t-195 69.5h-112z" />
    <glyph glyph-name="E" unicode="E" horiz-adv-x="594" 
d="M92 42l138 595h-76l9 42h487l-48 -208h-42l38 166h-314l-62 -268h250l-10 -42h-250l-66 -285h320l38 165h42l-47 -207h-486l9 42h70z" />
    <glyph glyph-name="F" unicode="F" horiz-adv-x="542" 
d="M95 42l137 595h-72l10 42h464l-47 -202h-42l37 160h-296l-61 -266h233l-10 -42h-233l-66 -287h82l-10 -42h-208l10 42h72z" />
    <glyph glyph-name="G" unicode="G" horiz-adv-x="771" 
d="M524 305h239q-16 -87 -57 -151.5t-94.5 -98.5t-106.5 -49.5t-105 -15.5q-132 0 -214.5 79t-82.5 205q0 109 58.5 205.5t156.5 153.5t209 57q163 0 237 -113l24 102h42l-43 -186h-35q-49 155 -220 155q-151 0 -263.5 -112t-112.5 -263q0 -106 70.5 -173.5t181.5 -67.5
q106 0 184.5 63t106.5 168h-185z" />
    <glyph glyph-name="H" unicode="H" horiz-adv-x="656" 
d="M93 42l137 595h-75l10 42h202l-10 -42h-73l-60 -259h349l60 259h-72l10 42h180l-10 -42h-54l-137 -595h74l-10 -42h-200l10 42h72l68 294h-349l-68 -294h77l-10 -42h-198l10 42h67z" />
    <glyph glyph-name="I" unicode="I" horiz-adv-x="260" 
d="M96 42l137 595h-72l10 42h182l-10 -42h-56l-137 -595h73l-10 -42h-199l10 42h72z" />
    <glyph glyph-name="J" unicode="J" horiz-adv-x="281" 
d="M391 679l-10 -42h-60l-140 -604q-24 -106 -62 -160.5t-110 -75.5q-38 -11 -71 -11q-16 0 -25 1l10 44h16q39 0 70 13t49.5 30.5t33 48.5t21 53t14.5 57l139 604h-70l9 42h186z" />
    <glyph glyph-name="K" unicode="K" horiz-adv-x="594" 
d="M93 42l137 595h-77l10 42h202l-10 -42h-71l-137 -595h71l-10 -42h-188l10 42h63zM228 353l352 282v2h-97l10 42h218l-10 -42h-48l-354 -284l240 -311h61l-10 -42h-204l10 42h70z" />
    <glyph glyph-name="L" unicode="L" 
d="M93 42l138 595h-82l10 42h215l-10 -42h-79l-137 -595h282l55 238h51l-64 -280h-465l9 42h77z" />
    <glyph glyph-name="M" unicode="M" horiz-adv-x="823" 
d="M93 42l138 595h-71l10 42h156l89 -564l349 564h171l-10 -42h-77l-138 -595h78l-10 -42h-203l10 42h72l139 595h-8l-396 -643h-13l-94 643h-8l-139 -595h70l-10 -42h-180l10 42h65z" />
    <glyph glyph-name="N" unicode="N" horiz-adv-x="677" 
d="M91 42l137 595h-83l10 42h159l225 -603h2l129 561h-77l10 42h194l-10 -42h-74l-149 -643h-51l-237 643h-2l-136 -595h73l-10 -42h-197l10 42h77z" />
    <glyph glyph-name="O" unicode="O" horiz-adv-x="760" 
d="M108 265q0 107 49 203.5t141 159t205 62.5q130 0 206 -75t76 -202q0 -72 -26.5 -145.5t-75 -136t-127.5 -102t-173 -39.5q-135 0 -205 78.5t-70 196.5zM161 263q0 -104 60.5 -167.5t160.5 -63.5q82 0 150.5 37t111 95.5t65.5 124.5t23 128q0 94 -59 162.5t-172 68.5
q-140 0 -240 -118.5t-100 -266.5z" />
    <glyph glyph-name="P" unicode="P" 
d="M90 42l137 595h-72l10 42h203q92 0 146.5 -50.5t54.5 -135.5q0 -36 -12.5 -71.5t-38.5 -68.5t-76.5 -53.5t-117.5 -20.5h-125l-55 -237h84l-10 -42h-210l10 42h72zM208 321h119q101 0 145 51t44 121q0 65 -37 104.5t-109 39.5h-89z" />
    <glyph glyph-name="Q" unicode="Q" horiz-adv-x="760" 
d="M396 -10h-3v-2q34 -11 70.5 -34.5t70 -34t85.5 -3.5l-32 -44q-36 -8 -75 5t-68 33t-68 37.5t-73 17.5q-48 0 -98 -32l-19 33q26 19 41.5 26t45.5 14v2q-81 27 -123 98.5t-42 159.5q0 75 27.5 149.5t77 136t125.5 100t165 38.5q129 0 205.5 -75t76.5 -202
q0 -72 -26 -144.5t-73.5 -133.5t-123.5 -101t-166 -44zM161 263q0 -105 61.5 -168t156.5 -63q83 0 152.5 37.5t112 96t65.5 124t23 127.5q0 92 -58 161.5t-171 69.5q-95 0 -175 -57t-123.5 -145t-43.5 -183z" />
    <glyph glyph-name="R" unicode="R" horiz-adv-x="552" 
d="M90 42l137 595h-73l10 42h244q90 0 133 -44.5t43 -112.5q0 -76 -46 -124t-129 -57l64 -299h88l-10 -42h-124l-72 341h-142l-69 -299h74l-10 -42h-194l10 42h66zM222 383h159q41 0 72 13.5t47 35t23.5 44.5t7.5 47q0 47 -29.5 80.5t-101.5 33.5h-119z" />
    <glyph glyph-name="S" unicode="S" horiz-adv-x="479" 
d="M515 493h-43l19 82q-72 73 -160 73q-61 0 -99 -35.5t-38 -91.5q0 -37 19.5 -65t45.5 -44.5t67.5 -45t70.5 -57.5q33 -33 45 -62t12 -68q0 -80 -59.5 -134.5t-145.5 -54.5q-90 0 -167 68l-13 -58h-42l42 184h42l-18 -80q75 -72 158 -72q64 0 109.5 41.5t45.5 99.5
q0 43 -26.5 77.5t-64.5 59t-76 50t-64.5 64.5t-26.5 89q0 78 52 127.5t131 49.5q87 0 171 -67l12 56h43z" />
    <glyph glyph-name="T" unicode="T" horiz-adv-x="542" 
d="M235 42l138 595h-178l-49 -211h-43l59 253h496l-59 -253h-43l49 211h-178l-138 -595h76l-9 -42h-206l9 42h76z" />
    <glyph glyph-name="U" unicode="U" horiz-adv-x="615" 
d="M277 637l-105 -455q-16 -70 28.5 -110t116.5 -40q68 0 118.5 41.5t70.5 129.5l100 434h-71l10 42h193l-10 -42h-68l-105 -457q-21 -93 -90 -141.5t-157 -48.5q-89 0 -149 54t-37 155l101 438h-72l10 42h198l-10 -42h-72z" />
    <glyph glyph-name="V" unicode="V" horiz-adv-x="646" 
d="M710 637l-427 -649h-45l-47 649h-80l10 42h208l-10 -42h-75l37 -563h4l372 563h-91l10 42h215l-10 -42h-71z" />
    <glyph glyph-name="W" unicode="W" horiz-adv-x="969" 
d="M226 -12l-28 649h-83l10 42h215l-10 -42h-80l19 -558h2l308 558h-90l10 42h232l-10 -42h-63l11 -558h2l303 558h-75l10 42h179l-9 -42h-55l-357 -649h-41l-10 649h-2l-347 -649h-41z" />
    <glyph glyph-name="X" unicode="X" horiz-adv-x="615" 
d="M62 42l274 306l-112 289h-70l10 42h193l-10 -42h-64l95 -245l221 245h-79l10 42h196l-10 -42h-60l-258 -289l117 -306h64l-10 -42h-191l10 42h68l-99 261l-238 -261h73l-10 -42h-186l10 42h56z" />
    <glyph glyph-name="Y" unicode="Y" horiz-adv-x="594" 
d="M246 42l62 267l-127 328h-76l9 42h214l-9 -42h-81l108 -279l247 279h-89l9 42h215l-9 -42h-68l-289 -328l-62 -267h82l-9 -42h-218l9 42h82z" />
    <glyph glyph-name="Z" unicode="Z" horiz-adv-x="552" 
d="M40 0l10 42l502 595h-311l-37 -162h-42l47 204h419l-10 -42l-499 -595h334l39 172h42l-49 -214h-445z" />
    <glyph glyph-name="bracketleft" unicode="[" horiz-adv-x="281" 
d="M105 -159h123l-9 -42h-172l203 880h172l-9 -42h-123z" />
    <glyph glyph-name="backslash" unicode="\" horiz-adv-x="281" 
d="M113 690l234 -699h-47l-234 699h47z" />
    <glyph glyph-name="bracketright" unicode="]" horiz-adv-x="281" 
d="M261 637h-123l9 42h172l-203 -880h-172l9 42h123z" />
    <glyph glyph-name="asciicircum" unicode="^" horiz-adv-x="656" 
d="M393 691l219 -262l-32 -27l-187 225l-188 -225l-30 27z" />
    <glyph glyph-name="underscore" unicode="_" horiz-adv-x="500" 
d="M-6 -75h512v-50h-512v50z" />
    <glyph glyph-name="grave" unicode="`" horiz-adv-x="333" 
d="M276 532h-37l-122 157h60z" />
    <glyph glyph-name="a" unicode="a" 
d="M369 0l17 74l-2 2q-86 -83 -173 -83q-58 0 -97.5 38t-39.5 93q0 68 54 111.5t137 43.5q80 0 152 -42l25 101q11 49 -21 77.5t-84 28.5q-46 0 -80 -18.5t-66 -61.5l-38 17q76 103 188 103q73 0 119.5 -40t27.5 -120l-67 -282h70l-9 -42h-113zM390 118l19 84
q-70 40 -149 40q-56 0 -97 -34.5t-41 -81.5q0 -40 28.5 -65.5t72.5 -25.5q71 0 167 83z" />
    <glyph glyph-name="b" unicode="b" horiz-adv-x="583" 
d="M88 42l138 595h-76l9 42h125l-59 -257l2 -2q75 64 171 64q84 0 139 -57.5t55 -151.5q0 -117 -84 -199.5t-186 -82.5q-88 0 -176 85l-18 -78h-116l9 42h67zM210 355l-53 -230q80 -90 166 -90t153.5 73t67.5 167q0 75 -43 121t-114 46q-98 0 -177 -87z" />
    <glyph glyph-name="c" unicode="c" horiz-adv-x="479" 
d="M427 121l33 -25q-34 -50 -87 -79t-109 -29q-86 0 -139.5 55t-53.5 146q0 131 81 213t173 82q98 0 149 -84l17 73h41l-33 -143h-41q-14 54 -49.5 83t-86.5 29q-83 0 -143 -75.5t-60 -180.5q0 -68 41 -112t104 -44q92 0 163 91z" />
    <glyph glyph-name="d" unicode="d" horiz-adv-x="583" 
d="M489 42h76l-10 -42h-125l14 56l-2 2q-77 -65 -163 -65q-95 0 -148.5 60.5t-53.5 149.5q0 87 44.5 153.5t104.5 97t120 30.5q109 0 176 -86l56 239h-82l9 42h131zM459 122l53 232q-43 48 -80 68t-81 20q-91 0 -158.5 -69.5t-67.5 -170.5q0 -75 43.5 -121t115.5 -46
q94 0 175 87z" />
    <glyph glyph-name="e" unicode="e" horiz-adv-x="531" 
d="M528 228h-404q-9 -87 36 -142.5t124 -55.5q91 0 158 82l45 -18q-82 -106 -203 -106q-94 0 -151 58.5t-57 154.5q0 115 77.5 199t184.5 84q92 0 149.5 -67.5t40.5 -188.5zM133 265h354q5 84 -36.5 130.5t-112.5 46.5q-74 0 -131.5 -50t-73.5 -127z" />
    <glyph glyph-name="f" unicode="f" horiz-adv-x="240" 
d="M92 42l89 389h-73l9 42h74l16 67q36 150 147 150q34 0 91 -28l-18 -36q-41 22 -75 22q-37 0 -61 -29t-38 -90l-13 -56h77l-10 -42h-76l-90 -389h77l-10 -42h-200l10 42h74z" />
    <glyph glyph-name="g" unicode="g" horiz-adv-x="573" 
d="M580 431l-102 -440q-22 -93 -69 -140q-71 -71 -184 -71q-119 0 -195 79l23 34q76 -71 173 -71q87 0 145 58q27 27 42.5 66.5t29.5 104.5l-2 2q-68 -65 -164 -65q-90 0 -145.5 57t-55.5 150q0 119 77.5 204t194.5 85q90 0 175 -88l17 77h121l-9 -42h-72zM458 116l53 232
q-80 94 -164 94q-99 0 -161 -76t-62 -168q0 -76 43.5 -122t114.5 -46q93 0 176 86z" />
    <glyph glyph-name="h" unicode="h" horiz-adv-x="521" 
d="M91 42l137 595h-76l10 42h125l-63 -272q108 77 176 77q56 0 88.5 -39t17.5 -105l-67 -298h79l-10 -42h-202l10 42h74l67 298q12 53 -9.5 77.5t-56.5 24.5q-56 0 -178 -84l-73 -316h75l-10 -42h-194l10 42h70z" />
    <glyph glyph-name="i" unicode="i" horiz-adv-x="240" 
d="M99 42l90 389h-77l10 42h126l-100 -431h76l-9 -42h-200l9 42h75zM261 690q15 0 25.5 -10.5t10.5 -25.5t-10.5 -25.5t-25.5 -10.5t-25.5 10.5t-10.5 25.5t10.5 25.5t25.5 10.5z" />
    <glyph glyph-name="j" unicode="j" horiz-adv-x="208" 
d="M-89 -198l9 40q64 -12 99.5 18t57.5 125l103 446h-72l10 42h121l-120 -517q-14 -59 -40 -96.5t-55 -48.5t-59.5 -14.5t-53.5 5.5zM247 618q-15 0 -25.5 10.5t-10.5 25.5t10.5 25.5t25.5 10.5t25.5 -10.5t10.5 -25.5t-10.5 -25.5t-25.5 -10.5z" />
    <glyph glyph-name="k" unicode="k" horiz-adv-x="469" 
d="M90 42l137 595h-76l10 42h125l-99 -431l262 181v2h-99l9 42h222l-9 -42h-66l-267 -188l158 -201h88l-10 -42h-104l-186 243l-46 -201h83l-10 -42h-201l10 42h69z" />
    <glyph glyph-name="l" unicode="l" horiz-adv-x="240" 
d="M100 42l137 595h-75l10 42h124l-147 -637h73l-10 -42h-197l10 42h75z" />
    <glyph glyph-name="m" unicode="m" horiz-adv-x="823" 
d="M93 42l90 389h-72l9 42h116l-18 -76l2 -2q101 89 185 89q81 0 107 -84q55 41 98.5 62.5t92.5 21.5q51 0 85 -39t18 -111l-66 -292h82l-10 -42h-207l10 42h76l67 296q12 51 -9 77.5t-58 26.5q-66 0 -178 -82l-72 -318h76l-10 -42h-201l10 42h76l68 301q11 46 -10.5 72.5
t-57.5 26.5q-35 0 -75.5 -21t-103.5 -69l-71 -310h76l-10 -42h-196l10 42h71z" />
    <glyph glyph-name="n" unicode="n" horiz-adv-x="521" 
d="M90 42l90 389h-77l10 42h126l-16 -67q112 78 181 78q54 0 85 -42.5t14 -115.5l-65 -284h78l-10 -42h-202l10 42h75l69 300q10 44 -8 72t-61 28q-60 0 -177 -86l-73 -314h73l-10 -42h-192l10 42h70z" />
    <glyph glyph-name="o" unicode="o" horiz-adv-x="542" 
d="M79 188q0 130 84.5 213t195.5 83q85 0 139.5 -55t54.5 -150q0 -120 -81.5 -205.5t-194.5 -85.5q-94 0 -146 58.5t-52 141.5zM127 189q0 -71 43 -115t112 -44q90 0 156.5 74t66.5 174q0 73 -42.5 118.5t-111.5 45.5q-92 0 -158 -74t-66 -179z" />
    <glyph glyph-name="p" unicode="p" horiz-adv-x="583" 
d="M33 -170l139 601h-76l10 42h125l-14 -56l2 -2q80 69 167 69t143.5 -60.5t56.5 -151.5q0 -117 -81.5 -200.5t-195.5 -83.5q-45 0 -84.5 20t-85.5 66l-57 -244h81l-9 -42h-197l9 42h67zM203 353l-53 -232q81 -91 162 -91q92 0 159 71.5t67 168.5q0 82 -45.5 127t-112.5 45
q-92 0 -177 -89z" />
    <glyph glyph-name="q" unicode="q" horiz-adv-x="583" 
d="M580 431l-139 -601h72l-9 -42h-193l9 42h72l52 220l-2 2q-31 -29 -75.5 -46.5t-86.5 -17.5q-91 0 -146.5 56.5t-55.5 149.5q0 117 80.5 203.5t191.5 86.5q88 0 173 -88l18 77h121l-10 -42h-72zM459 115l53 233q-85 94 -161 94q-92 0 -158.5 -72t-66.5 -175q0 -75 43 -120
t115 -45q86 0 175 85z" />
    <glyph glyph-name="r" unicode="r" horiz-adv-x="365" 
d="M99 42l89 389h-86l10 42h135l-31 -134l2 -2q59 87 114.5 118.5t138.5 27.5l-11 -48q-104 7 -176.5 -58t-94.5 -159l-41 -176h80l-10 -42h-207l10 42h78z" />
    <glyph glyph-name="s" unicode="s" horiz-adv-x="406" 
d="M426 345h-41q7 45 -34.5 71t-95.5 26q-49 0 -76.5 -21t-27.5 -54q0 -27 24.5 -47.5t60 -36.5t71 -34.5t60 -50t24.5 -73.5q0 -58 -48 -97.5t-120 -39.5q-90 0 -144 70l-13 -58h-42l30 132h42q-5 -43 35.5 -72.5t94.5 -29.5q49 0 84 27t35 64q0 33 -24.5 58t-60 41t-71 33
t-60 44.5t-24.5 64.5q0 50 41.5 86t110.5 36q50 0 82 -14.5t64 -46.5l11 50h43z" />
    <glyph glyph-name="t" unicode="t" horiz-adv-x="271" 
d="M321 473l-10 -42h-80l-83 -333q-7 -27 6.5 -45t40.5 -18q35 0 79 33l-12 -53q-34 -22 -71 -22q-17 0 -34.5 6t-34.5 21t-21.5 39.5t2.5 62.5l77 309h-72l10 42h72l30 131l61 45l-42 -176h82z" />
    <glyph glyph-name="u" unicode="u" horiz-adv-x="521" 
d="M526 473l-100 -431h77l-10 -42h-125l15 67q-108 -74 -176 -74q-53 0 -86.5 36.5t-16.5 111.5l66 290h-77l10 42h126l-80 -341q-11 -48 11.5 -72.5t56.5 -24.5q60 0 180 82l71 314h-82l10 42h130z" />
    <glyph glyph-name="v" unicode="v" horiz-adv-x="479" 
d="M188 -12l-25 443h-61l10 42h170l-10 -42h-62l18 -375h2l241 375h-72l10 42h170l-10 -42h-49l-285 -443h-47z" />
    <glyph glyph-name="w" unicode="w" horiz-adv-x="740" 
d="M165 -12l-14 443h-55l10 42h158l-10 -42h-60l9 -385h2l225 385h-63l10 42h204l-10 -42h-61l6 -377h2l232 377h-65l10 42h143l-10 -42h-30l-277 -443h-48l-3 442h-2l-255 -442h-48z" />
    <glyph glyph-name="x" unicode="x" horiz-adv-x="490" 
d="M54 42l210 202l-98 187h-60l9 42h169l-9 -42h-63l84 -154l164 154h-77l9 42h176l-9 -42h-40l-204 -193l104 -196h50l-10 -42h-168l10 42h69l-86 163l-169 -163h80l-10 -42h-194l10 42h53z" />
    <glyph glyph-name="y" unicode="y" 
d="M192 -9l-41 440h-63l10 42h175l-10 -42h-64l32 -372h2l222 372h-72l10 42h163l-10 -42h-42l-384 -643h-133l10 42h98z" />
    <glyph glyph-name="z" unicode="z" horiz-adv-x="417" 
d="M18 0l12 52l366 379h-217l-23 -100h-44l33 142h317l-12 -52l-366 -379h240l24 101h44l-33 -143h-341z" />
    <glyph glyph-name="braceleft" unicode="{" horiz-adv-x="333" 
d="M119 202v64q48 0 71 39t23 104v120q0 82 41 119t102 32v-54q-39 -1 -55.5 -9.5t-24.5 -35.5t-8 -87v-69q0 -77 -22 -123t-74 -68q52 -22 74 -68t22 -123v-69q0 -60 8 -87t24.5 -35.5t55.5 -9.5v-54q-61 -5 -102 32t-41 119v120q0 65 -23 104t-71 39z" />
    <glyph glyph-name="bar" unicode="|" horiz-adv-x="496" 
d="M291 690h48v-910h-48v910z" />
    <glyph glyph-name="braceright" unicode="}" horiz-adv-x="333" 
d="M354 266v-64q-48 0 -71 -39t-23 -104v-120q0 -82 -41 -119t-102 -32v54q39 1 55.5 9.5t24.5 35.5t8 87v69q0 77 22 123t74 68q-52 22 -74 68t-22 123v69q0 60 -8 87t-24.5 35.5t-55.5 9.5v54q61 5 102 -32t41 -119v-120q0 -65 23 -104t71 -39z" />
    <glyph glyph-name="asciitilde" unicode="~" horiz-adv-x="656" 
d="M130 291v54q81 59 140 59q40 0 126 -38q88 -39 120 -39q28 0 57 13.5t82 50.5v-54q-83 -59 -137 -59q-42 0 -128 39q-84 38 -120 38q-31 0 -58.5 -12.5t-81.5 -51.5z" />
    <glyph glyph-name="uni00A0" unicode="&#xa0;" horiz-adv-x="250" 
 />
    <glyph glyph-name="exclamdown" unicode="&#xa1;" horiz-adv-x="240" 
d="M246 479l-21 -94h-54l21 94h54zM187 299l-54 -277l-48 -222h-54l44 192l88 307h24z" />
    <glyph glyph-name="cent" unicode="&#xa2;" horiz-adv-x="479" 
d="M233 -10l-68 -185h-34l69 195q-60 19 -94.5 70t-34.5 122q0 89 46 163.5t116 108t138 14.5l66 182h34l-70 -193q42 -20 73 -67l17 72h41l-33 -142h-41q-19 71 -71 97l-141 -395q59 0 101 21t80 68l32 -25q-87 -118 -226 -106zM215 39l142 398q-86 23 -162 -54t-76 -195
q0 -54 25.5 -93.5t70.5 -55.5z" />
    <glyph glyph-name="sterling" unicode="&#xa3;" horiz-adv-x="490" 
d="M452 146h47q-72 -156 -179 -156q-58 0 -106 64q-40 -64 -90 -64q-32 0 -53 22t-21 56q0 39 23 63.5t59 24.5q46 0 76 -36q29 85 27 190h-119l10 42h109q-24 170 25 254t143 84q69 0 109.5 -47.5t18.5 -134.5h-44q17 71 -8.5 105.5t-77.5 34.5q-55 0 -85 -36t-36 -101.5
t3 -158.5h122l-10 -42h-112q-1 -126 -47 -219q27 -34 45.5 -46.5t40.5 -12.5q74 0 130 114zM191 83q-28 38 -59 38q-20 0 -33 -14.5t-13 -36.5q0 -19 11.5 -31.5t29.5 -12.5q33 0 64 57z" />
    <glyph glyph-name="currency" unicode="&#xa4;" horiz-adv-x="667" 
d="M533 572l31 -33l-63 -63q48 -59 48 -135q0 -28 -11.5 -67t-36.5 -69l63 -62l-31 -32l-64 62q-62 -47 -137 -47q-72 0 -134 47l-62 -62l-32 32l61 62q-47 64 -47 137q0 69 47 134l-61 63l32 33l62 -64q71 49 137 49q69 0 134 -49zM333 510q-70 0 -119 -49t-49 -119
t49 -119.5t119 -49.5t119.5 49.5t49.5 119.5t-49.5 119t-119.5 49z" />
    <glyph glyph-name="yen" unicode="&#xa5;" horiz-adv-x="579" 
d="M297 467l42 -113l97 113h-139zM473 509l113 128h-89l10 42h214l-10 -42h-67l-113 -128h124l-10 -42h-151l-93 -110h224l-10 -42h-259l-63 -273h83l-10 -42h-218l10 42h81l63 273h-222l10 42h192l-43 110h-132l10 42h106l-49 128h-76l10 42h213l-10 -42h-80l49 -128h193z
" />
    <glyph glyph-name="brokenbar" unicode="&#xa6;" horiz-adv-x="496" 
d="M291 -220v370h48v-370h-48zM291 320v370h48v-370h-48z" />
    <glyph glyph-name="section" unicode="&#xa7;" horiz-adv-x="438" 
d="M22 -65l52 18q-21 -61 15.5 -92t97.5 -31q56 0 88 32.5t32 77.5q0 49 -50 99q-10 10 -67.5 52.5t-91 84.5t-33.5 91q0 58 39 102t110 65q-48 47 -48 109q0 67 47.5 107t124.5 40q76 0 120.5 -39t30.5 -112l-47 -12q19 57 -13.5 89t-84.5 32q-61 0 -95.5 -27t-34.5 -75
q0 -40 25.5 -73t79 -74.5t73.5 -61.5q64 -64 64 -139q0 -54 -36.5 -93.5t-105.5 -60.5q41 -49 41 -105q0 -67 -50.5 -109t-129.5 -42q-78 0 -122.5 38.5t-30.5 108.5zM284 77q124 34 124 122q0 25 -9 47t-27.5 42.5t-36 35.5t-47 38.5t-47.5 39.5q-128 -41 -128 -136
q0 -25 19 -52.5t38 -44.5t60 -49t54 -43z" />
    <glyph glyph-name="dieresis" unicode="&#xa8;" horiz-adv-x="333" 
d="M369 648q15 0 25.5 -10t10.5 -25t-10.5 -25.5t-25.5 -10.5t-25 10.5t-10 25.5t10 25t25 10zM197 648q15 0 25.5 -10t10.5 -25t-10.5 -25.5t-25.5 -10.5t-25 10.5t-10 25.5t10 25t25 10z" />
    <glyph glyph-name="copyright" unicode="&#xa9;" horiz-adv-x="802" 
d="M629 451l-47 -14q-34 81 -110 81q-61 0 -99 -43.5t-38 -113.5q0 -77 36.5 -126t95.5 -49q88 0 122 100l44 -16q-19 -69 -66 -98.5t-98 -29.5q-82 0 -134.5 62t-52.5 152q0 79 49.5 140.5t140.5 61.5q102 0 157 -107zM467 728q155 0 264 -109t109 -264t-109 -264
t-264 -109t-264 109t-109 264t109 264t264 109zM466 29q135 0 230.5 95.5t95.5 230.5t-95.5 230.5t-230.5 95.5t-230.5 -95.5t-95.5 -230.5t95.5 -230.5t230.5 -95.5z" />
    <glyph glyph-name="ordfeminine" unicode="&#xaa;" horiz-adv-x="333" 
d="M315 398l10 43l-2 2q-21 -22 -52 -36t-58 -14q-38 0 -63 22.5t-25 56.5q0 40 35 66.5t88 26.5q51 0 100 -25l14 62q7 29 -13.5 46t-55.5 17q-54 0 -92 -48l-25 10q50 63 122 63q48 0 77.5 -25t17.5 -71l-44 -172h47l-5 -24h-76zM331 468l12 50q-45 24 -96 24
q-38 0 -64.5 -20.5t-26.5 -49.5q0 -23 18.5 -38.5t46.5 -15.5q47 0 110 50z" />
    <glyph glyph-name="guillemotleft" unicode="&#xab;" horiz-adv-x="406" 
d="M346 22l-79 202l168 231h51l-176 -237l76 -196h-40zM143 22l-79 202l168 231h51l-176 -237l76 -196h-40z" />
    <glyph glyph-name="logicalnot" unicode="&#xac;" horiz-adv-x="667" 
d="M136 463h525v-283h-45v238h-480v45z" />
    <glyph glyph-name="uni00AD" unicode="&#xad;" horiz-adv-x="354" 
d="M71 210l10 42h277l-10 -42h-277z" />
    <glyph glyph-name="registered" unicode="&#xae;" horiz-adv-x="802" 
d="M316 547h165q63 0 98.5 -28t35.5 -77q0 -45 -32 -76.5t-85 -32.5v-2q44 -16 65 -44.5t66 -131.5h-59q-48 111 -79 140.5t-101 29.5h-22v-170h-52v392zM368 366h65q68 0 97 16.5t29 56.5q0 39 -25.5 53.5t-93.5 14.5h-72v-141zM467 728q155 0 264 -109t109 -264t-109 -264
t-264 -109t-264 109t-109 264t109 264t264 109zM466 29q135 0 230.5 95.5t95.5 230.5t-95.5 230.5t-230.5 95.5t-230.5 -95.5t-95.5 -230.5t95.5 -230.5t230.5 -95.5z" />
    <glyph glyph-name="macron" unicode="&#xaf;" horiz-adv-x="333" 
d="M161 621l7 35h253l-7 -35h-253z" />
    <glyph glyph-name="degree" unicode="&#xb0;" horiz-adv-x="396" 
d="M298 690q58 0 99.5 -41t41.5 -100t-41.5 -100t-99.5 -41t-99.5 41t-41.5 100t41.5 100t99.5 41zM298 650q-43 0 -72 -30.5t-29 -70.5q0 -39 28.5 -70t72.5 -31q40 0 70.5 29t30.5 72q0 32 -27 66.5t-74 34.5z" />
    <glyph glyph-name="plusminus" unicode="&#xb1;" horiz-adv-x="667" 
d="M136 27h525v-45h-525v45zM421 421h240v-45h-240v-240h-45v240h-240v45h240v240h45v-240z" />
    <glyph glyph-name="twosuperior" unicode="&#xb2;" horiz-adv-x="344" 
d="M304 361l21 91h40l-33 -120h-220q7 43 35.5 78.5t63.5 58t68.5 43t56.5 45t23 51.5q0 23 -16 38.5t-40 15.5q-70 0 -100 -110h-38q14 66 50.5 102t88.5 36q42 0 68.5 -23t26.5 -59q0 -31 -20.5 -57t-52 -46t-64 -39.5t-62 -46.5t-41.5 -58h145z" />
    <glyph glyph-name="threesuperior" unicode="&#xb3;" horiz-adv-x="344" 
d="M123 449h39q-9 -44 13.5 -69t60.5 -25q36 0 63 24.5t27 57.5q0 31 -22.5 48t-63.5 17h-18l6 28h10q57 0 89 20.5t32 55.5q0 25 -18.5 41t-47.5 16q-60 0 -81 -76h-37q10 49 41.5 76t77.5 27t74 -24t28 -62q0 -35 -23.5 -60.5t-60.5 -29.5v-2q55 -22 55 -74
q0 -45 -39 -78.5t-92 -33.5q-57 0 -89 32t-24 91z" />
    <glyph glyph-name="acute" unicode="&#xb4;" horiz-adv-x="333" 
d="M223 532l99 157h60l-122 -157h-37z" />
    <glyph glyph-name="mu" unicode="&#xb5;" horiz-adv-x="552" 
d="M170 473h49l-57 -306q-10 -54 14 -88t67 -34q70 0 123 65.5t79 207.5l29 155h49l-89 -473h-49l18 94l-2 2q-18 -34 -64.5 -71t-104.5 -37q-30 0 -51 13t-43 44l-55 -257h-50z" />
    <glyph glyph-name="paragraph" unicode="&#xb6;" horiz-adv-x="646" 
d="M684 679v-63h-95v-828h-63v828h-130v-828h-64v478q-104 0 -161.5 61t-57.5 148q0 93 63.5 148.5t170.5 55.5h337z" />
    <glyph glyph-name="periodcentered" unicode="&#xb7;" horiz-adv-x="292" 
d="M188 355h54l-22 -94h-54z" />
    <glyph glyph-name="cedilla" unicode="&#xb8;" horiz-adv-x="333" 
d="M125 -81l41 81h41l-22 -44q38 -3 59 -22.5t21 -52.5q0 -46 -41 -74.5t-106 -28.5q-54 0 -94 10l17 36q29 -7 72 -7t71 18t28 46q0 21 -22.5 34t-64.5 4z" />
    <glyph glyph-name="onesuperior" unicode="&#xb9;" horiz-adv-x="344" 
d="M209 360l80 296h-54l6 28h95l-86 -324h46l-6 -28h-142l6 28h55z" />
    <glyph glyph-name="ordmasculine" unicode="&#xba;" horiz-adv-x="354" 
d="M110 510q0 75 53 127.5t128 52.5q56 0 91 -34.5t35 -90.5q0 -72 -52.5 -123.5t-126.5 -51.5q-55 0 -91.5 34t-36.5 86zM141 510q0 -41 28 -67.5t73 -26.5q58 0 101 44.5t43 104.5q0 44 -27.5 71t-71.5 27q-60 0 -103 -45.5t-43 -107.5z" />
    <glyph glyph-name="guillemotright" unicode="&#xbb;" horiz-adv-x="406" 
d="M362 455l79 -202l-168 -231h-51l176 237l-76 196h40zM158 455l79 -202l-168 -231h-51l176 237l-76 196h40z" />
    <glyph glyph-name="onequarter" unicode="&#xbc;" horiz-adv-x="865" 
d="M635 28l17 73h-155q-1 18 -11 28l236 229h35l-63 -229h62l-7 -28h-62l-17 -73h43l-6 -28h-128l6 28h50zM102 0l636 679h44l-637 -679h-43zM661 129l42 167l-2 2l-169 -169h129zM212 360l80 296h-54l6 28h95l-86 -324h46l-6 -28h-142l6 28h55z" />
    <glyph glyph-name="onehalf" unicode="&#xbd;" horiz-adv-x="865" 
d="M687 29l21 91h40l-33 -120h-220q7 43 35.5 78.5t63.5 58t68.5 43t56.5 45t23 51.5q0 23 -16 38.5t-40 15.5q-70 0 -100 -110h-38q14 66 50.5 102t88.5 36q42 0 68.5 -23t26.5 -59q0 -31 -20.5 -57t-52 -46t-64 -39.5t-62 -46.5t-41.5 -58h145zM102 0l636 679h44
l-637 -679h-43zM211 360l80 296h-54l6 28h95l-86 -324h46l-6 -28h-142l6 28h55z" />
    <glyph glyph-name="threequarters" unicode="&#xbe;" horiz-adv-x="865" 
d="M682 28l17 73h-155q-1 18 -11 28l236 229h35l-63 -229h62l-7 -28h-62l-17 -73h43l-6 -28h-128l6 28h50zM149 0l636 679h44l-637 -679h-43zM706 129l45 167l-2 2l-172 -169h129zM123 449h39q-9 -44 13.5 -69t60.5 -25q36 0 63 24.5t27 57.5q0 31 -22.5 48t-63.5 17h-18
l6 28h10q57 0 89 20.5t32 55.5q0 25 -18.5 41t-47.5 16q-60 0 -81 -76h-37q10 49 41.5 76t77.5 27t74 -24t28 -62q0 -35 -23.5 -60.5t-60.5 -29.5v-2q55 -22 55 -74q0 -45 -39 -78.5t-92 -33.5q-57 0 -89 32t-24 91z" />
    <glyph glyph-name="questiondown" unicode="&#xbf;" horiz-adv-x="438" 
d="M315 295l-34 -199q-83 24 -150 -25t-67 -136q0 -49 32.5 -80t85.5 -31q48 0 82.5 29t50.5 83h42q-18 -73 -66.5 -113.5t-116.5 -40.5q-70 0 -113.5 42.5t-43.5 110.5q0 94 71 158.5t160 51.5l44 150h23zM374 472l-22 -94h-54l22 94h54z" />
    <glyph glyph-name="Agrave" unicode="&#xc0;" horiz-adv-x="656" 
d="M-19 0l10 42h86l315 595h-88l10 42h295l-10 -42h-78l68 -595h88l-10 -42h-228l10 42h86l-24 215h-271l-112 -215h84l-10 -42h-221zM263 299h245l-37 346h-27zM515 734h-37l-122 157h60z" />
    <glyph glyph-name="Aacute" unicode="&#xc1;" horiz-adv-x="656" 
d="M-19 0l10 42h86l315 595h-88l10 42h295l-10 -42h-78l68 -595h88l-10 -42h-228l10 42h86l-24 215h-271l-112 -215h84l-10 -42h-221zM263 299h245l-37 346h-27zM402 734l99 157h60l-122 -157h-37z" />
    <glyph glyph-name="Acircumflex" unicode="&#xc2;" horiz-adv-x="656" 
d="M-19 0l10 42h86l315 595h-88l10 42h295l-10 -42h-78l68 -595h88l-10 -42h-228l10 42h86l-24 215h-271l-112 -215h84l-10 -42h-221zM263 299h245l-37 346h-27zM465 884h56l90 -153h-29l-102 116l-120 -116h-28z" />
    <glyph glyph-name="Atilde" unicode="&#xc3;" horiz-adv-x="656" 
d="M-19 0l10 42h86l315 595h-88l10 42h295l-10 -42h-78l68 -595h88l-10 -42h-228l10 42h86l-24 215h-271l-112 -215h84l-10 -42h-221zM263 299h245l-37 346h-27zM340 768h-27q7 39 31.5 64t56.5 25q27 0 79 -24q54 -25 74 -25q39 0 56 49h25q-6 -39 -30 -65t-54 -26
q-26 0 -82 25q-54 24 -72 24q-43 0 -57 -47z" />
    <glyph glyph-name="Adieresis" unicode="&#xc4;" horiz-adv-x="656" 
d="M-19 0l10 42h86l315 595h-88l10 42h295l-10 -42h-78l68 -595h88l-10 -42h-228l10 42h86l-24 215h-271l-112 -215h84l-10 -42h-221zM263 299h245l-37 346h-27zM548 850q15 0 25.5 -10t10.5 -25t-10.5 -25.5t-25.5 -10.5t-25 10.5t-10 25.5t10 25t25 10zM376 850
q15 0 25.5 -10t10.5 -25t-10.5 -25.5t-25.5 -10.5t-25 10.5t-10 25.5t10 25t25 10z" />
    <glyph glyph-name="Aring" unicode="&#xc5;" horiz-adv-x="656" 
d="M-19 0l10 42h86l315 595h-88l10 42h295l-10 -42h-78l68 -595h88l-10 -42h-228l10 42h86l-24 215h-271l-112 -215h84l-10 -42h-221zM263 299h245l-37 346h-27zM480 909q38 0 64.5 -26.5t26.5 -64.5t-26.5 -64.5t-64.5 -26.5t-64.5 26.5t-26.5 64.5t26.5 64.5t64.5 26.5z
M480 880q-26 0 -44 -18t-18 -44t18 -44t44 -18t44 18t18 44t-18 44t-44 18z" />
    <glyph glyph-name="AE" unicode="&#xc6;" horiz-adv-x="896" 
d="M25 42l448 595h-97l10 42h602l-48 -208h-42l38 166h-312l-62 -269h248l-10 -42h-248l-65 -284h318l37 163h42l-47 -205h-503l10 42h89l65 284h-205l-213 -284h80l-10 -42h-204l10 42h69zM508 368l64 276h-41l-207 -276h184z" />
    <glyph glyph-name="Ccedilla" unicode="&#xc7;" horiz-adv-x="740" 
d="M305 -81l38 75q-119 17 -178 98.5t-59 186.5q0 109 58 204t156.5 151t211.5 56q150 0 207 -109l23 98h43l-43 -186h-35q-12 73 -63.5 114t-131.5 41q-151 0 -262 -110t-111 -260q0 -110 65 -178t170 -68q147 0 264 140l32 -28q-52 -71 -131 -112.5t-163 -41.5h-14
l-17 -34q38 -3 59 -22.5t21 -52.5q0 -46 -41 -74.5t-106 -28.5q-54 0 -94 10l17 36q29 -7 72 -7t71 18t28 46q0 21 -22.5 34t-64.5 4z" />
    <glyph glyph-name="Egrave" unicode="&#xc8;" horiz-adv-x="594" 
d="M92 42l138 595h-76l9 42h487l-48 -208h-42l38 166h-314l-62 -268h250l-10 -42h-250l-66 -285h320l38 165h42l-47 -207h-486l9 42h70zM472 734h-37l-122 157h60z" />
    <glyph glyph-name="Eacute" unicode="&#xc9;" horiz-adv-x="594" 
d="M92 42l138 595h-76l9 42h487l-48 -208h-42l38 166h-314l-62 -268h250l-10 -42h-250l-66 -285h320l38 165h42l-47 -207h-486l9 42h70zM409 734l99 157h60l-122 -157h-37z" />
    <glyph glyph-name="Ecircumflex" unicode="&#xca;" horiz-adv-x="594" 
d="M92 42l138 595h-76l9 42h487l-48 -208h-42l38 166h-314l-62 -268h250l-10 -42h-250l-66 -285h320l38 165h42l-47 -207h-486l9 42h70zM452 884h56l90 -153h-29l-102 116l-120 -116h-28z" />
    <glyph glyph-name="Edieresis" unicode="&#xcb;" horiz-adv-x="594" 
d="M92 42l138 595h-76l9 42h487l-48 -208h-42l38 166h-314l-62 -268h250l-10 -42h-250l-66 -285h320l38 165h42l-47 -207h-486l9 42h70zM555 850q15 0 25.5 -10t10.5 -25t-10.5 -25.5t-25.5 -10.5t-25 10.5t-10 25.5t10 25t25 10zM383 850q15 0 25.5 -10t10.5 -25
t-10.5 -25.5t-25.5 -10.5t-25 10.5t-10 25.5t10 25t25 10z" />
    <glyph glyph-name="Igrave" unicode="&#xcc;" horiz-adv-x="260" 
d="M96 42l137 595h-72l10 42h182l-10 -42h-56l-137 -595h73l-10 -42h-199l10 42h72zM305 734h-37l-122 157h60z" />
    <glyph glyph-name="Iacute" unicode="&#xcd;" horiz-adv-x="260" 
d="M96 42l137 595h-72l10 42h182l-10 -42h-56l-137 -595h73l-10 -42h-199l10 42h72zM252 734l99 157h60l-122 -157h-37z" />
    <glyph glyph-name="Icircumflex" unicode="&#xce;" horiz-adv-x="260" 
d="M96 42l137 595h-72l10 42h182l-10 -42h-56l-137 -595h73l-10 -42h-199l10 42h72zM285 884h56l90 -153h-29l-102 116l-120 -116h-28z" />
    <glyph glyph-name="Idieresis" unicode="&#xcf;" horiz-adv-x="260" 
d="M96 42l137 595h-72l10 42h182l-10 -42h-56l-137 -595h73l-10 -42h-199l10 42h72zM388 850q15 0 25.5 -10t10.5 -25t-10.5 -25.5t-25.5 -10.5t-25 10.5t-10 25.5t10 25t25 10zM216 850q15 0 25.5 -10t10.5 -25t-10.5 -25.5t-25.5 -10.5t-25 10.5t-10 25.5t10 25t25 10z
" />
    <glyph glyph-name="Eth" unicode="&#xd0;" horiz-adv-x="698" 
d="M95 42l63 276h-92l10 42h92l64 277h-76l10 42h242q137 0 221 -78t84 -212q0 -160 -106 -274.5t-272 -114.5h-321l10 42h71zM149 42h174q86 0 153.5 33t106 86t58 111.5t19.5 117.5q0 107 -67 177t-195 70h-112l-64 -277h200l-10 -42h-200z" />
    <glyph glyph-name="Ntilde" unicode="&#xd1;" horiz-adv-x="677" 
d="M91 42l137 595h-83l10 42h159l225 -603h2l129 561h-77l10 42h194l-10 -42h-74l-149 -643h-51l-237 643h-2l-136 -595h73l-10 -42h-197l10 42h77zM398 768h-27q7 39 31.5 64t56.5 25q27 0 79 -24q54 -25 74 -25q39 0 56 49h25q-6 -39 -30 -65t-54 -26q-26 0 -82 25
q-54 24 -72 24q-43 0 -57 -47z" />
    <glyph glyph-name="Ograve" unicode="&#xd2;" horiz-adv-x="760" 
d="M108 265q0 107 49 203.5t141 159t205 62.5q130 0 206 -75t76 -202q0 -72 -26.5 -145.5t-75 -136t-127.5 -102t-173 -39.5q-135 0 -205 78.5t-70 196.5zM161 263q0 -104 60.5 -167.5t160.5 -63.5q82 0 150.5 37t111 95.5t65.5 124.5t23 128q0 94 -59 162.5t-172 68.5
q-140 0 -240 -118.5t-100 -266.5zM555 734h-37l-122 157h60z" />
    <glyph glyph-name="Oacute" unicode="&#xd3;" horiz-adv-x="760" 
d="M108 265q0 107 49 203.5t141 159t205 62.5q130 0 206 -75t76 -202q0 -72 -26.5 -145.5t-75 -136t-127.5 -102t-173 -39.5q-135 0 -205 78.5t-70 196.5zM161 263q0 -104 60.5 -167.5t160.5 -63.5q82 0 150.5 37t111 95.5t65.5 124.5t23 128q0 94 -59 162.5t-172 68.5
q-140 0 -240 -118.5t-100 -266.5zM502 734l99 157h60l-122 -157h-37z" />
    <glyph glyph-name="Ocircumflex" unicode="&#xd4;" horiz-adv-x="760" 
d="M108 265q0 107 49 203.5t141 159t205 62.5q130 0 206 -75t76 -202q0 -72 -26.5 -145.5t-75 -136t-127.5 -102t-173 -39.5q-135 0 -205 78.5t-70 196.5zM161 263q0 -104 60.5 -167.5t160.5 -63.5q82 0 150.5 37t111 95.5t65.5 124.5t23 128q0 94 -59 162.5t-172 68.5
q-140 0 -240 -118.5t-100 -266.5zM535 884h56l90 -153h-29l-102 116l-120 -116h-28z" />
    <glyph glyph-name="Otilde" unicode="&#xd5;" horiz-adv-x="760" 
d="M108 265q0 107 49 203.5t141 159t205 62.5q130 0 206 -75t76 -202q0 -72 -26.5 -145.5t-75 -136t-127.5 -102t-173 -39.5q-135 0 -205 78.5t-70 196.5zM161 263q0 -104 60.5 -167.5t160.5 -63.5q82 0 150.5 37t111 95.5t65.5 124.5t23 128q0 94 -59 162.5t-172 68.5
q-140 0 -240 -118.5t-100 -266.5zM440 768h-27q7 39 31.5 64t56.5 25q27 0 79 -24q54 -25 74 -25q39 0 56 49h25q-6 -39 -30 -65t-54 -26q-26 0 -82 25q-54 24 -72 24q-43 0 -57 -47z" />
    <glyph glyph-name="Odieresis" unicode="&#xd6;" horiz-adv-x="760" 
d="M108 265q0 107 49 203.5t141 159t205 62.5q130 0 206 -75t76 -202q0 -72 -26.5 -145.5t-75 -136t-127.5 -102t-173 -39.5q-135 0 -205 78.5t-70 196.5zM161 263q0 -104 60.5 -167.5t160.5 -63.5q82 0 150.5 37t111 95.5t65.5 124.5t23 128q0 94 -59 162.5t-172 68.5
q-140 0 -240 -118.5t-100 -266.5zM648 850q15 0 25.5 -10t10.5 -25t-10.5 -25.5t-25.5 -10.5t-25 10.5t-10 25.5t10 25t25 10zM476 850q15 0 25.5 -10t10.5 -25t-10.5 -25.5t-25.5 -10.5t-25 10.5t-10 25.5t10 25t25 10z" />
    <glyph glyph-name="multiply" unicode="&#xd7;" horiz-adv-x="668" 
d="M398 289l-206 -206l-32 32l206 206l-206 206l32 32l206 -207l207 207l32 -32l-206 -206l206 -206l-32 -32z" />
    <glyph glyph-name="Oslash" unicode="&#xd8;" horiz-adv-x="760" 
d="M687 637l47 51l25 -22l-47 -54q73 -75 73 -201q0 -109 -51 -205.5t-143.5 -156t-205.5 -59.5q-102 0 -176 52l-43 -51l-26 22l43 50q-35 34 -55 88.5t-20 115.5q0 72 27 145.5t75.5 136t125.5 102t168 39.5q107 0 183 -53zM217 100l438 498q-62 50 -150 50
q-98 0 -179 -59t-123 -145.5t-42 -177.5q0 -101 56 -166zM679 574l-438 -497q61 -45 142 -45t149.5 36.5t110.5 94t65.5 124t23.5 130.5q0 92 -53 157z" />
    <glyph glyph-name="Ugrave" unicode="&#xd9;" horiz-adv-x="615" 
d="M277 637l-105 -455q-16 -70 28.5 -110t116.5 -40q68 0 118.5 41.5t70.5 129.5l100 434h-71l10 42h193l-10 -42h-68l-105 -457q-21 -93 -90 -141.5t-157 -48.5q-89 0 -149 54t-37 155l101 438h-72l10 42h198l-10 -42h-72zM482 734h-37l-122 157h60z" />
    <glyph glyph-name="Uacute" unicode="&#xda;" horiz-adv-x="615" 
d="M277 637l-105 -455q-16 -70 28.5 -110t116.5 -40q68 0 118.5 41.5t70.5 129.5l100 434h-71l10 42h193l-10 -42h-68l-105 -457q-21 -93 -90 -141.5t-157 -48.5q-89 0 -149 54t-37 155l101 438h-72l10 42h198l-10 -42h-72zM429 734l99 157h60l-122 -157h-37z" />
    <glyph glyph-name="Ucircumflex" unicode="&#xdb;" horiz-adv-x="615" 
d="M277 637l-105 -455q-16 -70 28.5 -110t116.5 -40q68 0 118.5 41.5t70.5 129.5l100 434h-71l10 42h193l-10 -42h-68l-105 -457q-21 -93 -90 -141.5t-157 -48.5q-89 0 -149 54t-37 155l101 438h-72l10 42h198l-10 -42h-72zM462 884h56l90 -153h-29l-102 116l-120 -116h-28z
" />
    <glyph glyph-name="Udieresis" unicode="&#xdc;" horiz-adv-x="615" 
d="M277 637l-105 -455q-16 -70 28.5 -110t116.5 -40q68 0 118.5 41.5t70.5 129.5l100 434h-71l10 42h193l-10 -42h-68l-105 -457q-21 -93 -90 -141.5t-157 -48.5q-89 0 -149 54t-37 155l101 438h-72l10 42h198l-10 -42h-72zM570 850q15 0 25.5 -10t10.5 -25t-10.5 -25.5
t-25.5 -10.5t-25 10.5t-10 25.5t10 25t25 10zM398 850q15 0 25.5 -10t10.5 -25t-10.5 -25.5t-25.5 -10.5t-25 10.5t-10 25.5t10 25t25 10z" />
    <glyph glyph-name="Yacute" unicode="&#xdd;" horiz-adv-x="594" 
d="M246 42l62 267l-127 328h-76l9 42h214l-9 -42h-81l108 -279l247 279h-89l9 42h215l-9 -42h-68l-289 -328l-62 -267h82l-9 -42h-218l9 42h82zM419 734l99 157h60l-122 -157h-37z" />
    <glyph glyph-name="Thorn" unicode="&#xde;" 
d="M90 42l137 595h-72l10 42h210l-10 -42h-84l-22 -97h77q93 0 147 -50t54 -136q0 -36 -12.5 -71.5t-38.5 -68.5t-76.5 -53.5t-117.5 -20.5h-125l-23 -98h84l-10 -42h-210l10 42h72zM176 182h119q101 0 145 51t44 121q0 65 -37 104.5t-109 39.5h-89z" />
    <glyph glyph-name="germandbls" unicode="&#xdf;" horiz-adv-x="573" 
d="M76 42l94 409q29 127 77 175q64 64 165 64q83 0 139 -44t56 -109q0 -53 -38 -95.5t-113 -57.5v-2q114 -46 114 -168q0 -91 -62 -156t-148 -65q-50 0 -92 24l9 40q47 -22 86 -22q64 0 111.5 55t47.5 129q0 59 -44 104t-121 50l9 40q59 -9 126 22.5t67 98.5q0 49 -43 81.5
t-107 32.5q-76 0 -123 -47q-41 -41 -68 -155l-93 -404h70l-10 -42h-182l10 42h63z" />
    <glyph glyph-name="agrave" unicode="&#xe0;" 
d="M369 0l17 74l-2 2q-86 -83 -173 -83q-58 0 -97.5 38t-39.5 93q0 68 54 111.5t137 43.5q80 0 152 -42l25 101q11 49 -21 77.5t-84 28.5q-46 0 -80 -18.5t-66 -61.5l-38 17q76 103 188 103q73 0 119.5 -40t27.5 -120l-67 -282h70l-9 -42h-113zM390 118l19 84
q-70 40 -149 40q-56 0 -97 -34.5t-41 -81.5q0 -40 28.5 -65.5t72.5 -25.5q71 0 167 83zM425 532h-37l-122 157h60z" />
    <glyph glyph-name="aacute" unicode="&#xe1;" 
d="M369 0l17 74l-2 2q-86 -83 -173 -83q-58 0 -97.5 38t-39.5 93q0 68 54 111.5t137 43.5q80 0 152 -42l25 101q11 49 -21 77.5t-84 28.5q-46 0 -80 -18.5t-66 -61.5l-38 17q76 103 188 103q73 0 119.5 -40t27.5 -120l-67 -282h70l-9 -42h-113zM390 118l19 84
q-70 40 -149 40q-56 0 -97 -34.5t-41 -81.5q0 -40 28.5 -65.5t72.5 -25.5q71 0 167 83zM312 532l99 157h60l-122 -157h-37z" />
    <glyph glyph-name="acircumflex" unicode="&#xe2;" 
d="M369 0l17 74l-2 2q-86 -83 -173 -83q-58 0 -97.5 38t-39.5 93q0 68 54 111.5t137 43.5q80 0 152 -42l25 101q11 49 -21 77.5t-84 28.5q-46 0 -80 -18.5t-66 -61.5l-38 17q76 103 188 103q73 0 119.5 -40t27.5 -120l-67 -282h70l-9 -42h-113zM390 118l19 84
q-70 40 -149 40q-56 0 -97 -34.5t-41 -81.5q0 -40 28.5 -65.5t72.5 -25.5q71 0 167 83zM345 682h56l90 -153h-29l-102 116l-120 -116h-28z" />
    <glyph glyph-name="atilde" unicode="&#xe3;" 
d="M369 0l17 74l-2 2q-86 -83 -173 -83q-58 0 -97.5 38t-39.5 93q0 68 54 111.5t137 43.5q80 0 152 -42l25 101q11 49 -21 77.5t-84 28.5q-46 0 -80 -18.5t-66 -61.5l-38 17q76 103 188 103q73 0 119.5 -40t27.5 -120l-67 -282h70l-9 -42h-113zM390 118l19 84
q-70 40 -149 40q-56 0 -97 -34.5t-41 -81.5q0 -40 28.5 -65.5t72.5 -25.5q71 0 167 83zM250 566h-27q7 39 31.5 64t56.5 25q27 0 79 -24q54 -25 74 -25q39 0 56 49h25q-6 -39 -30 -65t-54 -26q-26 0 -82 25q-54 24 -72 24q-43 0 -57 -47z" />
    <glyph glyph-name="adieresis" unicode="&#xe4;" 
d="M369 0l17 74l-2 2q-86 -83 -173 -83q-58 0 -97.5 38t-39.5 93q0 68 54 111.5t137 43.5q80 0 152 -42l25 101q11 49 -21 77.5t-84 28.5q-46 0 -80 -18.5t-66 -61.5l-38 17q76 103 188 103q73 0 119.5 -40t27.5 -120l-67 -282h70l-9 -42h-113zM390 118l19 84
q-70 40 -149 40q-56 0 -97 -34.5t-41 -81.5q0 -40 28.5 -65.5t72.5 -25.5q71 0 167 83zM458 648q15 0 25.5 -10t10.5 -25t-10.5 -25.5t-25.5 -10.5t-25 10.5t-10 25.5t10 25t25 10zM286 648q15 0 25.5 -10t10.5 -25t-10.5 -25.5t-25.5 -10.5t-25 10.5t-10 25.5t10 25t25 10z
" />
    <glyph glyph-name="aring" unicode="&#xe5;" 
d="M369 0l17 74l-2 2q-86 -83 -173 -83q-58 0 -97.5 38t-39.5 93q0 68 54 111.5t137 43.5q80 0 152 -42l25 101q11 49 -21 77.5t-84 28.5q-46 0 -80 -18.5t-66 -61.5l-38 17q76 103 188 103q73 0 119.5 -40t27.5 -120l-67 -282h70l-9 -42h-113zM390 118l19 84
q-70 40 -149 40q-56 0 -97 -34.5t-41 -81.5q0 -40 28.5 -65.5t72.5 -25.5q71 0 167 83zM390 707q38 0 64.5 -26.5t26.5 -64.5t-26.5 -64.5t-64.5 -26.5t-64.5 26.5t-26.5 64.5t26.5 64.5t64.5 26.5zM390 678q-26 0 -44 -18t-18 -44t18 -44t44 -18t44 18t18 44t-18 44t-44 18
z" />
    <glyph glyph-name="ae" unicode="&#xe6;" horiz-adv-x="854" 
d="M765 110l44 -17q-78 -105 -203 -105q-132 0 -183 126q-47 -67 -103 -96.5t-107 -29.5q-60 0 -101 39t-41 95q0 67 56.5 113.5t136.5 46.5q66 0 147 -41l24 101q10 45 -15.5 73.5t-83.5 28.5q-87 0 -149 -78l-38 17q75 101 190 101q122 0 140 -101q77 101 188 101
q28 0 57 -9t57 -28t46.5 -49.5t27.5 -73t-1 -98.5h-396q-14 -84 33.5 -140t114.5 -56q46 0 88 21t71 59zM402 203q-79 39 -136 39q-59 0 -103 -32.5t-44 -86.5q0 -39 31 -66t75 -27q92 0 162 105zM466 264h347q4 83 -39 130.5t-112 47.5q-68 0 -124.5 -51t-71.5 -127z" />
    <glyph glyph-name="ccedilla" unicode="&#xe7;" horiz-adv-x="479" 
d="M180 -81l38 75q-68 13 -107.5 65t-39.5 130q0 131 81 213t173 82q98 0 149 -84l17 73h41l-33 -143h-41q-14 54 -49.5 83t-86.5 29q-83 0 -143 -75.5t-60 -180.5q0 -68 41 -112t104 -44q92 0 163 91l33 -25q-74 -108 -204 -108l-16 -32q38 -3 59 -22.5t21 -52.5
q0 -46 -41 -74.5t-106 -28.5q-54 0 -94 10l17 36q29 -7 72 -7t71 18t28 46q0 21 -22.5 34t-64.5 4z" />
    <glyph glyph-name="egrave" unicode="&#xe8;" horiz-adv-x="531" 
d="M528 228h-404q-9 -87 36 -142.5t124 -55.5q91 0 158 82l45 -18q-82 -106 -203 -106q-94 0 -151 58.5t-57 154.5q0 115 77.5 199t184.5 84q92 0 149.5 -67.5t40.5 -188.5zM133 265h354q5 84 -36.5 130.5t-112.5 46.5q-74 0 -131.5 -50t-73.5 -127zM375 532h-37l-122 157
h60z" />
    <glyph glyph-name="eacute" unicode="&#xe9;" horiz-adv-x="531" 
d="M528 228h-404q-9 -87 36 -142.5t124 -55.5q91 0 158 82l45 -18q-82 -106 -203 -106q-94 0 -151 58.5t-57 154.5q0 115 77.5 199t184.5 84q92 0 149.5 -67.5t40.5 -188.5zM133 265h354q5 84 -36.5 130.5t-112.5 46.5q-74 0 -131.5 -50t-73.5 -127zM322 532l99 157h60
l-122 -157h-37z" />
    <glyph glyph-name="ecircumflex" unicode="&#xea;" horiz-adv-x="531" 
d="M528 228h-404q-9 -87 36 -142.5t124 -55.5q91 0 158 82l45 -18q-82 -106 -203 -106q-94 0 -151 58.5t-57 154.5q0 115 77.5 199t184.5 84q92 0 149.5 -67.5t40.5 -188.5zM133 265h354q5 84 -36.5 130.5t-112.5 46.5q-74 0 -131.5 -50t-73.5 -127zM355 682h56l90 -153h-29
l-102 116l-120 -116h-28z" />
    <glyph glyph-name="edieresis" unicode="&#xeb;" horiz-adv-x="531" 
d="M528 228h-404q-9 -87 36 -142.5t124 -55.5q91 0 158 82l45 -18q-82 -106 -203 -106q-94 0 -151 58.5t-57 154.5q0 115 77.5 199t184.5 84q92 0 149.5 -67.5t40.5 -188.5zM133 265h354q5 84 -36.5 130.5t-112.5 46.5q-74 0 -131.5 -50t-73.5 -127zM468 648q15 0 25.5 -10
t10.5 -25t-10.5 -25.5t-25.5 -10.5t-25 10.5t-10 25.5t10 25t25 10zM296 648q15 0 25.5 -10t10.5 -25t-10.5 -25.5t-25.5 -10.5t-25 10.5t-10 25.5t10 25t25 10z" />
    <glyph glyph-name="igrave" unicode="&#xec;" horiz-adv-x="240" 
d="M99 42l90 389h-77l10 42h126l-100 -431h76l-9 -42h-200l9 42h75zM230 532h-37l-122 157h60z" />
    <glyph glyph-name="iacute" unicode="&#xed;" horiz-adv-x="240" 
d="M99 42l90 389h-77l10 42h126l-100 -431h76l-9 -42h-200l9 42h75zM177 532l99 157h60l-122 -157h-37z" />
    <glyph glyph-name="icircumflex" unicode="&#xee;" horiz-adv-x="240" 
d="M99 42l90 389h-77l10 42h126l-100 -431h76l-9 -42h-200l9 42h75zM210 682h56l90 -153h-29l-102 116l-120 -116h-28z" />
    <glyph glyph-name="idieresis" unicode="&#xef;" horiz-adv-x="240" 
d="M99 42l90 389h-77l10 42h126l-100 -431h76l-9 -42h-200l9 42h75zM323 648q15 0 25.5 -10t10.5 -25t-10.5 -25.5t-25.5 -10.5t-25 10.5t-10 25.5t10 25t25 10zM151 648q15 0 25.5 -10t10.5 -25t-10.5 -25.5t-25.5 -10.5t-25 10.5t-10 25.5t10 25t25 10z" />
    <glyph glyph-name="eth" unicode="&#xf0;" horiz-adv-x="542" 
d="M127 191q0 -70 43.5 -114.5t112.5 -44.5q90 0 156.5 74t66.5 173q0 74 -42.5 119.5t-111.5 45.5q-91 0 -158 -73t-67 -180zM565 665l-99 -52q48 -58 71 -137.5t23 -148.5q0 -154 -84 -245.5t-199 -91.5q-87 0 -142.5 57t-55.5 146q0 123 83.5 208t191.5 85q103 0 150 -77
l2 2q-25 114 -84 179l-103 -54l-34 24l109 57q-28 25 -71 49l43 23q40 -16 73 -48l91 48z" />
    <glyph glyph-name="ntilde" unicode="&#xf1;" horiz-adv-x="521" 
d="M90 42l90 389h-77l10 42h126l-16 -67q112 78 181 78q54 0 85 -42.5t14 -115.5l-65 -284h78l-10 -42h-202l10 42h75l69 300q10 44 -8 72t-61 28q-60 0 -177 -86l-73 -314h73l-10 -42h-192l10 42h70zM255 566h-27q7 39 31.5 64t56.5 25q27 0 79 -24q54 -25 74 -25
q39 0 56 49h25q-6 -39 -30 -65t-54 -26q-26 0 -82 25q-54 24 -72 24q-43 0 -57 -47z" />
    <glyph glyph-name="ograve" unicode="&#xf2;" horiz-adv-x="542" 
d="M79 188q0 130 84.5 213t195.5 83q85 0 139.5 -55t54.5 -150q0 -120 -81.5 -205.5t-194.5 -85.5q-94 0 -146 58.5t-52 141.5zM127 189q0 -71 43 -115t112 -44q90 0 156.5 74t66.5 174q0 73 -42.5 118.5t-111.5 45.5q-92 0 -158 -74t-66 -179zM381 532h-37l-122 157h60z
" />
    <glyph glyph-name="oacute" unicode="&#xf3;" horiz-adv-x="542" 
d="M79 188q0 130 84.5 213t195.5 83q85 0 139.5 -55t54.5 -150q0 -120 -81.5 -205.5t-194.5 -85.5q-94 0 -146 58.5t-52 141.5zM127 189q0 -71 43 -115t112 -44q90 0 156.5 74t66.5 174q0 73 -42.5 118.5t-111.5 45.5q-92 0 -158 -74t-66 -179zM328 532l99 157h60l-122 -157
h-37z" />
    <glyph glyph-name="ocircumflex" unicode="&#xf4;" horiz-adv-x="542" 
d="M79 188q0 130 84.5 213t195.5 83q85 0 139.5 -55t54.5 -150q0 -120 -81.5 -205.5t-194.5 -85.5q-94 0 -146 58.5t-52 141.5zM127 189q0 -71 43 -115t112 -44q90 0 156.5 74t66.5 174q0 73 -42.5 118.5t-111.5 45.5q-92 0 -158 -74t-66 -179zM361 682h56l90 -153h-29
l-102 116l-120 -116h-28z" />
    <glyph glyph-name="otilde" unicode="&#xf5;" horiz-adv-x="542" 
d="M79 188q0 130 84.5 213t195.5 83q85 0 139.5 -55t54.5 -150q0 -120 -81.5 -205.5t-194.5 -85.5q-94 0 -146 58.5t-52 141.5zM127 189q0 -71 43 -115t112 -44q90 0 156.5 74t66.5 174q0 73 -42.5 118.5t-111.5 45.5q-92 0 -158 -74t-66 -179zM266 566h-27q7 39 31.5 64
t56.5 25q27 0 79 -24q54 -25 74 -25q39 0 56 49h25q-6 -39 -30 -65t-54 -26q-26 0 -82 25q-54 24 -72 24q-43 0 -57 -47z" />
    <glyph glyph-name="odieresis" unicode="&#xf6;" horiz-adv-x="542" 
d="M79 188q0 130 84.5 213t195.5 83q85 0 139.5 -55t54.5 -150q0 -120 -81.5 -205.5t-194.5 -85.5q-94 0 -146 58.5t-52 141.5zM127 189q0 -71 43 -115t112 -44q90 0 156.5 74t66.5 174q0 73 -42.5 118.5t-111.5 45.5q-92 0 -158 -74t-66 -179zM474 648q15 0 25.5 -10
t10.5 -25t-10.5 -25.5t-25.5 -10.5t-25 10.5t-10 25.5t10 25t25 10zM302 648q15 0 25.5 -10t10.5 -25t-10.5 -25.5t-25.5 -10.5t-25 10.5t-10 25.5t10 25t25 10z" />
    <glyph glyph-name="divide" unicode="&#xf7;" horiz-adv-x="668" 
d="M136 298v45h525v-45h-525zM398 87q-13 0 -22 9t-9 22t9 22.5t22 9.5t22.5 -9.5t9.5 -22.5t-9.5 -22t-22.5 -9zM398 491q-13 0 -22 9t-9 22t9 22.5t22 9.5t22.5 -9.5t9.5 -22.5t-9.5 -22t-22.5 -9z" />
    <glyph glyph-name="oslash" unicode="&#xf8;" horiz-adv-x="542" 
d="M474 448l31 36l25 -23l-31 -36q28 -28 41 -59.5t13 -88.5q0 -112 -76 -200.5t-201 -88.5q-70 0 -122 39l-32 -38l-26 22l33 39q-51 56 -51 141q0 121 82 207t197 86q67 0 117 -36zM160 85l283 328q-38 29 -92 29q-93 0 -159 -74.5t-66 -178.5q0 -60 34 -104zM468 389
l-284 -328q43 -31 98 -31q94 0 158.5 76.5t64.5 171.5q0 68 -37 111z" />
    <glyph glyph-name="ugrave" unicode="&#xf9;" horiz-adv-x="521" 
d="M526 473l-100 -431h77l-10 -42h-125l15 67q-108 -74 -176 -74q-53 0 -86.5 36.5t-16.5 111.5l66 290h-77l10 42h126l-80 -341q-11 -48 11.5 -72.5t56.5 -24.5q60 0 180 82l71 314h-82l10 42h130zM370 532h-37l-122 157h60z" />
    <glyph glyph-name="uacute" unicode="&#xfa;" horiz-adv-x="521" 
d="M526 473l-100 -431h77l-10 -42h-125l15 67q-108 -74 -176 -74q-53 0 -86.5 36.5t-16.5 111.5l66 290h-77l10 42h126l-80 -341q-11 -48 11.5 -72.5t56.5 -24.5q60 0 180 82l71 314h-82l10 42h130zM317 532l99 157h60l-122 -157h-37z" />
    <glyph glyph-name="ucircumflex" unicode="&#xfb;" horiz-adv-x="521" 
d="M526 473l-100 -431h77l-10 -42h-125l15 67q-108 -74 -176 -74q-53 0 -86.5 36.5t-16.5 111.5l66 290h-77l10 42h126l-80 -341q-11 -48 11.5 -72.5t56.5 -24.5q60 0 180 82l71 314h-82l10 42h130zM350 682h56l90 -153h-29l-102 116l-120 -116h-28z" />
    <glyph glyph-name="udieresis" unicode="&#xfc;" horiz-adv-x="521" 
d="M526 473l-100 -431h77l-10 -42h-125l15 67q-108 -74 -176 -74q-53 0 -86.5 36.5t-16.5 111.5l66 290h-77l10 42h126l-80 -341q-11 -48 11.5 -72.5t56.5 -24.5q60 0 180 82l71 314h-82l10 42h130zM463 648q15 0 25.5 -10t10.5 -25t-10.5 -25.5t-25.5 -10.5t-25 10.5
t-10 25.5t10 25t25 10zM291 648q15 0 25.5 -10t10.5 -25t-10.5 -25.5t-25.5 -10.5t-25 10.5t-10 25.5t10 25t25 10z" />
    <glyph glyph-name="yacute" unicode="&#xfd;" 
d="M192 -9l-41 440h-63l10 42h175l-10 -42h-64l32 -372h2l222 372h-72l10 42h163l-10 -42h-42l-384 -643h-133l10 42h98zM312 532l99 157h60l-122 -157h-37z" />
    <glyph glyph-name="thorn" unicode="&#xfe;" horiz-adv-x="583" 
d="M34 -170l185 807h-76l10 42h125l-61 -262l2 -2q79 69 165 69q87 0 144.5 -59.5t57.5 -152.5q0 -117 -82 -200.5t-196 -83.5q-45 0 -84.5 20t-85.5 66l-55 -244h81l-11 -42h-196l11 42h66zM203 353l-53 -232q81 -91 162 -91q92 0 159 71.5t67 168.5q0 84 -46.5 128
t-112.5 44q-89 0 -176 -89z" />
    <glyph glyph-name="ydieresis" unicode="&#xff;" 
d="M192 -9l-41 440h-63l10 42h175l-10 -42h-64l32 -372h2l222 372h-72l10 42h163l-10 -42h-42l-384 -643h-133l10 42h98zM458 648q15 0 25.5 -10t10.5 -25t-10.5 -25.5t-25.5 -10.5t-25 10.5t-10 25.5t10 25t25 10zM286 648q15 0 25.5 -10t10.5 -25t-10.5 -25.5t-25.5 -10.5
t-25 10.5t-10 25.5t10 25t25 10z" />
    <glyph glyph-name="dotlessi" unicode="&#x131;" horiz-adv-x="240" 
d="M99 42l90 389h-77l10 42h126l-100 -431h76l-9 -42h-200l9 42h75z" />
    <glyph glyph-name="Lslash" unicode="&#x141;" horiz-adv-x="500" 
d="M285 637l-49 -213l2 -2l112 92l-13 -56l-114 -92l-75 -324h282l55 238h51l-64 -280h-465l9 42h77l65 276l-2 2l-118 -96l13 56l120 96l60 261h-82l10 42h215l-10 -42h-79z" />
    <glyph glyph-name="lslash" unicode="&#x142;" horiz-adv-x="240" 
d="M320 407l-107 -86l-64 -279h73l-10 -42h-197l10 42h75l55 235l-2 2l-101 -83l15 59l102 83l68 299h-75l10 42h124l-69 -296l2 -2l107 89z" />
    <glyph glyph-name="OE" unicode="&#x152;" horiz-adv-x="1010" 
d="M882 42l38 164h42l-47 -206h-502q-82 0 -145.5 24t-100 64.5t-54.5 89t-18 102.5q0 48 14 99.5t47.5 105.5t82 96.5t126 70t172.5 27.5h531l-48 -207h-42l38 165h-318l-62 -269h250l-10 -42h-250l-66 -284h322zM506 42l138 595h-104q-82 0 -149.5 -23t-111.5 -60t-74 -85
t-43 -96t-13 -95q0 -105 68 -170.5t197 -65.5h92z" />
    <glyph glyph-name="oe" unicode="&#x153;" horiz-adv-x="906" 
d="M821 111l48 -18q-86 -105 -200 -105q-134 0 -183 136q-94 -136 -219 -136q-86 0 -139.5 58.5t-53.5 152.5q0 116 79.5 200.5t187.5 84.5q61 0 106.5 -34.5t68.5 -98.5q76 133 204 133q97 0 153 -73t38 -184h-388q-8 -87 33.5 -142t110.5 -55q84 0 154 81zM122 196
q0 -75 40.5 -120.5t104.5 -45.5q88 0 151.5 74t63.5 177q0 70 -42.5 115.5t-102.5 45.5q-85 0 -150 -72t-65 -174zM530 265h339q4 81 -38 129t-111 48t-123 -53.5t-67 -123.5z" />
    <glyph glyph-name="Scaron" unicode="&#x160;" horiz-adv-x="479" 
d="M515 493h-43l19 82q-72 73 -160 73q-61 0 -99 -35.5t-38 -91.5q0 -37 19.5 -65t45.5 -44.5t67.5 -45t70.5 -57.5q33 -33 45 -62t12 -68q0 -80 -59.5 -134.5t-145.5 -54.5q-90 0 -167 68l-13 -58h-42l42 184h42l-18 -80q75 -72 158 -72q64 0 109.5 41.5t45.5 99.5
q0 43 -26.5 77.5t-64.5 59t-76 50t-64.5 64.5t-26.5 89q0 78 52 127.5t131 49.5q87 0 171 -67l12 56h43zM429 730h-56l-90 153h29l102 -116l120 116h28z" />
    <glyph glyph-name="scaron" unicode="&#x161;" horiz-adv-x="406" 
d="M426 345h-41q7 45 -34.5 71t-95.5 26q-49 0 -76.5 -21t-27.5 -54q0 -27 24.5 -47.5t60 -36.5t71 -34.5t60 -50t24.5 -73.5q0 -58 -48 -97.5t-120 -39.5q-90 0 -144 70l-13 -58h-42l30 132h42q-5 -43 35.5 -72.5t94.5 -29.5q49 0 84 27t35 64q0 33 -24.5 58t-60 41t-71 33
t-60 44.5t-24.5 64.5q0 50 41.5 86t110.5 36q50 0 82 -14.5t64 -46.5l11 50h43zM341 528h-56l-90 153h29l102 -116l120 116h28z" />
    <glyph glyph-name="Ydieresis" unicode="&#x178;" horiz-adv-x="594" 
d="M246 42l62 267l-127 328h-76l9 42h214l-9 -42h-81l108 -279l247 279h-89l9 42h215l-9 -42h-68l-289 -328l-62 -267h82l-9 -42h-218l9 42h82zM547 850q15 0 25.5 -10t10.5 -25t-10.5 -25.5t-25.5 -10.5t-25 10.5t-10 25.5t10 25t25 10zM375 850q15 0 25.5 -10t10.5 -25
t-10.5 -25.5t-25.5 -10.5t-25 10.5t-10 25.5t10 25t25 10z" />
    <glyph glyph-name="Zcaron" unicode="&#x17d;" horiz-adv-x="552" 
d="M40 0l10 42l502 595h-311l-37 -162h-42l47 204h419l-10 -42l-499 -595h334l39 172h42l-49 -214h-445zM464 730h-56l-90 153h29l102 -116l120 116h28z" />
    <glyph glyph-name="zcaron" unicode="&#x17e;" horiz-adv-x="417" 
d="M18 0l12 52l366 379h-217l-23 -100h-44l33 142h317l-12 -52l-366 -379h240l24 101h44l-33 -143h-341zM346 528h-56l-90 153h29l102 -116l120 116h28z" />
    <glyph glyph-name="florin" unicode="&#x192;" horiz-adv-x="552" 
d="M347 484h116l-10 -42h-115l-102 -535q-14 -70 -42.5 -98.5t-86.5 -28.5q-36 0 -88 15l6 47q29 -20 80 -20q65 0 80 76l103 544h-88l10 42h87l15 77q13 71 36 94q35 35 94 35q31 0 89 -16l-10 -40q-36 13 -79 13q-40 0 -54.5 -15.5t-21.5 -50.5z" />
    <glyph glyph-name="circumflex" unicode="&#x2c6;" horiz-adv-x="333" 
d="M256 682h56l90 -153h-29l-102 116l-120 -116h-28z" />
    <glyph glyph-name="caron" unicode="&#x2c7;" horiz-adv-x="333" 
d="M304 528h-56l-90 153h29l102 -116l120 116h28z" />
    <glyph glyph-name="uni02C9" unicode="&#x2c9;" horiz-adv-x="333" 
d="M161 621l7 35h253l-7 -35h-253z" />
    <glyph glyph-name="breve" unicode="&#x2d8;" horiz-adv-x="333" 
d="M163 679h44q2 -41 21 -66t50 -25q63 0 108 91h39q-17 -60 -58 -98.5t-88 -38.5q-50 0 -82 38t-34 99z" />
    <glyph glyph-name="dotaccent" unicode="&#x2d9;" horiz-adv-x="333" 
d="M291 648q15 0 25.5 -10t10.5 -25t-10.5 -25.5t-25.5 -10.5t-25 10.5t-10 25.5t10 25t25 10z" />
    <glyph glyph-name="ring" unicode="&#x2da;" horiz-adv-x="333" 
d="M301 707q37 0 64 -26.5t27 -64.5t-27 -64.5t-64 -26.5t-64 26.5t-27 64.5t27 64.5t64 26.5zM301 678q-25 0 -43.5 -18t-18.5 -44t18.5 -44t43.5 -18t43.5 18t18.5 44t-18.5 44t-43.5 18z" />
    <glyph glyph-name="ogonek" unicode="&#x2db;" horiz-adv-x="333" 
d="M146 0h41q-44 -51 -44 -82q0 -25 17.5 -39.5t47.5 -14.5q25 0 55 9l-8 -35q-31 -14 -65 -14q-39 0 -66 24t-27 59q0 44 49 93z" />
    <glyph glyph-name="tilde" unicode="&#x2dc;" horiz-adv-x="333" 
d="M161 566h-27q7 39 31.5 64t56.5 25q27 0 79 -24q54 -25 74 -25q39 0 56 49h25q-6 -39 -30 -65t-54 -26q-26 0 -82 25q-54 24 -72 24q-43 0 -57 -47z" />
    <glyph glyph-name="hungarumlaut" unicode="&#x2dd;" horiz-adv-x="333" 
d="M320 532l99 157h60l-122 -157h-37zM188 532l99 157h60l-122 -157h-37z" />
    <glyph glyph-name="uni03A9" unicode="&#x3a9;" horiz-adv-x="667" 
d="M190 38l1 3q-46 53 -63 129.5t4 187.5q34 147 133.5 237t215.5 90t169.5 -93t21.5 -231q-24 -104 -82 -188t-125 -132v-3h145l-9 -38h-210l7 28q75 46 139 132.5t89 193.5q13 49 8.5 100.5t-20 94.5t-53 70.5t-90.5 27.5q-102 0 -184.5 -84.5t-110.5 -209.5
q-24 -102 0.5 -191.5t76.5 -133.5l-7 -28h-209l9 38h144z" />
    <glyph glyph-name="uni03BC" unicode="&#x3bc;" horiz-adv-x="552" 
d="M170 473h49l-57 -306q-10 -54 14 -88t67 -34q70 0 123 65.5t79 207.5l29 155h49l-89 -473h-49l18 94l-2 2q-18 -34 -64.5 -71t-104.5 -37q-30 0 -51 13t-43 44l-55 -257h-50z" />
    <glyph glyph-name="pi" unicode="&#x3c0;" horiz-adv-x="512" 
d="M576 460h-79l-74 -320q-22 -96 -18 -140h-43q-8 27 16 133l75 327h-187q-30 -111 -84.5 -254.5t-93.5 -205.5h-44q43 71 95 208t83 252q-78 0 -112 -13l-2 30q42 22 127 22h356z" />
    <glyph glyph-name="uni2010" unicode="&#x2010;" horiz-adv-x="354" 
d="M71 210l10 42h277l-10 -42h-277z" />
    <glyph glyph-name="endash" unicode="&#x2013;" horiz-adv-x="500" 
d="M44 277h512v-53h-512v53z" />
    <glyph glyph-name="emdash" unicode="&#x2014;" horiz-adv-x="1000" 
d="M44 277h1012v-53h-1012v53z" />
    <glyph glyph-name="quoteleft" unicode="&#x2018;" horiz-adv-x="240" 
d="M228 458h-54l24 103q13 56 34 84.5t61 33.5l-8 -34q-21 -3 -31.5 -22.5t-23.5 -60.5q-2 -7 -3 -10h23z" />
    <glyph glyph-name="quoteright" unicode="&#x2019;" horiz-adv-x="240" 
d="M240 679h54l-24 -103q-13 -56 -34 -84.5t-61 -33.5l8 34q21 3 31.5 22.5t23.5 60.5q2 7 3 10h-23z" />
    <glyph glyph-name="quotesinglbase" unicode="&#x201a;" horiz-adv-x="240" 
d="M100 94h54l-24 -103q-13 -56 -34 -84.5t-61 -33.5l8 34q21 3 31.5 22.5t23.5 60.5q2 7 3 10h-23z" />
    <glyph glyph-name="quotedblleft" unicode="&#x201c;" horiz-adv-x="490" 
d="M482 458h-54l24 103q13 56 34 84.5t61 33.5l-8 -34q-21 -3 -31.5 -22.5t-23.5 -60.5q-2 -7 -3 -10h23zM227 458h-54l24 103q13 56 34 84.5t61 33.5l-8 -34q-21 -3 -31.5 -22.5t-23.5 -60.5q-2 -7 -3 -10h23z" />
    <glyph glyph-name="quotedblright" unicode="&#x201d;" horiz-adv-x="490" 
d="M494 679h54l-24 -103q-13 -56 -34 -84.5t-61 -33.5l8 34q21 3 31.5 22.5t23.5 60.5q2 7 3 10h-23zM239 679h54l-24 -103q-13 -56 -34 -84.5t-61 -33.5l8 34q21 3 31.5 22.5t23.5 60.5q2 7 3 10h-23z" />
    <glyph glyph-name="quotedblbase" unicode="&#x201e;" horiz-adv-x="490" 
d="M403 94h54l-24 -103q-13 -56 -34 -84.5t-61 -33.5l8 34q21 3 31.5 22.5t23.5 60.5q2 7 3 10h-23zM148 94h54l-24 -103q-13 -56 -34 -84.5t-61 -33.5l8 34q21 3 31.5 22.5t23.5 60.5q2 7 3 10h-23z" />
    <glyph glyph-name="dagger" unicode="&#x2020;" horiz-adv-x="438" 
d="M311 412q-22 -111 -19 -157l-27 -115l-97 -352h-24l69 373l24 95q27 50 50 156q-65 0 -102 -15h-98l12 53h99l18 -6l18 -6q16 -6 39 -7h19q22 97 20 146l25 113h54l-24 -109q-38 -84 -52 -150q57 0 110 19h96l-12 -53h-94q-10 4 -15 5q-9 4 -17 5q-20 5 -49 5h-23z" />
    <glyph glyph-name="daggerdbl" unicode="&#x2021;" horiz-adv-x="438" 
d="M312 238q-49 -57 -75 -189q57 0 96 14h84l-12 -52h-84q-7 2 -8 2.5t-4 1.5l-20 5q-22 6 -43 6h-14q-22 -96 -13 -125l-26 -113h-54l27 120q6 6 10 14t8 20.5t6 21t7 30t8 32.5q-50 0 -92 -15h-84l12 52h82q14 -5 16 -6q10 -3 13 -3q7 -1 11.5 -1.5t11.5 -1.5t16 -2h21
q30 115 20 188q6 7 11 15.5t9 15t8 17t6.5 17t6.5 19.5t6 19t5.5 21t5 21t5.5 24t5 24q-63 0 -92 -15h-85l12 52h83q2 -1 7.5 -2.5t8.5 -2.5q2 -1 19 -5q21 -4 34 -4h19q17 80 15 123l27 114h54l-27 -114q-25 -38 -44 -123q58 0 97 14h83l-12 -52h-82q-5 0 -17 6q-9 4 -22 5
q-7 1 -19 2t-19 2h-14q-28 -123 -14 -192z" />
    <glyph glyph-name="bullet" unicode="&#x2022;" horiz-adv-x="500" 
d="M316 463q50 0 86 -36t36 -86t-36 -86t-86 -36t-86 36t-36 86t36 86t86 36z" />
    <glyph glyph-name="ellipsis" unicode="&#x2026;" horiz-adv-x="1000" 
d="M805 0v93h56v-93h-56zM472 0v93h56v-93h-56zM139 0v93h56v-93h-56z" />
    <glyph glyph-name="perthousand" unicode="&#x2030;" horiz-adv-x="1083" 
d="M785 135q0 85 60 146.5t142 61.5q70 0 112.5 -40t42.5 -106q0 -85 -62.5 -147t-148.5 -62q-64 0 -105 41t-41 106zM826 135q0 -50 30 -80.5t81 -30.5q72 0 118 57t46 115q0 50 -31 80.5t-82 30.5q-64 0 -113 -52t-49 -120zM383 135q0 85 60 146.5t142 61.5
q70 0 112.5 -40t42.5 -106q0 -85 -62.5 -147t-148.5 -62q-64 0 -105 41t-41 106zM424 135q0 -50 30 -80.5t81 -30.5q72 0 118 57t46 115q0 50 -31 80.5t-82 30.5q-64 0 -113 -52t-49 -120zM72 483q0 85 60 146.5t142 61.5q70 0 112.5 -40t42.5 -106q0 -85 -62.5 -147
t-148.5 -62q-64 0 -105 41t-41 106zM113 483q0 -50 30 -80.5t81 -30.5q72 0 118 57t46 115q0 50 -31 80.5t-82 30.5q-64 0 -113 -52t-49 -120zM66 0l636 679h44l-637 -679h-43z" />
    <glyph glyph-name="guilsinglleft" unicode="&#x2039;" horiz-adv-x="208" 
d="M148 22l-79 202l168 231h51l-176 -237l76 -196h-40z" />
    <glyph glyph-name="guilsinglright" unicode="&#x203a;" horiz-adv-x="208" 
d="M147 455l79 -202l-168 -231h-51l176 237l-76 196h40z" />
    <glyph glyph-name="fraction" unicode="&#x2044;" horiz-adv-x="344" 
d="M-97 0l636 679h44l-637 -679h-43z" />
    <glyph glyph-name="Euro" unicode="&#x20ac;" 
d="M554 519h-34q1 64 -31 98t-85 34q-72 0 -127.5 -64.5t-79.5 -170.5h258l-9 -40h-257q-6 -43 -7 -69h253l-9 -40h-244q1 -114 36 -175t98 -61q48 0 86.5 35.5t59.5 83.5l33 -25q-25 -53 -70.5 -93.5t-107.5 -40.5q-51 0 -88.5 23.5t-57 65t-28.5 87.5t-10 100h-68l10 40
h58q1 26 7 69h-75l8 40h75q29 122 99 198.5t157 76.5q85 0 127 -65l7 54h40z" />
    <glyph glyph-name="afii61289" unicode="&#x2113;" horiz-adv-x="435" 
d="M400 125l21 -19q-84 -111 -187 -111q-73 0 -96.5 53.5t-5.5 137.5q0 3 1 7.5t2 6.5l-66 -48l-11 29q72 54 88 67l64 274q27 121 77.5 172.5t103.5 51.5q52 0 70 -41t3 -106q-38 -165 -279 -364l-6 -28q-21 -91 0.5 -133.5t69.5 -42.5q42 0 82.5 28t68.5 66zM253 529
l-57 -244q96 85 155.5 159.5t76.5 150.5q27 114 -48 114q-34 0 -70 -44.5t-57 -135.5z" />
    <glyph glyph-name="trademark" unicode="&#x2122;" horiz-adv-x="938" 
d="M113 679h311v-43h-129v-356h-52v356h-130v43zM469 679h76l99 -319h2l102 319h76v-399h-46v356h-2l-115 -356h-34l-110 356h-2v-356h-46v399z" />
    <glyph glyph-name="Omega" unicode="&#x2126;" horiz-adv-x="667" 
d="M190 38l1 3q-46 53 -63 129.5t4 187.5q34 147 133.5 237t215.5 90t169.5 -93t21.5 -231q-24 -104 -82 -188t-125 -132v-3h145l-9 -38h-210l7 28q75 46 139 132.5t89 193.5q13 49 8.5 100.5t-20 94.5t-53 70.5t-90.5 27.5q-102 0 -184.5 -84.5t-110.5 -209.5
q-24 -102 0.5 -191.5t76.5 -133.5l-7 -28h-209l9 38h144z" />
    <glyph glyph-name="estimated" unicode="&#x212e;" horiz-adv-x="988" 
d="M955 330h-629q-6 0 -6 -4v-190q0 -11 9 -22q101 -104 238 -104q73 0 138 31t112 85h56q-53 -62 -134 -98.5t-173 -36.5q-161 0 -274.5 102t-113.5 247t113.5 247t274.5 102t275 -102t114 -247v-10zM812 355v192q0 13 -9 22q-102 100 -236 100q-136 0 -237 -103
q-10 -10 -10 -24v-187q0 -6 6 -6h482q4 0 4 6z" />
    <glyph glyph-name="partialdiff" unicode="&#x2202;" horiz-adv-x="491" 
d="M235 672l-12 32q74 52 157 52q59 0 99 -38t55 -118.5t-15 -206.5q-41 -177 -126.5 -288t-196.5 -111q-82 0 -111.5 63t-7.5 156q25 108 99 176t153 68q59 0 94 -32t43 -65h1q3 9 12 46q33 140 -1 226t-109 86q-69 0 -134 -46zM208 32h1q70 0 136 78t103 194
q-5 43 -37.5 79.5t-85.5 36.5q-63 0 -123 -59.5t-80 -144.5q-19 -82 4.5 -133t81.5 -51z" />
    <glyph glyph-name="uni2206" unicode="&#x2206;" horiz-adv-x="592" 
d="M17 0l9 36l392 658h49l88 -657l-8 -37h-530zM70 37h437l-55 417q-2 21 -12 88t-11 93h-4q-10 -23 -49.5 -87.5t-47.5 -78.5z" />
    <glyph glyph-name="product" unicode="&#x220f;" horiz-adv-x="774" 
d="M749 633h-104v-726h-43v726h-289v-726h-43v726h-104v41h583v-41z" />
    <glyph glyph-name="summation" unicode="&#x2211;" horiz-adv-x="650" 
d="M628 -93h-465v32l262 350l-250 354v31h438v-39h-374v-4l237 -337l-254 -341v-3h406v-43z" />
    <glyph glyph-name="minus" unicode="&#x2212;" horiz-adv-x="667" 
d="M136 343h525v-45h-525v45z" />
    <glyph glyph-name="uni2215" unicode="&#x2215;" horiz-adv-x="344" 
d="M-97 0l636 679h44l-637 -679h-43z" />
    <glyph glyph-name="uni2219" unicode="&#x2219;" horiz-adv-x="292" 
d="M188 355h54l-22 -94h-54z" />
    <glyph glyph-name="radical" unicode="&#x221a;" horiz-adv-x="665" 
d="M661 798l-205 -948h-43l-155 463l-69 -26l-11 31l110 41l130 -383q14 -57 15 -65h1q2 16 11 61l180 826h36z" />
    <glyph glyph-name="infinity" unicode="&#x221e;" horiz-adv-x="807" 
d="M759 282v-1q0 -63 -41 -102.5t-98 -39.5q-43 0 -79.5 26t-94.5 88q-35 -38 -53.5 -56.5t-54 -38t-71.5 -19.5q-56 0 -96 40.5t-40 98.5q0 61 40.5 101.5t101.5 40.5q48 0 87.5 -30t88.5 -86q62 67 90 87q42 29 88 29q60 0 96 -38.5t36 -99.5zM272 172h1q18 0 35.5 6
t35.5 20t28.5 23t30 30t24.5 26q-54 63 -81 82q-39 29 -81 29q-44 0 -70.5 -33t-26.5 -78t29 -75t75 -30zM623 388h-1q-23 0 -48 -13.5t-40 -27t-37.5 -37.5t-28.5 -29q40 -42 59.5 -60.5t45.5 -33.5t51 -15q45 0 72 32t27 74q0 52 -28 81t-72 29z" />
    <glyph glyph-name="integral" unicode="&#x222b;" horiz-adv-x="459" 
d="M447 805l-12 -32q-12 10 -34 10q-31 0 -47 -22q-35 -40 -35 -178q0 -74 6 -248.5t6 -249.5q0 -135 -44 -196q-27 -38 -78 -38q-31 0 -54 15l11 34q24 -12 42 -12q27 0 45 24q35 46 35 175q0 75 -6 251.5t-6 249.5q0 147 47 197q31 34 76 34q25 0 48 -14z" />
    <glyph glyph-name="approxequal" unicode="&#x2248;" horiz-adv-x="606" 
d="M538 402l22 -18q-42 -86 -116 -86q-6 0 -12 0.5t-12.5 2t-10.5 2.5t-12 4t-11 4t-12.5 6t-12 6t-14 7.5t-14.5 7.5q-56 32 -90 32q-53 0 -95 -71l-24 17q44 87 125 87q16 0 33 -5t26.5 -9.5t27 -15t20.5 -11.5q3 -2 13 -7t13 -7t11.5 -5.5t13 -5l12 -4t14 -3t14.5 -0.5
q28 0 49 17t42 55zM538 250l22 -18q-42 -85 -116 -85q-26 0 -48 9t-63 32q-60 32 -90 32q-31 0 -52.5 -19t-42.5 -53l-24 17q44 87 125 87q16 0 33.5 -5t26 -9t27.5 -14.5t20 -11.5q3 -2 15 -8t15.5 -8t13.5 -6.5t16 -6t14.5 -3t17.5 -1.5q28 0 48.5 17t41.5 54z" />
    <glyph glyph-name="notequal" unicode="&#x2260;" horiz-adv-x="626" 
d="M466 475l-44 -96h155v-34h-169l-67 -141h236v-34h-250l-52 -111l-27 13l45 98h-146v34h162l65 141h-227v34h241l51 109z" />
    <glyph glyph-name="lessequal" unicode="&#x2264;" horiz-adv-x="642" 
d="M590 96l-421 213v34l421 214v-42l-382 -187v-2l382 -188v-42zM592 21h-429v35h429v-35z" />
    <glyph glyph-name="greaterequal" unicode="&#x2265;" horiz-adv-x="642" 
d="M169 557l421 -214v-34l-421 -213v42l382 187v2l-382 188v42zM592 21h-428v35h428v-35z" />
    <glyph glyph-name="lozenge" unicode="&#x25ca;" horiz-adv-x="666" 
d="M613 337l-189 -376h-37l-189 376l190 377h37zM570 336l-147 290q-11 24 -17 47h-2q-6 -22 -18 -47l-145 -288l147 -291q9 -18 17 -46h3q6 24 16 46z" />
    <glyph glyph-name="fi" unicode="&#xfb01;" horiz-adv-x="521" 
d="M548 691q15 0 25.5 -10.5t10.5 -25.5t-10.5 -25.5t-25.5 -10.5t-25.5 10.5t-10.5 25.5t10.5 25.5t25.5 10.5zM535 473l-100 -431h76l-9 -42h-195l9 42h70l90 389h-246l-90 -389h74l-10 -42h-189l10 42h66l89 389h-73l9 42h74l16 67q36 150 147 150q34 0 91 -28l-18 -36
q-41 22 -75 22q-37 0 -61 -29t-38 -90l-13 -56h296z" />
    <glyph glyph-name="fl" unicode="&#xfb02;" horiz-adv-x="521" 
d="M409 679h175l-147 -637h77l-10 -42h-196l10 42h70l137 595h-116q-2 1 -8 3t-8 3l-10 2q-14 3 -31 3q-72 0 -100 -119l-13 -56h77l-10 -42h-76l-90 -389h73l-10 -42h-188l10 42h66l89 389h-73l9 42h74l16 67q36 150 148 150q26 0 55 -11z" />
    <glyph glyph-name="one.superior" horiz-adv-x="344" 
d="M209 360l80 296h-54l6 28h95l-86 -324h46l-6 -28h-142l6 28h55z" />
    <glyph glyph-name="two.superior" horiz-adv-x="344" 
d="M304 361l21 91h40l-33 -120h-220q7 43 35.5 78.5t63.5 58t68.5 43t56.5 45t23 51.5q0 23 -16 38.5t-40 15.5q-70 0 -100 -110h-38q14 66 50.5 102t88.5 36q42 0 68.5 -23t26.5 -59q0 -31 -20.5 -57t-52 -46t-64 -39.5t-62 -46.5t-41.5 -58h145z" />
    <glyph glyph-name="three.superior" horiz-adv-x="344" 
d="M123 449h39q-9 -44 13.5 -69t60.5 -25q36 0 63 24.5t27 57.5q0 31 -22.5 48t-63.5 17h-18l6 28h10q57 0 89 20.5t32 55.5q0 25 -18.5 41t-47.5 16q-60 0 -81 -76h-37q10 49 41.5 76t77.5 27t74 -24t28 -62q0 -35 -23.5 -60.5t-60.5 -29.5v-2q55 -22 55 -74
q0 -45 -39 -78.5t-92 -33.5q-57 0 -89 32t-24 91z" />
    <glyph glyph-name="a.superior" horiz-adv-x="333" 
d="M315 398l10 43l-2 2q-21 -22 -52 -36t-58 -14q-38 0 -63 22.5t-25 56.5q0 40 35 66.5t88 26.5q51 0 100 -25l14 62q7 29 -13.5 46t-55.5 17q-54 0 -92 -48l-25 10q50 63 122 63q48 0 77.5 -25t17.5 -71l-44 -172h47l-5 -24h-76zM331 468l12 50q-45 24 -96 24
q-38 0 -64.5 -20.5t-26.5 -49.5q0 -23 18.5 -38.5t46.5 -15.5q47 0 110 50z" />
    <glyph glyph-name="o.superior" horiz-adv-x="354" 
d="M110 510q0 75 53 127.5t128 52.5q56 0 91 -34.5t35 -90.5q0 -72 -52.5 -123.5t-126.5 -51.5q-55 0 -91.5 34t-36.5 86zM141 510q0 -41 28 -67.5t73 -26.5q58 0 101 44.5t43 104.5q0 44 -27.5 71t-71.5 27q-60 0 -103 -45.5t-43 -107.5z" />
    </font>
</defs>
</svg>
